  0
SECTION
  2
HEADER
  9
$ACADVER
  1
AC1014
  9
$ACADMAINTVER
 70
     0
  9
$DWGCODEPAGE
  3
ANSI_1250
  9
$INSBASE
 10
0.0
 20
0.0
 30
0.0
  9
$EXTMIN
 10
-3039.665742
 20
-366.477529
 30
0.0
  9
$EXTMAX
 10
1583.660152
 20
2132.465923
 30
0.0
  9
$LIMMIN
 10
0.0
 20
0.0
  9
$LIMMAX
 10
1200.0
 20
880.0
  9
$ORTHOMODE
 70
     0
  9
$REGENMODE
 70
     1
  9
$FILLMODE
 70
     1
  9
$QTEXTMODE
 70
     0
  9
$MIRRTEXT
 70
     0
  9
$DRAGMODE
 70
     2
  9
$LTSCALE
 40
5.0
  9
$OSMODE
 70
   171
  9
$ATTMODE
 70
     1
  9
$TEXTSIZE
 40
100.0
  9
$TRACEWID
 40
1.0
  9
$TEXTSTYLE
  7
TOM
  9
$CLAYER
  8
KOTY-UPLNE
  9
$CELTYPE
  6
BYLAYER
  9
$CECOLOR
 62
   256
  9
$CELTSCALE
 40
1.0
  9
$DELOBJ
 70
     1
  9
$DISPSILH
 70
     0
  9
$DIMSCALE
 40
5.0
  9
$DIMASZ
 40
1.5
  9
$DIMEXO
 40
1.0
  9
$DIMDLI
 40
10.0
  9
$DIMRND
 40
1.0
  9
$DIMDLE
 40
1.0
  9
$DIMEXE
 40
0.0
  9
$DIMTP
 40
0.0
  9
$DIMTM
 40
0.0
  9
$DIMTXT
 40
1.5
  9
$DIMCEN
 40
2.0
  9
$DIMTSZ
 40
0.0
  9
$DIMTOL
 70
     0
  9
$DIMLIM
 70
     0
  9
$DIMTIH
 70
     0
  9
$DIMTOH
 70
     0
  9
$DIMSE1
 70
     0
  9
$DIMSE2
 70
     0
  9
$DIMTAD
 70
     1
  9
$DIMZIN
 70
     9
  9
$DIMBLK
  1

  9
$DIMASO
 70
     1
  9
$DIMSHO
 70
     1
  9
$DIMPOST
  1

  9
$DIMAPOST
  1

  9
$DIMALT
 70
     0
  9
$DIMALTD
 70
     2
  9
$DIMALTF
 40
25.4
  9
$DIMLFAC
 40
1.0
  9
$DIMTOFL
 70
     1
  9
$DIMTVP
 40
0.0
  9
$DIMTIX
 70
     0
  9
$DIMSOXD
 70
     0
  9
$DIMSAH
 70
     0
  9
$DIMBLK1
  1

  9
$DIMBLK2
  1

  9
$DIMSTYLE
  2
KOTY-VELKE
  9
$DIMCLRD
 70
   170
  9
$DIMCLRE
 70
   170
  9
$DIMCLRT
 70
     1
  9
$DIMTFAC
 40
1.0
  9
$DIMGAP
 40
0.5
  9
$DIMJUST
 70
     0
  9
$DIMSD1
 70
     0
  9
$DIMSD2
 70
     0
  9
$DIMTOLJ
 70
     1
  9
$DIMTZIN
 70
     8
  9
$DIMALTZ
 70
     8
  9
$DIMALTTZ
 70
     8
  9
$DIMFIT
 70
     5
  9
$DIMUPT
 70
     0
  9
$DIMUNIT
 70
     2
  9
$DIMDEC
 70
     0
  9
$DIMTDEC
 70
     0
  9
$DIMALTU
 70
     2
  9
$DIMALTTD
 70
     2
  9
$DIMTXSTY
  7
TOM
  9
$DIMAUNIT
 70
     0
  9
$LUNITS
 70
     2
  9
$LUPREC
 70
     2
  9
$SKETCHINC
 40
1.0
  9
$FILLETRAD
 40
3.0
  9
$AUNITS
 70
     0
  9
$AUPREC
 70
     4
  9
$MENU
  1
acad
  9
$ELEVATION
 40
0.0
  9
$PELEVATION
 40
0.0
  9
$THICKNESS
 40
0.0
  9
$LIMCHECK
 70
     0
  9
$BLIPMODE
 70
     0
  9
$CHAMFERA
 40
0.0
  9
$CHAMFERB
 40
0.0
  9
$CHAMFERC
 40
0.0
  9
$CHAMFERD
 40
0.0
  9
$SKPOLY
 70
     0
  9
$TDCREATE
 40
2450098.461194791
  9
$TDUPDATE
 40
2452896.102623495
  9
$TDINDWG
 40
0.4662046296
  9
$TDUSRTIMER
 40
0.4662046296
  9
$USRTIMER
 70
     1
  9
$ANGBASE
 50
0.0
  9
$ANGDIR
 70
     0
  9
$PDMODE
 70
     0
  9
$PDSIZE
 40
0.0
  9
$PLINEWID
 40
0.0
  9
$COORDS
 70
     2
  9
$SPLFRAME
 70
     0
  9
$SPLINETYPE
 70
     6
  9
$SPLINESEGS
 70
     8
  9
$ATTDIA
 70
     0
  9
$ATTREQ
 70
     1
  9
$HANDLING
 70
     1
  9
$HANDSEED
  5
1684
  9
$SURFTAB1
 70
     6
  9
$SURFTAB2
 70
     6
  9
$SURFTYPE
 70
     6
  9
$SURFU
 70
     6
  9
$SURFV
 70
     6
  9
$UCSNAME
  2

  9
$UCSORG
 10
0.0
 20
0.0
 30
0.0
  9
$UCSXDIR
 10
1.0
 20
0.0
 30
0.0
  9
$UCSYDIR
 10
0.0
 20
1.0
 30
0.0
  9
$PUCSNAME
  2

  9
$PUCSORG
 10
0.0
 20
0.0
 30
0.0
  9
$PUCSXDIR
 10
1.0
 20
0.0
 30
0.0
  9
$PUCSYDIR
 10
0.0
 20
1.0
 30
0.0
  9
$USERI1
 70
     0
  9
$USERI2
 70
     0
  9
$USERI3
 70
     0
  9
$USERI4
 70
     0
  9
$USERI5
 70
     0
  9
$USERR1
 40
0.0
  9
$USERR2
 40
0.0
  9
$USERR3
 40
0.0
  9
$USERR4
 40
0.0
  9
$USERR5
 40
0.0
  9
$WORLDVIEW
 70
     1
  9
$SHADEDGE
 70
     3
  9
$SHADEDIF
 70
    70
  9
$TILEMODE
 70
     1
  9
$MAXACTVP
 70
    16
  9
$PINSBASE
 10
0.0
 20
0.0
 30
0.0
  9
$PLIMCHECK
 70
     0
  9
$PEXTMIN
 10
27.943527
 20
19.928417
 30
0.0
  9
$PEXTMAX
 10
251.491745
 20
179.355751
 30
0.0
  9
$PLIMMIN
 10
-3.96875
 20
-7.14375
  9
$PLIMMAX
 10
292.929016
 20
202.900135
  9
$UNITMODE
 70
     0
  9
$VISRETAIN
 70
     0
  9
$PLINEGEN
 70
     0
  9
$PSLTSCALE
 70
     1
  9
$TREEDEPTH
 70
  3020
  9
$PICKSTYLE
 70
     3
  9
$CMLSTYLE
  2
STANDARD
  9
$CMLJUST
 70
     0
  9
$CMLSCALE
 40
1.0
  9
$PROXYGRAPHICS
 70
     1
  9
$MEASUREMENT
 70
     0
  0
ENDSEC
  0
SECTION
  2
CLASSES
  0
CLASS
  1
DICTIONARYVAR
  2
AcDbDictionaryVar
  3
"AutoCAD"
 90
        0
280
     0
281
     0
  0
CLASS
  1
LWPOLYLINE
  2
AcDbPolyline
  3
"AutoCAD"
 90
        0
280
     0
281
     1
  0
CLASS
  1
ACDBDICTIONARYWDFLT
  2
AcDbDictionaryWithDefault
  3
AutoCAD 2000
 90
        0
280
     0
281
     0
  0
CLASS
  1
ACDBPLACEHOLDER
  2
AcDbPlaceHolder
  3
AutoCAD 2000
 90
        0
280
     0
281
     0
  0
CLASS
  1
LAYOUT
  2
AcDbLayout
  3
AutoCAD 2000
 90
        0
280
     0
281
     0
  0
CLASS
  1
LONG_TRANSACTION
  2
AcDbLongTransaction
  3
AutoCAD 2000
 90
        0
280
     0
281
     0
  0
CLASS
  1
LWPOLYLINE
  2
AcDbPolyline
  3
"AutoCAD"
 90
        0
280
     0
281
     1
  0
CLASS
  1
HATCH
  2
AcDbHatch
  3
"ACAD_SEDONA"
 90
        0
280
     0
281
     1
  0
CLASS
  1
XRECORD
  2
AcDbXrecord
  3
"<Built In>"
 90
        0
280
     0
281
     0
  0
ENDSEC
  0
SECTION
  2
TABLES
  0
TABLE
  2
VPORT
  5
19
100
AcDbSymbolTable
 70
     7
  0
VPORT
  5
1683
100
AcDbSymbolTableRecord
100
AcDbViewportTableRecord
  2
*ACTIVE
 70
     0
 10
0.0
 20
0.0
 11
1.0
 21
1.0
 12
859.299124
 22
56.599691
 13
0.0
 23
0.0
 14
1.0
 24
1.0
 15
1000.0
 25
1000.0
 16
0.0
 26
0.0
 36
1.0
 17
0.0
 27
0.0
 37
0.0
 40
668.563872
 41
2.059548
 42
50.0
 43
0.0
 44
0.0
 50
0.0
 51
0.0
 71
     0
 72
 20000
 73
     1
 74
     1
 75
     0
 76
     0
 77
     0
 78
     0
  0
ENDTAB
  0
TABLE
  2
LTYPE
  5
14
100
AcDbSymbolTable
 70
     2
  0
LTYPE
  5
15
100
AcDbSymbolTableRecord
100
AcDbLinetypeTableRecord
  2
BYBLOCK
 70
     0
  3

 72
    65
 73
     0
 40
0.0
  0
LTYPE
  5
16
100
AcDbSymbolTableRecord
100
AcDbLinetypeTableRecord
  2
BYLAYER
 70
     0
  3

 72
    65
 73
     0
 40
0.0
  0
LTYPE
  5
8
100
AcDbSymbolTableRecord
100
AcDbLinetypeTableRecord
  2
AUSGEZOGEN
 70
     0
  3
Ausgezogene Linie
 72
    65
 73
     0
 40
0.0
  0
LTYPE
  5
3D1
100
AcDbSymbolTableRecord
100
AcDbLinetypeTableRecord
  2
CONTINUOUS
 70
     0
  3
Solid line
 72
    65
 73
     0
 40
0.0
  0
ENDTAB
  0
TABLE
  2
LAYER
  5
10
100
AcDbSymbolTable
 70
    11
  0
LAYER
  5
4
100
AcDbSymbolTableRecord
100
AcDbLayerTableRecord
  2
0
 70
     0
 62
     7
  6
AUSGEZOGEN
  0
LAYER
  5
31
102
{ACAD_XDICTIONARY
360
147
102
}
100
AcDbSymbolTableRecord
100
AcDbLayerTableRecord
  2
DEFPOINTS
 70
     0
 62
     7
  6
AUSGEZOGEN
  0
LAYER
  5
ABF
100
AcDbSymbolTableRecord
100
AcDbLayerTableRecord
  2
KOTY-UPLNE
 70
     0
 62
     5
  6
CONTINUOUS
  0
LAYER
  5
AC0
100
AcDbSymbolTableRecord
100
AcDbLayerTableRecord
  2
LAMELA-VELKA
 70
     0
 62
     7
  6
CONTINUOUS
  0
ENDTAB
  0
TABLE
  2
STYLE
  5
11
100
AcDbSymbolTable
 70
     5
  0
STYLE
  5
12
100
AcDbSymbolTableRecord
100
AcDbTextStyleTableRecord
  2
STANDARD
 70
     0
 40
0.0
 41
1.0
 50
0.0
 71
     0
 42
2.0
  3
txt8.shx
  4

  0
STYLE
  5
1F
100
AcDbSymbolTableRecord
100
AcDbTextStyleTableRecord
  2
SIMPLEX8
 70
     0
 40
0.0
 41
1.0
 50
0.0
 71
     0
 42
100.0
  3
simplex8.shx
  4

  0
STYLE
  5
26
102
{ACAD_XDICTIONARY
360
117
102
}
100
AcDbSymbolTableRecord
100
AcDbTextStyleTableRecord
  2
TOM
 70
     0
 40
0.0
 41
0.9
 50
0.0
 71
     0
 42
100.0
  3
simplex.shx
  4

  0
STYLE
  5
14C4
100
AcDbSymbolTableRecord
100
AcDbTextStyleTableRecord
  2
STYLE1
 70
     0
 40
0.0
 41
0.9
 50
0.0
 71
     0
 42
50.0
  3
simplex.shx
  4

  0
ENDTAB
  0
TABLE
  2
VIEW
  5
17
100
AcDbSymbolTable
 70
     0
  0
ENDTAB
  0
TABLE
  2
UCS
  5
18
100
AcDbSymbolTable
 70
     0
  0
ENDTAB
  0
TABLE
  2
APPID
  5
1B
100
AcDbSymbolTable
 70
     2
  0
APPID
  5
1C
100
AcDbSymbolTableRecord
100
AcDbRegAppTableRecord
  2
ACAD
 70
     0
  0
APPID
  5
3DA
100
AcDbSymbolTableRecord
100
AcDbRegAppTableRecord
  2
DCO15
 70
     0
  0
ENDTAB
  0
TABLE
  2
DIMSTYLE
  5
1D
100
AcDbSymbolTable
 70
     7
  0
DIMSTYLE
105
20
102
{ACAD_XDICTIONARY
360
145
102
}
100
AcDbSymbolTableRecord
100
AcDbDimStyleTableRecord
  2
PFLAUM2-35
 70
     0
  3

  4

  5

  6

  7

 40
2.0
 41
0.0
 42
1.0
 43
7.0
 44
1.0
 45
1.0
 46
1.0
 47
0.0
 48
0.0
140
3.5
141
2.0
142
1.0
143
25.4
144
1.0
145
0.0
146
1.0
147
0.0
 71
     0
 72
     0
 73
     0
 74
     0
 75
     0
 76
     0
 77
     1
 78
     8
170
     0
171
     2
172
     1
173
     0
174
     0
175
     0
176
     7
177
     7
178
    30
270
     2
271
     2
272
     2
273
     2
274
     2
340
1F
275
     0
280
     0
281
     0
282
     0
283
     1
284
     8
285
     8
286
     8
287
     5
288
     0
  0
DIMSTYLE
105
3D9
100
AcDbSymbolTableRecord
100
AcDbDimStyleTableRecord
  2
STANDARD
 70
     0
  3

  4

  5

  6

  7

 40
1.0
 41
0.18
 42
0.0625
 43
0.38
 44
0.18
 45
0.0
 46
0.0
 47
0.0
 48
0.0
140
0.18
141
0.09
142
0.0
143
25.4
144
1.0
145
0.0
146
1.0
147
0.09
 71
     0
 72
     0
 73
     1
 74
     1
 75
     0
 76
     0
 77
     0
 78
     0
170
     0
171
     2
172
     0
173
     0
174
     0
175
     0
176
     0
177
     0
178
     0
270
     2
271
     4
272
     4
273
     2
274
     2
340
12
275
     0
280
     0
281
     0
282
     0
283
     1
284
     0
285
     0
286
     0
287
     3
288
     0
  0
DIMSTYLE
105
ACE
100
AcDbSymbolTableRecord
100
AcDbDimStyleTableRecord
  2
KOTY-MALE
 70
     0
  3

  4

  5

  6

  7

 40
10.0
 41
1.5
 42
1.0
 43
10.0
 44
0.0
 45
1.0
 46
1.0
 47
0.0
 48
0.0
140
1.5
141
2.0
142
0.0
143
25.4
144
1.0
145
0.0
146
1.0
147
0.5
 71
     0
 72
     0
 73
     0
 74
     0
 75
     0
 76
     0
 77
     1
 78
     9
170
     0
171
     2
172
     1
173
     0
174
     0
175
     0
176
   170
177
   170
178
     1
270
     2
271
     0
272
     0
273
     2
274
     2
340
26
275
     0
280
     0
281
     0
282
     0
283
     1
284
     8
285
     8
286
     8
287
     5
288
     0
  0
DIMSTYLE
105
ACF
102
{ACAD_REACTORS
330
1658
330
1664
330
1674
102
}
100
AcDbSymbolTableRecord
100
AcDbDimStyleTableRecord
  2
KOTY-VELKE
 70
     0
  3

  4

  5

  6

  7

 40
3.0
 41
1.5
 42
1.0
 43
10.0
 44
0.0
 45
1.0
 46
1.0
 47
0.0
 48
0.0
140
1.5
141
2.0
142
0.0
143
25.4
144
1.0
145
0.0
146
1.0
147
1.5
 71
     0
 72
     0
 73
     0
 74
     0
 75
     0
 76
     0
 77
     1
 78
     9
170
     0
171
     2
172
     1
173
     0
174
     0
175
     0
176
   170
177
   170
178
    50
270
     2
271
     0
272
     0
273
     2
274
     2
340
26
275
     0
280
     0
281
     0
282
     0
283
     1
284
     8
285
     8
286
     8
287
     5
288
     0
  0
ENDTAB
  0
TABLE
  2
BLOCK_RECORD
  5
1
100
AcDbSymbolTable
 70
   110
  0
BLOCK_RECORD
  5
2
102
{ACAD_XDICTIONARY
360
13E
102
}
100
AcDbSymbolTableRecord
100
AcDbBlockTableRecord
  2
*MODEL_SPACE
  0
BLOCK_RECORD
  5
C
102
{ACAD_XDICTIONARY
360
111
102
}
100
AcDbSymbolTableRecord
100
AcDbBlockTableRecord
  2
*PAPER_SPACE
  0
BLOCK_RECORD
  5
14FF
100
AcDbSymbolTableRecord
100
AcDbBlockTableRecord
  2
*D97
  0
BLOCK_RECORD
  5
150B
100
AcDbSymbolTableRecord
100
AcDbBlockTableRecord
  2
*D98
  0
BLOCK_RECORD
  5
1517
100
AcDbSymbolTableRecord
100
AcDbBlockTableRecord
  2
*D99
  0
BLOCK_RECORD
  5
164C
100
AcDbSymbolTableRecord
100
AcDbBlockTableRecord
  2
*D107
  0
BLOCK_RECORD
  5
1659
100
AcDbSymbolTableRecord
100
AcDbBlockTableRecord
  2
*D108
  0
BLOCK_RECORD
  5
1665
100
AcDbSymbolTableRecord
100
AcDbBlockTableRecord
  2
*D109
  0
ENDTAB
  0
ENDSEC
  0
SECTION
  2
BLOCKS
  0
BLOCK
  5
3
100
AcDbEntity
  8
0
100
AcDbBlockBegin
  2
*MODEL_SPACE
 70
     0
 10
0.0
 20
0.0
 30
0.0
  3
*MODEL_SPACE
  1

  0
ENDBLK
  5
9
100
AcDbEntity
  8
0
100
AcDbBlockEnd
  0
BLOCK
  5
D
100
AcDbEntity
 67
     1
  8
0
100
AcDbBlockBegin
  2
*PAPER_SPACE
 70
     0
 10
0.0
 20
0.0
 30
0.0
  3
*PAPER_SPACE
  1

  0
ENDBLK
  5
E
100
AcDbEntity
 67
     1
  8
0
100
AcDbBlockEnd
  0
BLOCK
  5
158C
100
AcDbEntity
  8
0
100
AcDbBlockBegin
  2
*D97
 70
     1
 10
0.0
 20
0.0
 30
0.0
  3
*D97
  1

  0
LINE
  5
158D
100
AcDbEntity
  8
0
  6
BYBLOCK
100
AcDbLine
 10
342.179986
 20
-2.180942
 30
0.0
 11
342.179986
 21
-45.947507
 31
0.0
  0
LINE
  5
158E
100
AcDbEntity
  8
0
  6
BYBLOCK
100
AcDbLine
 10
1342.179986
 20
-2.180942
 30
0.0
 11
1342.179986
 21
-45.947507
 31
0.0
  0
LINE
  5
158F
100
AcDbEntity
  8
0
  6
BYBLOCK
100
AcDbLine
 10
349.679986
 20
-43.447507
 30
0.0
 11
1334.679986
 21
-43.447507
 31
0.0
  0
SOLID
  5
1590
100
AcDbEntity
  8
0
  6
BYBLOCK
100
AcDbTrace
 10
349.679986
 20
-42.197507
 30
0.0
 11
349.679986
 21
-44.697507
 31
0.0
 12
342.179986
 22
-43.447507
 32
0.0
 13
342.179986
 23
-43.447507
 33
0.0
  0
SOLID
  5
1591
100
AcDbEntity
  8
0
  6
BYBLOCK
100
AcDbTrace
 10
1334.679986
 20
-42.197507
 30
0.0
 11
1334.679986
 21
-44.697507
 31
0.0
 12
1342.179986
 22
-43.447507
 32
0.0
 13
1342.179986
 23
-43.447507
 33
0.0
  0
MTEXT
  5
1592
100
AcDbEntity
  8
0
  6
BYBLOCK
 62
     1
100
AcDbMText
 10
842.179986
 20
-37.197507
 30
0.0
 40
7.5
 41
0.0
 71
     5
 72
     1
  1
\A1;1000
  7
TOM
  0
POINT
  5
1593
100
AcDbEntity
  8
DEFPOINTS
  6
BYBLOCK
 62
     0
100
AcDbPoint
 10
342.179986
 20
2.819058
 30
0.0
  0
POINT
  5
1594
100
AcDbEntity
  8
DEFPOINTS
  6
BYBLOCK
 62
     0
100
AcDbPoint
 10
1342.179986
 20
2.819058
 30
0.0
  0
POINT
  5
1595
100
AcDbEntity
  8
DEFPOINTS
  6
BYBLOCK
 62
     0
100
AcDbPoint
 10
1342.179986
 20
-43.447507
 30
0.0
  0
ENDBLK
  5
1596
100
AcDbEntity
  8
0
100
AcDbBlockEnd
  0
BLOCK
  5
1641
100
AcDbEntity
  8
0
100
AcDbBlockBegin
  2
*D98
 70
     1
 10
0.0
 20
0.0
 30
0.0
  3
*D98
  1

  0
LINE
  5
1642
100
AcDbEntity
  8
0
  6
BYBLOCK
100
AcDbLine
 10
342.179986
 20
-2.180942
 30
0.0
 11
342.179986
 21
-26.943423
 31
0.0
  0
LINE
  5
1643
100
AcDbEntity
  8
0
  6
BYBLOCK
100
AcDbLine
 10
592.179986
 20
-2.180942
 30
0.0
 11
592.179986
 21
-26.943423
 31
0.0
  0
LINE
  5
1644
100
AcDbEntity
  8
0
  6
BYBLOCK
100
AcDbLine
 10
349.679986
 20
-24.443423
 30
0.0
 11
584.679986
 21
-24.443423
 31
0.0
  0
SOLID
  5
1645
100
AcDbEntity
  8
0
  6
BYBLOCK
100
AcDbTrace
 10
349.679986
 20
-23.193423
 30
0.0
 11
349.679986
 21
-25.693423
 31
0.0
 12
342.179986
 22
-24.443423
 32
0.0
 13
342.179986
 23
-24.443423
 33
0.0
  0
SOLID
  5
1646
100
AcDbEntity
  8
0
  6
BYBLOCK
100
AcDbTrace
 10
584.679986
 20
-23.193423
 30
0.0
 11
584.679986
 21
-25.693423
 31
0.0
 12
592.179986
 22
-24.443423
 32
0.0
 13
592.179986
 23
-24.443423
 33
0.0
  0
MTEXT
  5
1647
100
AcDbEntity
  8
0
  6
BYBLOCK
 62
     1
100
AcDbMText
 10
467.179986
 20
-18.193423
 30
0.0
 40
7.5
 41
0.0
 71
     5
 72
     1
  1
\A1;250
  7
TOM
  0
POINT
  5
1648
100
AcDbEntity
  8
DEFPOINTS
  6
BYBLOCK
 62
     0
100
AcDbPoint
 10
342.179986
 20
2.819058
 30
0.0
  0
POINT
  5
1649
100
AcDbEntity
  8
DEFPOINTS
  6
BYBLOCK
 62
     0
100
AcDbPoint
 10
592.179986
 20
2.819058
 30
0.0
  0
POINT
  5
164A
100
AcDbEntity
  8
DEFPOINTS
  6
BYBLOCK
 62
     0
100
AcDbPoint
 10
592.179986
 20
-24.443423
 30
0.0
  0
ENDBLK
  5
164B
100
AcDbEntity
  8
0
100
AcDbBlockEnd
  0
BLOCK
  5
15AD
100
AcDbEntity
  8
0
100
AcDbBlockBegin
  2
*D99
 70
     1
 10
0.0
 20
0.0
 30
0.0
  3
*D99
  1

  0
LINE
  5
15AE
100
AcDbEntity
  8
0
  6
BYBLOCK
100
AcDbLine
 10
1334.679986
 20
32.819058
 30
0.0
 11
1399.058483
 21
32.819058
 31
0.0
  0
LINE
  5
15AF
100
AcDbEntity
  8
0
  6
BYBLOCK
100
AcDbLine
 10
1349.179986
 20
2.819058
 30
0.0
 11
1399.058483
 21
2.819058
 31
0.0
  0
LINE
  5
15B0
100
AcDbEntity
  8
0
  6
BYBLOCK
100
AcDbLine
 10
1396.558483
 20
25.319058
 30
0.0
 11
1396.558483
 21
10.319058
 31
0.0
  0
MTEXT
  5
15B1
100
AcDbEntity
  8
0
  6
BYBLOCK
 62
     1
100
AcDbMText
 10
1389.198015
 20
15.803905
 30
0.0
 40
7.5
 41
0.0
 71
     5
 72
     1
  1
\A1;30
  7
TOM
 11
0.0
 21
1.0
 31
0.0
  0
SOLID
  5
15B2
100
AcDbEntity
  8
0
  6
BYBLOCK
100
AcDbTrace
 10
1395.308483
 20
25.319058
 30
0.0
 11
1397.808483
 21
25.319058
 31
0.0
 12
1396.558483
 22
32.819058
 32
0.0
 13
1396.558483
 23
32.819058
 33
0.0
  0
SOLID
  5
15B3
100
AcDbEntity
  8
0
  6
BYBLOCK
100
AcDbTrace
 10
1395.308483
 20
10.319058
 30
0.0
 11
1397.808483
 21
10.319058
 31
0.0
 12
1396.558483
 22
2.819058
 32
0.0
 13
1396.558483
 23
2.819058
 33
0.0
  0
POINT
  5
15B4
100
AcDbEntity
  8
DEFPOINTS
  6
BYBLOCK
 62
     0
100
AcDbPoint
 10
1329.679986
 20
32.819058
 30
0.0
  0
POINT
  5
15B5
100
AcDbEntity
  8
DEFPOINTS
  6
BYBLOCK
 62
     0
100
AcDbPoint
 10
1344.179986
 20
2.819058
 30
0.0
  0
POINT
  5
15B6
100
AcDbEntity
  8
DEFPOINTS
  6
BYBLOCK
 62
     0
100
AcDbPoint
 10
1396.558483
 20
2.819058
 30
0.0
  0
ENDBLK
  5
15B7
100
AcDbEntity
  8
0
100
AcDbBlockEnd
  0
BLOCK
  5
164D
100
AcDbEntity
  8
0
100
AcDbBlockBegin
  2
*D107
 70
     1
 10
0.0
 20
0.0
 30
0.0
  3
*D107
  1

  0
LINE
  5
164E
100
AcDbEntity
  8
0
  6
BYBLOCK
 62
   170
100
AcDbLine
 10
604.679986
 20
2.819058
 30
0.0
 11
604.679986
 21
-24.443423
 31
0.0
  0
LINE
  5
164F
100
AcDbEntity
  8
0
  6
BYBLOCK
 62
   170
100
AcDbLine
 10
829.679986
 20
2.819058
 30
0.0
 11
829.679986
 21
-24.443423
 31
0.0
  0
LINE
  5
1650
100
AcDbEntity
  8
0
  6
BYBLOCK
 62
   170
100
AcDbLine
 10
612.179986
 20
-24.443423
 30
0.0
 11
822.179986
 21
-24.443423
 31
0.0
  0
SOLID
  5
1651
100
AcDbEntity
  8
0
  6
BYBLOCK
 62
   170
100
AcDbTrace
 10
612.179986
 20
-23.193423
 30
0.0
 11
612.179986
 21
-25.693423
 31
0.0
 12
604.679986
 22
-24.443423
 32
0.0
 13
604.679986
 23
-24.443423
 33
0.0
  0
SOLID
  5
1652
100
AcDbEntity
  8
0
  6
BYBLOCK
 62
   170
100
AcDbTrace
 10
822.179986
 20
-23.193423
 30
0.0
 11
822.179986
 21
-25.693423
 31
0.0
 12
829.679986
 22
-24.443423
 32
0.0
 13
829.679986
 23
-24.443423
 33
0.0
  0
MTEXT
  5
1653
100
AcDbEntity
  8
0
  6
BYBLOCK
 62
     1
100
AcDbMText
 10
717.179986
 20
-18.193423
 30
0.0
 40
7.5
 41
0.0
 71
     5
 72
     1
  1
\A1;225
  7
TOM
  0
POINT
  5
1654
100
AcDbEntity
  8
DEFPOINTS
  6
BYBLOCK
 62
     0
100
AcDbPoint
 10
604.679986
 20
7.819058
 30
0.0
  0
POINT
  5
1655
100
AcDbEntity
  8
DEFPOINTS
  6
BYBLOCK
 62
     0
100
AcDbPoint
 10
829.679986
 20
7.819058
 30
0.0
  0
POINT
  5
1656
100
AcDbEntity
  8
DEFPOINTS
  6
BYBLOCK
 62
     0
100
AcDbPoint
 10
829.679986
 20
-24.443423
 30
0.0
  0
ENDBLK
  5
1657
100
AcDbEntity
  8
0
100
AcDbBlockEnd
  0
BLOCK
  5
165A
100
AcDbEntity
  8
0
100
AcDbBlockBegin
  2
*D108
 70
     1
 10
0.0
 20
0.0
 30
0.0
  3
*D108
  1

  0
LINE
  5
165B
100
AcDbEntity
  8
0
  6
BYBLOCK
 62
   170
100
AcDbLine
 10
854.679986
 20
2.819058
 30
0.0
 11
854.679986
 21
-24.443423
 31
0.0
  0
LINE
  5
165C
100
AcDbEntity
  8
0
  6
BYBLOCK
 62
   170
100
AcDbLine
 10
837.179986
 20
-24.443423
 30
0.0
 11
847.179986
 21
-24.443423
 31
0.0
  0
SOLID
  5
165D
100
AcDbEntity
  8
0
  6
BYBLOCK
 62
   170
100
AcDbTrace
 10
837.179986
 20
-23.193423
 30
0.0
 11
837.179986
 21
-25.693423
 31
0.0
 12
829.679986
 22
-24.443423
 32
0.0
 13
829.679986
 23
-24.443423
 33
0.0
  0
SOLID
  5
165E
100
AcDbEntity
  8
0
  6
BYBLOCK
 62
   170
100
AcDbTrace
 10
847.179986
 20
-23.193423
 30
0.0
 11
847.179986
 21
-25.693423
 31
0.0
 12
854.679986
 22
-24.443423
 32
0.0
 13
854.679986
 23
-24.443423
 33
0.0
  0
MTEXT
  5
165F
100
AcDbEntity
  8
0
  6
BYBLOCK
 62
     1
100
AcDbMText
 10
842.179986
 20
-18.193423
 30
0.0
 40
7.5
 41
0.0
 71
     5
 72
     1
  1
\A1;25
  7
TOM
  0
POINT
  5
1660
100
AcDbEntity
  8
DEFPOINTS
  6
BYBLOCK
 62
     0
100
AcDbPoint
 10
829.679986
 20
7.819058
 30
0.0
  0
POINT
  5
1661
100
AcDbEntity
  8
DEFPOINTS
  6
BYBLOCK
 62
     0
100
AcDbPoint
 10
854.679986
 20
7.819058
 30
0.0
  0
POINT
  5
1662
100
AcDbEntity
  8
DEFPOINTS
  6
BYBLOCK
 62
     0
100
AcDbPoint
 10
854.679986
 20
-24.443423
 30
0.0
  0
ENDBLK
  5
1663
100
AcDbEntity
  8
0
100
AcDbBlockEnd
  0
BLOCK
  5
1675
100
AcDbEntity
  8
0
100
AcDbBlockBegin
  2
*D109
 70
     1
 10
0.0
 20
0.0
 30
0.0
  3
*D109
  1

  0
LINE
  5
1676
100
AcDbEntity
  8
0
  6
BYBLOCK
 62
   170
100
AcDbLine
 10
1347.179986
 20
2.819058
 30
0.0
 11
1371.681043
 21
2.819058
 31
0.0
  0
LINE
  5
1677
100
AcDbEntity
  8
0
  6
BYBLOCK
 62
   170
100
AcDbLine
 10
1356.679986
 20
4.819058
 30
0.0
 11
1371.681043
 21
4.819058
 31
0.0
  0
LINE
  5
1678
100
AcDbEntity
  8
0
  6
BYBLOCK
 62
   170
100
AcDbLine
 10
1371.681043
 20
-4.680942
 30
0.0
 11
1371.681043
 21
-12.180942
 31
0.0
  0
LINE
  5
1679
100
AcDbEntity
  8
0
  6
BYBLOCK
 62
   170
100
AcDbLine
 10
1371.681043
 20
12.319058
 30
0.0
 11
1371.681043
 21
19.819058
 31
0.0
  0
MTEXT
  5
167A
100
AcDbEntity
  8
0
  6
BYBLOCK
 62
     1
100
AcDbMText
 10
1362.7398
 20
-4.765192
 30
0.0
 40
7.5
 41
0.0
 71
     5
 72
     1
  1
\A1;2
  7
TOM
 11
0.0
 21
1.0
 31
0.0
  0
LINE
  5
167B
100
AcDbEntity
  8
0
  6
BYBLOCK
 62
   170
100
AcDbLine
 10
1371.681043
 20
2.819058
 30
0.0
 11
1371.681043
 21
4.819058
 31
0.0
  0
LINE
  5
167C
100
AcDbEntity
  8
0
  6
BYBLOCK
 62
   170
100
AcDbLine
 10
1371.681043
 20
2.819058
 30
0.0
 11
1371.681043
 21
4.819058
 31
0.0
  0
SOLID
  5
167D
100
AcDbEntity
  8
0
  6
BYBLOCK
 62
   170
100
AcDbTrace
 10
1370.431043
 20
-4.680942
 30
0.0
 11
1372.931043
 21
-4.680942
 31
0.0
 12
1371.681043
 22
2.819058
 32
0.0
 13
1371.681043
 23
2.819058
 33
0.0
  0
SOLID
  5
167E
100
AcDbEntity
  8
0
  6
BYBLOCK
 62
   170
100
AcDbTrace
 10
1370.431043
 20
12.319058
 30
0.0
 11
1372.931043
 21
12.319058
 31
0.0
 12
1371.681043
 22
4.819058
 32
0.0
 13
1371.681043
 23
4.819058
 33
0.0
  0
POINT
  5
167F
100
AcDbEntity
  8
DEFPOINTS
  6
BYBLOCK
 62
     0
100
AcDbPoint
 10
1342.179986
 20
2.819058
 30
0.0
  0
POINT
  5
1680
100
AcDbEntity
  8
DEFPOINTS
  6
BYBLOCK
 62
     0
100
AcDbPoint
 10
1351.679986
 20
4.819058
 30
0.0
  0
POINT
  5
1681
100
AcDbEntity
  8
DEFPOINTS
  6
BYBLOCK
 62
     0
100
AcDbPoint
 10
1371.681043
 20
4.819058
 30
0.0
  0
ENDBLK
  5
1682
100
AcDbEntity
  8
0
100
AcDbBlockEnd
  0
ENDSEC
  0
SECTION
  2
ENTITIES
  0
MTEXT
  5
14E5
100
AcDbEntity
  8
KOTY-UPLNE
 62
     5
100
AcDbMText
 10
4350.209879
 20
-1029.365727
 30
0.0
 40
20.0
 41
0.0
 71
     6
 72
     1
  1
\A1;
  0
MTEXT
  5
14E6
100
AcDbEntity
  8
KOTY-UPLNE
 62
     5
100
AcDbMText
 10
3573.05151
 20
-936.660062
 30
0.0
 40
20.0
 41
0.0
 71
     4
 72
     1
  1
\A1;
  0
MTEXT
  5
14E7
100
AcDbEntity
  8
KOTY-UPLNE
 62
     5
100
AcDbMText
 10
3606.287423
 20
-671.29437
 30
0.0
 40
20.0
 41
0.0
 71
     6
 72
     1
  1
\A1;
  0
MTEXT
  5
14E8
100
AcDbEntity
  8
KOTY-UPLNE
 62
     5
100
AcDbMText
 10
3580.014701
 20
-195.480046
 30
0.0
 40
20.0
 41
0.0
 71
     4
 72
     1
  1
\A1;
  0
MTEXT
  5
14E9
100
AcDbEntity
  8
KOTY-UPLNE
 62
     5
100
AcDbMText
 10
3599.732892
 20
-1397.645261
 30
0.0
 40
20.0
 41
0.0
 71
     6
 72
     1
  1
\A1;
  0
MTEXT
  5
14EA
100
AcDbEntity
  8
KOTY-UPLNE
 62
     5
100
AcDbMText
 10
3638.758005
 20
-1759.85577
 30
0.0
 40
20.0
 41
0.0
 71
     6
 72
     1
  1
\A1;
  0
MTEXT
  5
14EB
100
AcDbEntity
  8
KOTY-UPLNE
 62
     5
100
AcDbMText
 10
5719.882381
 20
3485.849063
 30
0.0
 40
20.0
 41
0.0
 71
     6
 72
     1
  1
\A1;
  0
MTEXT
  5
14EC
100
AcDbEntity
  8
KOTY-UPLNE
 62
     5
100
AcDbMText
 10
4942.724012
 20
3578.554728
 30
0.0
 40
20.0
 41
0.0
 71
     4
 72
     1
  1
\A1;
  0
MTEXT
  5
14ED
100
AcDbEntity
  8
KOTY-UPLNE
 62
     5
100
AcDbMText
 10
4975.959925
 20
3843.92042
 30
0.0
 40
20.0
 41
0.0
 71
     6
 72
     1
  1
\A1;
  0
MTEXT
  5
14EE
100
AcDbEntity
  8
KOTY-UPLNE
 62
     5
100
AcDbMText
 10
4949.687203
 20
4319.734744
 30
0.0
 40
20.0
 41
0.0
 71
     4
 72
     1
  1
\A1;
  0
MTEXT
  5
14EF
100
AcDbEntity
  8
KOTY-UPLNE
 62
     5
100
AcDbMText
 10
4969.405394
 20
3117.569529
 30
0.0
 40
20.0
 41
0.0
 71
     6
 72
     1
  1
\A1;
  0
MTEXT
  5
14F0
100
AcDbEntity
  8
KOTY-UPLNE
 62
     5
100
AcDbMText
 10
5008.430507
 20
2755.35902
 30
0.0
 40
20.0
 41
0.0
 71
     6
 72
     1
  1
\A1;
  0
MTEXT
  5
14F1
100
AcDbEntity
  8
KOTY-UPLNE
100
AcDbMText
 10
5494.742623
 20
488.018748
 30
0.0
 40
20.0
 41
0.0
 71
     6
 72
     1
  1
\A1;
  0
MTEXT
  5
14F2
100
AcDbEntity
  8
KOTY-UPLNE
100
AcDbMText
 10
5537.259046
 20
-3270.704437
 30
0.0
 40
20.0
 41
0.0
 71
     4
 72
     1
  1
\A1;
  0
MTEXT
  5
14F3
100
AcDbEntity
  8
KOTY-UPLNE
100
AcDbMText
 10
5460.310133
 20
-3421.027104
 30
0.0
 40
20.0
 41
0.0
 71
     6
 72
     1
  1
\A1;
  0
MTEXT
  5
14F4
100
AcDbEntity
  8
KOTY-UPLNE
100
AcDbMText
 10
5456.961482
 20
-4364.699319
 30
0.0
 40
20.0
 41
0.0
 71
     4
 72
     1
  1
\A1;
  0
MTEXT
  5
14F5
100
AcDbEntity
  8
KOTY-UPLNE
100
AcDbMText
 10
5405.977806
 20
-4364.699319
 30
0.0
 40
20.0
 41
0.0
 71
     6
 72
     1
  1
\A1;
  0
MTEXT
  5
14F6
100
AcDbEntity
  8
KOTY-UPLNE
100
AcDbMText
 10
5501.978858
 20
-4239.291149
 30
0.0
 40
20.0
 41
0.0
 71
     4
 72
     1
  1
\A1;
  0
LWPOLYLINE
  5
14F8
100
AcDbEntity
  8
LAMELA-VELKA
100
AcDbPolyline
 90
      308
 70
     0
 43
2.0
 10
1354.679986
 20
7.819058
 10
1354.679986
 20
7.819058
 42
-0.414214
 10
1351.679986
 20
4.819058
 10
1347.422626
 20
4.819058
 42
0.198912
 10
1345.301306
 20
3.940379
 10
1345.058665
 20
3.697738
 42
-0.198912
 10
1342.937345
 20
2.819058
 10
1341.422626
 20
2.819058
 42
-0.198912
 10
1339.301306
 20
3.697738
 10
1339.058665
 20
3.940379
 42
0.198912
 10
1336.937345
 20
4.819058
 10
1332.679986
 20
4.819058
 42
-0.414214
 10
1329.679986
 20
7.819058
 10
1329.679986
 20
29.819058
 42
0.414214
 10
1326.679986
 20
32.819058
 10
1325.997735
 20
32.819058
 42
0.032092
 10
1325.613821
 20
32.794392
 10
1318.4389
 20
31.868596
 42
-0.06425
 10
1317.671072
 20
31.868596
 10
1310.6889
 20
32.769521
 42
0.06425
 10
1309.921072
 20
32.769521
 10
1302.9389
 20
31.868596
 42
-0.06425
 10
1302.171072
 20
31.868596
 10
1295.1889
 20
32.769521
 42
0.06425
 10
1294.421072
 20
32.769521
 10
1287.4389
 20
31.868596
 42
-0.06425
 10
1286.671072
 20
31.868596
 10
1279.6889
 20
32.769521
 42
0.06425
 10
1278.921072
 20
32.769521
 10
1271.9389
 20
31.868596
 42
-0.06425
 10
1271.171072
 20
31.868596
 10
1264.1889
 20
32.769521
 42
0.06425
 10
1263.421072
 20
32.769521
 10
1256.4389
 20
31.868596
 42
-0.06425
 10
1255.671072
 20
31.868596
 10
1248.6889
 20
32.769521
 42
0.06425
 10
1247.921072
 20
32.769521
 10
1240.9389
 20
31.868596
 42
-0.06425
 10
1240.171072
 20
31.868596
 10
1233.1889
 20
32.769521
 42
0.06425
 10
1232.421072
 20
32.769521
 10
1225.4389
 20
31.868596
 42
-0.06425
 10
1224.671072
 20
31.868596
 10
1217.6889
 20
32.769521
 42
0.06425
 10
1216.921072
 20
32.769521
 10
1209.9389
 20
31.868596
 42
-0.06425
 10
1209.171072
 20
31.868596
 10
1202.1889
 20
32.769521
 42
0.06425
 10
1201.421072
 20
32.769521
 10
1194.4389
 20
31.868596
 42
-0.06425
 10
1193.671072
 20
31.868596
 10
1186.6889
 20
32.769521
 42
0.06425
 10
1185.921072
 20
32.769521
 10
1178.9389
 20
31.868596
 42
-0.06425
 10
1178.171072
 20
31.868596
 10
1171.1889
 20
32.769521
 42
0.06425
 10
1170.421072
 20
32.769521
 10
1163.4389
 20
31.868596
 42
-0.06425
 10
1162.671072
 20
31.868596
 10
1155.6889
 20
32.769521
 42
0.06425
 10
1154.921072
 20
32.769521
 10
1147.9389
 20
31.868596
 42
-0.06425
 10
1147.171072
 20
31.868596
 10
1140.1889
 20
32.769521
 42
0.06425
 10
1139.421072
 20
32.769521
 10
1132.4389
 20
31.868596
 42
-0.06425
 10
1131.671072
 20
31.868596
 10
1124.6889
 20
32.769521
 42
0.06425
 10
1123.921072
 20
32.769521
 10
1116.9389
 20
31.868596
 42
-0.06425
 10
1116.171072
 20
31.868596
 10
1108.99615
 20
32.794392
 42
0.032092
 10
1108.612236
 20
32.819058
 10
1107.679986
 20
32.819058
 42
0.414214
 10
1104.679986
 20
29.819058
 10
1104.679986
 20
7.819058
 42
-0.414214
 10
1101.679986
 20
4.819058
 10
1097.422626
 20
4.819058
 42
0.198912
 10
1095.301306
 20
3.940379
 10
1095.058665
 20
3.697738
 42
-0.198912
 10
1092.937345
 20
2.819058
 10
1091.422626
 20
2.819058
 42
-0.198912
 10
1089.301306
 20
3.697738
 10
1089.058665
 20
3.940379
 42
0.198912
 10
1086.937345
 20
4.819058
 10
1082.679986
 20
4.819058
 42
-0.414214
 10
1079.679986
 20
7.819058
 10
1079.679986
 20
29.819058
 42
0.414214
 10
1076.679986
 20
32.819058
 10
1075.747735
 20
32.819058
 42
0.032092
 10
1075.363821
 20
32.794392
 10
1068.1889
 20
31.868596
 42
-0.06425
 10
1067.421072
 20
31.868596
 10
1060.4389
 20
32.769521
 42
0.06425
 10
1059.671072
 20
32.769521
 10
1052.6889
 20
31.868596
 42
-0.06425
 10
1051.921072
 20
31.868596
 10
1044.9389
 20
32.769521
 42
0.06425
 10
1044.171072
 20
32.769521
 10
1037.1889
 20
31.868596
 42
-0.06425
 10
1036.421072
 20
31.868596
 10
1029.4389
 20
32.769521
 42
0.06425
 10
1028.671072
 20
32.769521
 10
1021.6889
 20
31.868596
 42
-0.06425
 10
1020.921072
 20
31.868596
 10
1013.9389
 20
32.769521
 42
0.06425
 10
1013.171072
 20
32.769521
 10
1006.1889
 20
31.868596
 42
-0.06425
 10
1005.421072
 20
31.868596
 10
998.4389
 20
32.769521
 42
0.06425
 10
997.671072
 20
32.769521
 10
990.6889
 20
31.868596
 42
-0.06425
 10
989.921072
 20
31.868596
 10
982.9389
 20
32.769521
 42
0.06425
 10
982.171072
 20
32.769521
 10
975.1889
 20
31.868596
 42
-0.06425
 10
974.421072
 20
31.868596
 10
967.4389
 20
32.769521
 42
0.06425
 10
966.671072
 20
32.769521
 10
959.6889
 20
31.868596
 42
-0.06425
 10
958.921072
 20
31.868596
 10
951.9389
 20
32.769521
 42
0.06425
 10
951.171072
 20
32.769521
 10
944.1889
 20
31.868596
 42
-0.06425
 10
943.421072
 20
31.868596
 10
936.4389
 20
32.769521
 42
0.06425
 10
935.671072
 20
32.769521
 10
928.6889
 20
31.868596
 42
-0.06425
 10
927.921072
 20
31.868596
 10
920.9389
 20
32.769521
 42
0.06425
 10
920.171072
 20
32.769521
 10
913.1889
 20
31.868596
 42
-0.06425
 10
912.421072
 20
31.868596
 10
905.4389
 20
32.769521
 42
0.06425
 10
904.671072
 20
32.769521
 10
897.6889
 20
31.868596
 42
-0.06425
 10
896.921072
 20
31.868596
 10
889.9389
 20
32.769521
 42
0.06425
 10
889.171072
 20
32.769521
 10
882.1889
 20
31.868596
 42
-0.06425
 10
881.421072
 20
31.868596
 10
874.4389
 20
32.769521
 42
0.06425
 10
873.671072
 20
32.769521
 10
866.6889
 20
31.868596
 42
-0.06425
 10
865.921072
 20
31.868596
 10
858.74615
 20
32.794392
 42
0.032092
 10
858.362236
 20
32.819058
 10
857.679986
 20
32.819058
 42
0.414214
 10
854.679986
 20
29.819058
 10
854.679986
 20
7.819058
 42
-0.414214
 10
851.679986
 20
4.819058
 10
847.422626
 20
4.819058
 42
0.198912
 10
845.301306
 20
3.940379
 10
845.058665
 20
3.697738
 42
-0.198912
 10
842.937345
 20
2.819058
 10
841.422626
 20
2.819058
 42
-0.198912
 10
839.301306
 20
3.697738
 10
839.058665
 20
3.940379
 42
0.198912
 10
836.937345
 20
4.819058
 10
832.679986
 20
4.819058
 42
-0.414214
 10
829.679986
 20
7.819058
 10
829.679986
 20
29.819058
 42
0.414214
 10
826.679986
 20
32.819058
 10
825.997735
 20
32.819058
 42
0.032092
 10
825.613821
 20
32.794392
 10
818.4389
 20
31.868596
 42
-0.06425
 10
817.671072
 20
31.868596
 10
810.6889
 20
32.769521
 42
0.06425
 10
809.921072
 20
32.769521
 10
802.9389
 20
31.868596
 42
-0.06425
 10
802.171072
 20
31.868596
 10
795.1889
 20
32.769521
 42
0.06425
 10
794.421072
 20
32.769521
 10
787.4389
 20
31.868596
 42
-0.06425
 10
786.671072
 20
31.868596
 10
779.6889
 20
32.769521
 42
0.06425
 10
778.921072
 20
32.769521
 10
771.9389
 20
31.868596
 42
-0.06425
 10
771.171072
 20
31.868596
 10
764.1889
 20
32.769521
 42
0.06425
 10
763.421072
 20
32.769521
 10
756.4389
 20
31.868596
 42
-0.06425
 10
755.671072
 20
31.868596
 10
748.6889
 20
32.769521
 42
0.06425
 10
747.921072
 20
32.769521
 10
740.9389
 20
31.868596
 42
-0.06425
 10
740.171072
 20
31.868596
 10
733.1889
 20
32.769521
 42
0.06425
 10
732.421072
 20
32.769521
 10
725.4389
 20
31.868596
 42
-0.06425
 10
724.671072
 20
31.868596
 10
717.6889
 20
32.769521
 42
0.06425
 10
716.921072
 20
32.769521
 10
709.9389
 20
31.868596
 42
-0.06425
 10
709.171072
 20
31.868596
 10
702.1889
 20
32.769521
 42
0.06425
 10
701.421072
 20
32.769521
 10
694.4389
 20
31.868596
 42
-0.06425
 10
693.671072
 20
31.868596
 10
686.6889
 20
32.769521
 42
0.06425
 10
685.921072
 20
32.769521
 10
678.9389
 20
31.868596
 42
-0.06425
 10
678.171072
 20
31.868596
 10
671.1889
 20
32.769521
 42
0.06425
 10
670.421072
 20
32.769521
 10
663.4389
 20
31.868596
 42
-0.06425
 10
662.671072
 20
31.868596
 10
655.6889
 20
32.769521
 42
0.06425
 10
654.921072
 20
32.769521
 10
647.9389
 20
31.868596
 42
-0.06425
 10
647.171072
 20
31.868596
 10
640.1889
 20
32.769521
 42
0.06425
 10
639.421072
 20
32.769521
 10
632.4389
 20
31.868596
 42
-0.06425
 10
631.671072
 20
31.868596
 10
624.6889
 20
32.769521
 42
0.06425
 10
623.921072
 20
32.769521
 10
616.9389
 20
31.868596
 42
-0.06425
 10
616.171072
 20
31.868596
 10
608.99615
 20
32.794392
 42
0.032092
 10
608.612236
 20
32.819058
 10
607.679986
 20
32.819058
 42
0.414214
 10
604.679986
 20
29.819058
 10
604.679986
 20
7.819058
 42
-0.414214
 10
601.679986
 20
4.819058
 10
597.422626
 20
4.819058
 42
0.198912
 10
595.301306
 20
3.940379
 10
595.058665
 20
3.697738
 42
-0.198912
 10
592.937345
 20
2.819058
 10
591.422626
 20
2.819058
 42
-0.198912
 10
589.301306
 20
3.697738
 10
589.058665
 20
3.940379
 42
0.198912
 10
586.937345
 20
4.819058
 10
582.679986
 20
4.819058
 42
-0.414214
 10
579.679986
 20
7.819058
 10
579.679986
 20
29.819058
 42
0.414214
 10
576.679986
 20
32.819058
 10
575.747735
 20
32.819058
 42
0.032092
 10
575.363821
 20
32.794392
 10
568.1889
 20
31.868596
 42
-0.06425
 10
567.421072
 20
31.868596
 10
560.4389
 20
32.769521
 42
0.06425
 10
559.671072
 20
32.769521
 10
552.6889
 20
31.868596
 42
-0.06425
 10
551.921072
 20
31.868596
 10
544.9389
 20
32.769521
 42
0.06425
 10
544.171072
 20
32.769521
 10
537.1889
 20
31.868596
 42
-0.06425
 10
536.421072
 20
31.868596
 10
529.4389
 20
32.769521
 42
0.06425
 10
528.671072
 20
32.769521
 10
521.6889
 20
31.868596
 42
-0.06425
 10
520.921072
 20
31.868596
 10
513.9389
 20
32.769521
 42
0.06425
 10
513.171072
 20
32.769521
 10
506.1889
 20
31.868596
 42
-0.06425
 10
505.421072
 20
31.868596
 10
498.4389
 20
32.769521
 42
0.06425
 10
497.671072
 20
32.769521
 10
490.6889
 20
31.868596
 42
-0.06425
 10
489.921072
 20
31.868596
 10
482.9389
 20
32.769521
 42
0.06425
 10
482.171072
 20
32.769521
 10
475.1889
 20
31.868596
 42
-0.06425
 10
474.421072
 20
31.868596
 10
467.4389
 20
32.769521
 42
0.06425
 10
466.671072
 20
32.769521
 10
459.6889
 20
31.868596
 42
-0.06425
 10
458.921072
 20
31.868596
 10
451.9389
 20
32.769521
 42
0.06425
 10
451.171072
 20
32.769521
 10
444.1889
 20
31.868596
 42
-0.06425
 10
443.421072
 20
31.868596
 10
436.4389
 20
32.769521
 42
0.06425
 10
435.671072
 20
32.769521
 10
428.6889
 20
31.868596
 42
-0.06425
 10
427.921072
 20
31.868596
 10
420.9389
 20
32.769521
 42
0.06425
 10
420.171072
 20
32.769521
 10
413.1889
 20
31.868596
 42
-0.06425
 10
412.421072
 20
31.868596
 10
405.4389
 20
32.769521
 42
0.06425
 10
404.671072
 20
32.769521
 10
397.6889
 20
31.868596
 42
-0.06425
 10
396.921072
 20
31.868596
 10
389.9389
 20
32.769521
 42
0.06425
 10
389.171072
 20
32.769521
 10
382.1889
 20
31.868596
 42
-0.06425
 10
381.421072
 20
31.868596
 10
374.4389
 20
32.769521
 42
0.06425
 10
373.671072
 20
32.769521
 10
366.6889
 20
31.868596
 42
-0.06425
 10
365.921072
 20
31.868596
 10
358.74615
 20
32.794392
 42
0.032092
 10
358.362236
 20
32.819058
 10
357.679986
 20
32.819058
 42
0.414214
 10
354.679986
 20
29.819058
 10
354.679986
 20
7.819058
 42
-0.414214
 10
351.679986
 20
4.819058
 10
347.422626
 20
4.819058
 42
0.198912
 10
345.301306
 20
3.940379
 10
345.058665
 20
3.697738
 42
-0.198912
 10
342.937345
 20
2.819058
 10
341.422626
 20
2.819058
 42
-0.198912
 10
339.301306
 20
3.697738
 10
339.058665
 20
3.940379
 42
0.198912
 10
336.937345
 20
4.819058
 10
331.679986
 20
4.819058
  0
DIMENSION
  5
14FB
100
AcDbEntity
  8
KOTY-UPLNE
100
AcDbDimension
  2
*D97
 10
1342.179986
 20
-43.447507
 30
0.0
 11
842.179986
 21
-37.197507
 31
0.0
 70
    32
  3
KOTY-VELKE
100
AcDbAlignedDimension
 13
342.179986
 23
2.819058
 33
0.0
 14
1342.179986
 24
2.819058
 34
0.0
100
AcDbRotatedDimension
1001
ACAD
1000
DSTYLE
1002
{
1070
    40
1040
5.0
1070
   147
1040
0.5
1070
    44
1040
0.5
1070
   178
1070
     1
1070
   177
1070
   256
1070
   176
1070
   256
1002
}
  0
DIMENSION
  5
14FC
100
AcDbEntity
  8
KOTY-UPLNE
100
AcDbDimension
  2
*D98
 10
592.179986
 20
-24.443423
 30
0.0
 11
467.179986
 21
-18.193423
 31
0.0
 70
    32
  3
KOTY-VELKE
100
AcDbAlignedDimension
 13
342.179986
 23
2.819058
 33
0.0
 14
592.179986
 24
2.819058
 34
0.0
100
AcDbRotatedDimension
1001
ACAD
1000
DSTYLE
1002
{
1070
    40
1040
5.0
1070
   147
1040
0.5
1070
    44
1040
0.5
1070
   178
1070
     1
1070
   177
1070
   256
1070
   176
1070
   256
1002
}
  0
DIMENSION
  5
14FD
100
AcDbEntity
  8
KOTY-UPLNE
100
AcDbDimension
  2
*D99
 10
1396.558483
 20
2.819058
 30
0.0
 11
1389.198015
 21
15.803905
 31
0.0
 70
   160
  3
KOTY-VELKE
100
AcDbAlignedDimension
 13
1329.679986
 23
32.819058
 33
0.0
 14
1344.179986
 24
2.819058
 34
0.0
 50
90.0
100
AcDbRotatedDimension
1001
ACAD
1000
DSTYLE
1002
{
1070
    40
1040
5.0
1070
   147
1040
0.5
1070
    44
1040
0.5
1070
   178
1070
     1
1070
   177
1070
   256
1070
   176
1070
   256
1002
}
  0
MTEXT
  5
14FE
100
AcDbEntity
  8
0
100
AcDbMText
 10
828.975801
 20
85.371119
 30
0.0
 40
10.0
 41
1.0
 71
     5
 72
     1
  1
FISCHER PANEL
  7
STYLE1
  0
DIMENSION
  5
1658
100
AcDbEntity
  8
KOTY-UPLNE
100
AcDbDimension
  2
*D107
 10
1079.679986
 20
-24.443423
 30
0.0
 11
967.179986
 21
-18.193423
 31
0.0
 12
250.0
 22
0.0
 32
0.0
 70
    32
  3
KOTY-VELKE
100
AcDbAlignedDimension
 13
854.679986
 23
7.819058
 33
0.0
 14
1079.679986
 24
7.819058
 34
0.0
100
AcDbRotatedDimension
1001
ACAD
1000
DSTYLE
1002
{
1070
    40
1040
5.0
1070
   147
1040
0.5
1070
   178
1070
     1
1002
}
  0
DIMENSION
  5
1664
100
AcDbEntity
  8
KOTY-UPLNE
100
AcDbDimension
  2
*D108
 10
1104.679986
 20
-24.443423
 30
0.0
 11
1092.179986
 21
-18.193423
 31
0.0
 12
250.0
 22
0.0
 32
0.0
 70
    32
  3
KOTY-VELKE
100
AcDbAlignedDimension
 13
1079.679986
 23
7.819058
 33
0.0
 14
1104.679986
 24
7.819058
 34
0.0
100
AcDbRotatedDimension
1001
ACAD
1000
DSTYLE
1002
{
1070
    75
1070
     1
1070
    40
1040
5.0
1070
   147
1040
0.5
1070
   178
1070
     1
1002
}
  0
DIMENSION
  5
1674
100
AcDbEntity
  8
KOTY-UPLNE
100
AcDbDimension
  2
*D109
 10
1371.681043
 20
4.819058
 30
0.0
 11
1362.7398
 21
-4.765192
 31
0.0
 70
   160
  3
KOTY-VELKE
100
AcDbAlignedDimension
 13
1342.179986
 23
2.819058
 33
0.0
 14
1351.679986
 24
4.819058
 34
0.0
 50
90.0
100
AcDbRotatedDimension
1001
ACAD
1000
DSTYLE
1002
{
1070
    40
1040
5.0
1070
   147
1040
0.5
1070
   178
1070
     1
1002
}
  0
ENDSEC
  0
SECTION
  2
OBJECTS
  0
DICTIONARY
  5
7
100
AcDbDictionary
  3
ACAD_GROUP
350
22
  3
ACAD_LAYOUT
350
B
  3
ACAD_MLINESTYLE
350
23
  3
ACAD_PLOTSETTINGS
350
24
  3
ACAD_PLOTSTYLENAME
350
6
  3
ACDBHEADERROUNDTRIPXREC
350
11D
  3
DWGPROPS
350
52
  0
DICTIONARY
  5
147
100
AcDbDictionary
280
     1
  3
ACAD_XREC_ROUNDTRIP
360
148
  0
DICTIONARY
  5
117
100
AcDbDictionary
280
     1
  3
ACAD_XREC_ROUNDTRIP
360
118
  0
DICTIONARY
  5
145
100
AcDbDictionary
280
     1
  3
ACAD_XREC_ROUNDTRIP
360
146
  0
DICTIONARY
  5
13E
100
AcDbDictionary
280
     1
  3
ACAD_LAYOUTSELFREF
360
13F
  0
DICTIONARY
  5
111
100
AcDbDictionary
280
     1
  3
ACAD_LAYOUTSELFREF
360
142
  3
ACAD_XREC_ROUNDTRIP
360
112
  0
DICTIONARY
  5
22
102
{ACAD_REACTORS
330
7
102
}
100
AcDbDictionary
  0
DICTIONARY
  5
B
102
{ACAD_XDICTIONARY
360
140
102
}
102
{ACAD_REACTORS
330
7
102
}
100
AcDbDictionary
  3
LAYOUT2
350
F
  3
MODEL
350
A
  0
DICTIONARY
  5
23
102
{ACAD_REACTORS
330
7
102
}
100
AcDbDictionary
  3
STANDARD
350
27
  0
DICTIONARY
  5
24
102
{ACAD_REACTORS
330
7
102
}
100
AcDbDictionary
  0
ACAD_PROXY_OBJECT
  5
6
102
{ACAD_REACTORS
330
7
102
}
100
AcDbProxyObject
 90
      499
 91
      502
 93
       86
310
405010041939BDC9B585B0
350
5
340
5
 94
        0
  0
DICTIONARY
  5
11D
102
{ACAD_REACTORS
330
7
102
}
100
AcDbDictionary
  3
CEPSNTYPE
350
127
  3
DIMSTYLEDATA
350
12B
  3
FINGERPRINTGUID
350
128
  3
HYPERLINKBASE
350
120
  3
INSUNITS
350
126
  3
LAYOUTDICT
350
122
  3
LWETCUNION
350
125
  3
PLOTSETDICT
350
123
  3
PLOTSTYLNAMDICT
350
124
  3
PSVPSCALE
350
12A
  3
PUCSBASE
350
12E
  3
PUCSORGBACK
350
134
  3
PUCSORGBOTTOM
350
130
  3
PUCSORGFRONT
350
133
  3
PUCSORGLEFT
350
131
  3
PUCSORGRIGHT
350
132
  3
PUCSORGTOP
350
12F
  3
PUCSORTHOREF
350
12C
  3
PUCSORTHOVIEW
350
12D
  3
STYLESHEET
350
121
  3
TSTACKALIGN
350
11E
  3
TSTACKSIZE
350
11F
  3
UCSBASE
350
137
  3
UCSORGBACK
350
13D
  3
UCSORGBOTTOM
350
139
  3
UCSORGFRONT
350
13C
  3
UCSORGLEFT
350
13A
  3
UCSORGRIGHT
350
13B
  3
UCSORGTOP
350
138
  3
UCSORTHOREF
350
135
  3
UCSORTHOVIEW
350
136
  3
VERSIONGUID
350
129
  0
XRECORD
  5
52
102
{ACAD_REACTORS
330
7
102
}
100
AcDbXrecord
  1
DWGPROPS COOKIE
  2

  3

  4

  6

  7

  8
tom
  9

300
=
301
=
302
=
303
=
304
=
305
=
306
=
307
=
308
=
309
=
 40
0.356595
 41
2450098.461195
 42
2452040.602766
  1

 90
        0
  0
XRECORD
  5
148
102
{ACAD_REACTORS
330
147
102
}
100
AcDbXrecord
102
PLOTBIT
280
     0
  0
XRECORD
  5
118
102
{ACAD_REACTORS
330
117
102
}
100
AcDbXrecord
102
EXTNAMES
  1
TOM
  2
tom
  0
XRECORD
  5
146
102
{ACAD_REACTORS
330
145
102
}
100
AcDbXrecord
102
ACADR14ROUNDTRIP
1000
DSTYLE
1002
{
1070
   279
 70
     2
1002
}
  0
XRECORD
  5
13F
102
{ACAD_REACTORS
330
13E
102
}
100
AcDbXrecord
340
2
  0
XRECORD
  5
142
102
{ACAD_REACTORS
330
111
102
}
100
AcDbXrecord
340
C
  0
XRECORD
  5
112
102
{ACAD_REACTORS
330
111
102
}
100
AcDbXrecord
102
EXTNAMES
  1
*PAPER_SPACE
  2
*Paper_Space
  0
DICTIONARY
  5
140
100
AcDbDictionary
280
     1
  3
ACAD_XREC_ROUNDTRIP
360
141
  0
ACAD_PROXY_OBJECT
  5
F
102
{ACAD_REACTORS
330
B
102
}
100
AcDbProxyObject
 90
      499
 91
      504
 93
     1484
310
91943616E6F6E20427562626C652D4A657420424A432D343030302C8080000002033931C4000000000333F0A9000000000080ED0C4000000000003003D000000008067416A400000001017639C901024134A40501416AA543D513D34C4B5CDA591A5B99CB98DD1891069074C61796F75743240501A80000000003003F00000
310
00080CE4C7300000001037539C9000000039F3571A502A6A6A0000000022FC4ED00D0CCCCB8ACED3340800000060BC6F6F401999B993D89AD99020
330
C
330
0
340
0
340
0
 94
        0
  0
ACAD_PROXY_OBJECT
  5
A
102
{ACAD_REACTORS
330
B
102
}
100
AcDbProxyObject
 90
      499
 91
      504
 93
     1796
310
9144B796F63657261204D6974612046532D31383030290B8000000C067381B40000000102F06C51000000000068381B40000000002E06C510000000080253F6A400000003834239C90102413400000000002012100AE47E17A148E5E40405014100055D792FC8379401026BDF13AE5E0500049AA63FFE6283402D878F5E855
310
EE41024000000000000144043D513D34C4B5CDA591A5B99CB98DD18A26A666666666724FC0055D792FC8379C01026BDF13AE5E0701054D6F64656C901A800000000000000000000000000000000000000000000A1000000000000008902A6A6AAAA0
330
2
330
0
340
0
340
0
 94
        0
  0
MLINESTYLE
  5
27
102
{ACAD_REACTORS
330
23
102
}
100
AcDbMlineStyle
  2
STANDARD
 70
     0
  3

 62
   256
 51
90.0
 52
90.0
 71
     2
 49
0.5
 62
   256
  6
BYLAYER
 49
-0.5
 62
   256
  6
BYLAYER
  0
ACAD_PROXY_OBJECT
  5
5
102
{ACAD_REACTORS
330
6
102
}
100
AcDbProxyObject
 90
      499
 91
      503
 93
        0
 94
        0
  0
XRECORD
  5
127
102
{ACAD_REACTORS
330
11D
102
}
100
AcDbXrecord
 90
        0
  0
XRECORD
  5
12B
102
{ACAD_REACTORS
330
11D
102
}
100
AcDbXrecord
1000
DSTYLE
1002
{
1070
   179
 70
     4
1070
   278
 70
    44
1070
   279
 70
     2
1070
   289
 70
     1
1002
}
  0
XRECORD
  5
128
102
{ACAD_REACTORS
330
11D
102
}
100
AcDbXrecord
  1
{986116A0-451F-11D5-BBCF-006097BB053F}
  0
XRECORD
  5
120
102
{ACAD_REACTORS
330
11D
102
}
100
AcDbXrecord
  1

  0
XRECORD
  5
126
102
{ACAD_REACTORS
330
11D
102
}
100
AcDbXrecord
 90
        0
  0
XRECORD
  5
122
102
{ACAD_REACTORS
330
11D
102
}
100
AcDbXrecord
340
B
  0
XRECORD
  5
125
102
{ACAD_REACTORS
330
11D
102
}
100
AcDbXrecord
 90
    10781
  0
XRECORD
  5
123
102
{ACAD_REACTORS
330
11D
102
}
100
AcDbXrecord
340
24
  0
XRECORD
  5
124
102
{ACAD_REACTORS
330
11D
102
}
100
AcDbXrecord
340
6
  0
XRECORD
  5
12A
102
{ACAD_REACTORS
330
11D
102
}
100
AcDbXrecord
 40
0.0
  0
XRECORD
  5
12E
102
{ACAD_REACTORS
330
11D
102
}
100
AcDbXrecord
340
0
  0
XRECORD
  5
134
102
{ACAD_REACTORS
330
11D
102
}
100
AcDbXrecord
 10
0.0
 20
0.0
 30
0.0
  0
XRECORD
  5
130
102
{ACAD_REACTORS
330
11D
102
}
100
AcDbXrecord
 10
0.0
 20
0.0
 30
0.0
  0
XRECORD
  5
133
102
{ACAD_REACTORS
330
11D
102
}
100
AcDbXrecord
 10
0.0
 20
0.0
 30
0.0
  0
XRECORD
  5
131
102
{ACAD_REACTORS
330
11D
102
}
100
AcDbXrecord
 10
0.0
 20
0.0
 30
0.0
  0
XRECORD
  5
132
102
{ACAD_REACTORS
330
11D
102
}
100
AcDbXrecord
 10
0.0
 20
0.0
 30
0.0
  0
XRECORD
  5
12F
102
{ACAD_REACTORS
330
11D
102
}
100
AcDbXrecord
 10
0.0
 20
0.0
 30
0.0
  0
XRECORD
  5
12C
102
{ACAD_REACTORS
330
11D
102
}
100
AcDbXrecord
340
0
  0
XRECORD
  5
12D
102
{ACAD_REACTORS
330
11D
102
}
100
AcDbXrecord
 70
     0
  0
XRECORD
  5
121
102
{ACAD_REACTORS
330
11D
102
}
100
AcDbXrecord
  1
TOM1-siding.ctb
  0
XRECORD
  5
11E
102
{ACAD_REACTORS
330
11D
102
}
100
AcDbXrecord
 90
        1
  0
XRECORD
  5
11F
102
{ACAD_REACTORS
330
11D
102
}
100
AcDbXrecord
 90
       70
  0
XRECORD
  5
137
102
{ACAD_REACTORS
330
11D
102
}
100
AcDbXrecord
340
0
  0
XRECORD
  5
13D
102
{ACAD_REACTORS
330
11D
102
}
100
AcDbXrecord
 10
0.0
 20
0.0
 30
0.0
  0
XRECORD
  5
139
102
{ACAD_REACTORS
330
11D
102
}
100
AcDbXrecord
 10
0.0
 20
0.0
 30
0.0
  0
XRECORD
  5
13C
102
{ACAD_REACTORS
330
11D
102
}
100
AcDbXrecord
 10
0.0
 20
0.0
 30
0.0
  0
XRECORD
  5
13A
102
{ACAD_REACTORS
330
11D
102
}
100
AcDbXrecord
 10
0.0
 20
0.0
 30
0.0
  0
XRECORD
  5
13B
102
{ACAD_REACTORS
330
11D
102
}
100
AcDbXrecord
 10
0.0
 20
0.0
 30
0.0
  0
XRECORD
  5
138
102
{ACAD_REACTORS
330
11D
102
}
100
AcDbXrecord
 10
0.0
 20
0.0
 30
0.0
  0
XRECORD
  5
135
102
{ACAD_REACTORS
330
11D
102
}
100
AcDbXrecord
340
0
  0
XRECORD
  5
136
102
{ACAD_REACTORS
330
11D
102
}
100
AcDbXrecord
 70
     0
  0
XRECORD
  5
129
102
{ACAD_REACTORS
330
11D
102
}
100
AcDbXrecord
  1
{F5D44C6B-50ED-11D5-BBCF-006097BB053F}
  0
XRECORD
  5
141
102
{ACAD_REACTORS
330
140
102
}
100
AcDbXrecord
102
EXTNAMES
  1
LAYOUT2
  2
Layout2
  1
MODEL
  2
Model
  0
ENDSEC
  0
EOF
