  0
SECTION
  2
HEADER
  9
$ACADVER
  1
AC1014
  9
$ACADMAINTVER
 70
     0
  9
$DWGCODEPAGE
  3
ANSI_1250
  9
$INSBASE
 10
0.0
 20
0.0
 30
0.0
  9
$EXTMIN
 10
375.399673
 20
188.152433
 30
0.0
  9
$EXTMAX
 10
875.341444
 20
2132.465923
 30
0.0
  9
$LIMMIN
 10
0.0
 20
0.0
  9
$LIMMAX
 10
1200.0
 20
880.0
  9
$ORTHOMODE
 70
     1
  9
$REGENMODE
 70
     1
  9
$FILLMODE
 70
     1
  9
$QTEXTMODE
 70
     0
  9
$MIRRTEXT
 70
     0
  9
$DRAGMODE
 70
     2
  9
$LTSCALE
 40
5.0
  9
$OSMODE
 70
   171
  9
$ATTMODE
 70
     1
  9
$TEXTSIZE
 40
100.0
  9
$TRACEWID
 40
1.0
  9
$TEXTSTYLE
  7
TOM
  9
$CLAYER
  8
KOTY-UPLNE
  9
$CELTYPE
  6
BYLAYER
  9
$CECOLOR
 62
   256
  9
$CELTSCALE
 40
1.0
  9
$DELOBJ
 70
     1
  9
$DISPSILH
 70
     0
  9
$DIMSCALE
 40
5.0
  9
$DIMASZ
 40
1.5
  9
$DIMEXO
 40
1.0
  9
$DIMDLI
 40
10.0
  9
$DIMRND
 40
1.0
  9
$DIMDLE
 40
1.0
  9
$DIMEXE
 40
0.5
  9
$DIMTP
 40
0.0
  9
$DIMTM
 40
0.0
  9
$DIMTXT
 40
1.5
  9
$DIMCEN
 40
2.0
  9
$DIMTSZ
 40
0.0
  9
$DIMTOL
 70
     0
  9
$DIMLIM
 70
     0
  9
$DIMTIH
 70
     0
  9
$DIMTOH
 70
     0
  9
$DIMSE1
 70
     0
  9
$DIMSE2
 70
     0
  9
$DIMTAD
 70
     1
  9
$DIMZIN
 70
     9
  9
$DIMBLK
  1

  9
$DIMASO
 70
     1
  9
$DIMSHO
 70
     1
  9
$DIMPOST
  1

  9
$DIMAPOST
  1

  9
$DIMALT
 70
     0
  9
$DIMALTD
 70
     2
  9
$DIMALTF
 40
25.4
  9
$DIMLFAC
 40
1.0
  9
$DIMTOFL
 70
     1
  9
$DIMTVP
 40
0.0
  9
$DIMTIX
 70
     0
  9
$DIMSOXD
 70
     0
  9
$DIMSAH
 70
     0
  9
$DIMBLK1
  1

  9
$DIMBLK2
  1

  9
$DIMSTYLE
  2
KOTY-VELKE
  9
$DIMCLRD
 70
   256
  9
$DIMCLRE
 70
   256
  9
$DIMCLRT
 70
     1
  9
$DIMTFAC
 40
1.0
  9
$DIMGAP
 40
0.5
  9
$DIMJUST
 70
     0
  9
$DIMSD1
 70
     0
  9
$DIMSD2
 70
     0
  9
$DIMTOLJ
 70
     1
  9
$DIMTZIN
 70
     8
  9
$DIMALTZ
 70
     8
  9
$DIMALTTZ
 70
     8
  9
$DIMFIT
 70
     5
  9
$DIMUPT
 70
     0
  9
$DIMUNIT
 70
     2
  9
$DIMDEC
 70
     0
  9
$DIMTDEC
 70
     0
  9
$DIMALTU
 70
     2
  9
$DIMALTTD
 70
     2
  9
$DIMTXSTY
  7
TOM
  9
$DIMAUNIT
 70
     0
  9
$LUNITS
 70
     2
  9
$LUPREC
 70
     2
  9
$SKETCHINC
 40
1.0
  9
$FILLETRAD
 40
3.0
  9
$AUNITS
 70
     0
  9
$AUPREC
 70
     4
  9
$MENU
  1
acad
  9
$ELEVATION
 40
0.0
  9
$PELEVATION
 40
0.0
  9
$THICKNESS
 40
0.0
  9
$LIMCHECK
 70
     0
  9
$BLIPMODE
 70
     0
  9
$CHAMFERA
 40
0.0
  9
$CHAMFERB
 40
0.0
  9
$CHAMFERC
 40
0.0
  9
$CHAMFERD
 40
0.0
  9
$SKPOLY
 70
     0
  9
$TDCREATE
 40
2450098.461194791
  9
$TDUPDATE
 40
2452896.049340046
  9
$TDINDWG
 40
0.4593739583
  9
$TDUSRTIMER
 40
0.4593739583
  9
$USRTIMER
 70
     1
  9
$ANGBASE
 50
0.0
  9
$ANGDIR
 70
     0
  9
$PDMODE
 70
     0
  9
$PDSIZE
 40
0.0
  9
$PLINEWID
 40
0.0
  9
$COORDS
 70
     2
  9
$SPLFRAME
 70
     0
  9
$SPLINETYPE
 70
     6
  9
$SPLINESEGS
 70
     8
  9
$ATTDIA
 70
     0
  9
$ATTREQ
 70
     1
  9
$HANDLING
 70
     1
  9
$HANDSEED
  5
1587
  9
$SURFTAB1
 70
     6
  9
$SURFTAB2
 70
     6
  9
$SURFTYPE
 70
     6
  9
$SURFU
 70
     6
  9
$SURFV
 70
     6
  9
$UCSNAME
  2

  9
$UCSORG
 10
0.0
 20
0.0
 30
0.0
  9
$UCSXDIR
 10
1.0
 20
0.0
 30
0.0
  9
$UCSYDIR
 10
0.0
 20
1.0
 30
0.0
  9
$PUCSNAME
  2

  9
$PUCSORG
 10
0.0
 20
0.0
 30
0.0
  9
$PUCSXDIR
 10
1.0
 20
0.0
 30
0.0
  9
$PUCSYDIR
 10
0.0
 20
1.0
 30
0.0
  9
$USERI1
 70
     0
  9
$USERI2
 70
     0
  9
$USERI3
 70
     0
  9
$USERI4
 70
     0
  9
$USERI5
 70
     0
  9
$USERR1
 40
0.0
  9
$USERR2
 40
0.0
  9
$USERR3
 40
0.0
  9
$USERR4
 40
0.0
  9
$USERR5
 40
0.0
  9
$WORLDVIEW
 70
     1
  9
$SHADEDGE
 70
     3
  9
$SHADEDIF
 70
    70
  9
$TILEMODE
 70
     1
  9
$MAXACTVP
 70
    16
  9
$PINSBASE
 10
0.0
 20
0.0
 30
0.0
  9
$PLIMCHECK
 70
     0
  9
$PEXTMIN
 10
27.943527
 20
19.928417
 30
0.0
  9
$PEXTMAX
 10
251.491745
 20
179.355751
 30
0.0
  9
$PLIMMIN
 10
-3.96875
 20
-7.14375
  9
$PLIMMAX
 10
292.929016
 20
202.900135
  9
$UNITMODE
 70
     0
  9
$VISRETAIN
 70
     0
  9
$PLINEGEN
 70
     0
  9
$PSLTSCALE
 70
     1
  9
$TREEDEPTH
 70
  3020
  9
$PICKSTYLE
 70
     3
  9
$CMLSTYLE
  2
STANDARD
  9
$CMLJUST
 70
     0
  9
$CMLSCALE
 40
1.0
  9
$PROXYGRAPHICS
 70
     1
  9
$MEASUREMENT
 70
     0
  0
ENDSEC
  0
SECTION
  2
CLASSES
  0
CLASS
  1
DICTIONARYVAR
  2
AcDbDictionaryVar
  3
"AutoCAD"
 90
        0
280
     0
281
     0
  0
CLASS
  1
LWPOLYLINE
  2
AcDbPolyline
  3
"AutoCAD"
 90
        0
280
     0
281
     1
  0
CLASS
  1
ACDBDICTIONARYWDFLT
  2
AcDbDictionaryWithDefault
  3
AutoCAD 2000
 90
        0
280
     0
281
     0
  0
CLASS
  1
ACDBPLACEHOLDER
  2
AcDbPlaceHolder
  3
AutoCAD 2000
 90
        0
280
     0
281
     0
  0
CLASS
  1
LAYOUT
  2
AcDbLayout
  3
AutoCAD 2000
 90
        0
280
     0
281
     0
  0
CLASS
  1
LONG_TRANSACTION
  2
AcDbLongTransaction
  3
AutoCAD 2000
 90
        0
280
     0
281
     0
  0
CLASS
  1
LWPOLYLINE
  2
AcDbPolyline
  3
"AutoCAD"
 90
        0
280
     0
281
     1
  0
CLASS
  1
HATCH
  2
AcDbHatch
  3
"ACAD_SEDONA"
 90
        0
280
     0
281
     1
  0
CLASS
  1
XRECORD
  2
AcDbXrecord
  3
"<Built In>"
 90
        0
280
     0
281
     0
  0
ENDSEC
  0
SECTION
  2
TABLES
  0
TABLE
  2
VPORT
  5
19
100
AcDbSymbolTable
 70
     3
  0
VPORT
  5
1586
100
AcDbSymbolTableRecord
100
AcDbViewportTableRecord
  2
*ACTIVE
 70
     0
 10
0.0
 20
0.0
 11
1.0
 21
1.0
 12
594.473419
 22
1500.130592
 13
0.0
 23
0.0
 14
1.0
 24
1.0
 15
1000.0
 25
1000.0
 16
0.0
 26
0.0
 36
1.0
 17
0.0
 27
0.0
 37
0.0
 40
540.940212
 41
2.059548
 42
50.0
 43
0.0
 44
0.0
 50
0.0
 51
0.0
 71
     0
 72
 20000
 73
     1
 74
     1
 75
     0
 76
     0
 77
     0
 78
     0
  0
ENDTAB
  0
TABLE
  2
LTYPE
  5
14
100
AcDbSymbolTable
 70
     2
  0
LTYPE
  5
15
100
AcDbSymbolTableRecord
100
AcDbLinetypeTableRecord
  2
BYBLOCK
 70
     0
  3

 72
    65
 73
     0
 40
0.0
  0
LTYPE
  5
16
100
AcDbSymbolTableRecord
100
AcDbLinetypeTableRecord
  2
BYLAYER
 70
     0
  3

 72
    65
 73
     0
 40
0.0
  0
LTYPE
  5
8
100
AcDbSymbolTableRecord
100
AcDbLinetypeTableRecord
  2
AUSGEZOGEN
 70
     0
  3
Ausgezogene Linie
 72
    65
 73
     0
 40
0.0
  0
LTYPE
  5
3D1
100
AcDbSymbolTableRecord
100
AcDbLinetypeTableRecord
  2
CONTINUOUS
 70
     0
  3
Solid line
 72
    65
 73
     0
 40
0.0
  0
ENDTAB
  0
TABLE
  2
LAYER
  5
10
100
AcDbSymbolTable
 70
     6
  0
LAYER
  5
4
100
AcDbSymbolTableRecord
100
AcDbLayerTableRecord
  2
0
 70
     0
 62
     7
  6
AUSGEZOGEN
  0
LAYER
  5
31
102
{ACAD_XDICTIONARY
360
147
102
}
100
AcDbSymbolTableRecord
100
AcDbLayerTableRecord
  2
DEFPOINTS
 70
     0
 62
     7
  6
AUSGEZOGEN
  0
LAYER
  5
ABF
100
AcDbSymbolTableRecord
100
AcDbLayerTableRecord
  2
KOTY-UPLNE
 70
     0
 62
     5
  6
CONTINUOUS
  0
LAYER
  5
AC0
100
AcDbSymbolTableRecord
100
AcDbLayerTableRecord
  2
LAMELA-VELKA
 70
     0
 62
     7
  6
CONTINUOUS
  0
ENDTAB
  0
TABLE
  2
STYLE
  5
11
100
AcDbSymbolTable
 70
     3
  0
STYLE
  5
12
100
AcDbSymbolTableRecord
100
AcDbTextStyleTableRecord
  2
STANDARD
 70
     0
 40
0.0
 41
1.0
 50
0.0
 71
     0
 42
2.0
  3
txt8.shx
  4

  0
STYLE
  5
1F
100
AcDbSymbolTableRecord
100
AcDbTextStyleTableRecord
  2
SIMPLEX8
 70
     0
 40
0.0
 41
1.0
 50
0.0
 71
     0
 42
100.0
  3
simplex8.shx
  4

  0
STYLE
  5
26
102
{ACAD_XDICTIONARY
360
117
102
}
100
AcDbSymbolTableRecord
100
AcDbTextStyleTableRecord
  2
TOM
 70
     0
 40
0.0
 41
0.9
 50
0.0
 71
     0
 42
100.0
  3
simplex.shx
  4

  0
ENDTAB
  0
TABLE
  2
VIEW
  5
17
100
AcDbSymbolTable
 70
     0
  0
ENDTAB
  0
TABLE
  2
UCS
  5
18
100
AcDbSymbolTable
 70
     0
  0
ENDTAB
  0
TABLE
  2
APPID
  5
1B
100
AcDbSymbolTable
 70
     2
  0
APPID
  5
1C
100
AcDbSymbolTableRecord
100
AcDbRegAppTableRecord
  2
ACAD
 70
     0
  0
APPID
  5
3DA
100
AcDbSymbolTableRecord
100
AcDbRegAppTableRecord
  2
DCO15
 70
     0
  0
ENDTAB
  0
TABLE
  2
DIMSTYLE
  5
1D
100
AcDbSymbolTable
 70
     4
  0
DIMSTYLE
105
20
102
{ACAD_XDICTIONARY
360
145
102
}
100
AcDbSymbolTableRecord
100
AcDbDimStyleTableRecord
  2
PFLAUM2-35
 70
     0
  3

  4

  5

  6

  7

 40
2.0
 41
0.0
 42
1.0
 43
7.0
 44
1.0
 45
1.0
 46
1.0
 47
0.0
 48
0.0
140
3.5
141
2.0
142
1.0
143
25.4
144
1.0
145
0.0
146
1.0
147
0.0
 71
     0
 72
     0
 73
     0
 74
     0
 75
     0
 76
     0
 77
     1
 78
     8
170
     0
171
     2
172
     1
173
     0
174
     0
175
     0
176
     7
177
     7
178
    30
270
     2
271
     2
272
     2
273
     2
274
     2
340
1F
275
     0
280
     0
281
     0
282
     0
283
     1
284
     8
285
     8
286
     8
287
     5
288
     0
  0
DIMSTYLE
105
3D9
100
AcDbSymbolTableRecord
100
AcDbDimStyleTableRecord
  2
STANDARD
 70
     0
  3

  4

  5

  6

  7

 40
1.0
 41
0.18
 42
0.0625
 43
0.38
 44
0.18
 45
0.0
 46
0.0
 47
0.0
 48
0.0
140
0.18
141
0.09
142
0.0
143
25.4
144
1.0
145
0.0
146
1.0
147
0.09
 71
     0
 72
     0
 73
     1
 74
     1
 75
     0
 76
     0
 77
     0
 78
     0
170
     0
171
     2
172
     0
173
     0
174
     0
175
     0
176
     0
177
     0
178
     0
270
     2
271
     4
272
     4
273
     2
274
     2
340
12
275
     0
280
     0
281
     0
282
     0
283
     1
284
     0
285
     0
286
     0
287
     3
288
     0
  0
DIMSTYLE
105
ACF
102
{ACAD_REACTORS
330
D99
330
D95
330
D97
330
D98
330
DF4
330
14C6
330
14C9
330
14CD
330
14CB
330
14CC
330
151B
330
151D
330
151E
330
151F
330
1521
330
1520
102
}
100
AcDbSymbolTableRecord
100
AcDbDimStyleTableRecord
  2
KOTY-VELKE
 70
     0
  3

  4

  5

  6

  7

 40
3.0
 41
1.5
 42
1.0
 43
10.0
 44
0.0
 45
1.0
 46
1.0
 47
0.0
 48
0.0
140
1.5
141
2.0
142
0.0
143
25.4
144
1.0
145
0.0
146
1.0
147
1.5
 71
     0
 72
     0
 73
     0
 74
     0
 75
     0
 76
     0
 77
     1
 78
     9
170
     0
171
     2
172
     1
173
     0
174
     0
175
     0
176
   170
177
   170
178
    50
270
     2
271
     0
272
     0
273
     2
274
     2
340
26
275
     0
280
     0
281
     0
282
     0
283
     1
284
     8
285
     8
286
     8
287
     5
288
     0
  0
ENDTAB
  0
TABLE
  2
BLOCK_RECORD
  5
1
100
AcDbSymbolTable
 70
    33
  0
BLOCK_RECORD
  5
2
102
{ACAD_XDICTIONARY
360
13E
102
}
100
AcDbSymbolTableRecord
100
AcDbBlockTableRecord
  2
*MODEL_SPACE
  0
BLOCK_RECORD
  5
C
102
{ACAD_XDICTIONARY
360
111
102
}
100
AcDbSymbolTableRecord
100
AcDbBlockTableRecord
  2
*PAPER_SPACE
  0
BLOCK_RECORD
  5
DA6
100
AcDbSymbolTableRecord
100
AcDbBlockTableRecord
  2
*D14
  0
BLOCK_RECORD
  5
DB2
100
AcDbSymbolTableRecord
100
AcDbBlockTableRecord
  2
*D15
  0
BLOCK_RECORD
  5
DC0
100
AcDbSymbolTableRecord
100
AcDbBlockTableRecord
  2
*D16
  0
BLOCK_RECORD
  5
DCC
100
AcDbSymbolTableRecord
100
AcDbBlockTableRecord
  2
*D17
  0
BLOCK_RECORD
  5
DE8
100
AcDbSymbolTableRecord
100
AcDbBlockTableRecord
  2
*D18
  0
BLOCK_RECORD
  5
14BA
100
AcDbSymbolTableRecord
100
AcDbBlockTableRecord
  2
*D20
  0
BLOCK_RECORD
  5
14CE
100
AcDbSymbolTableRecord
100
AcDbBlockTableRecord
  2
*D21
  0
BLOCK_RECORD
  5
14DC
100
AcDbSymbolTableRecord
100
AcDbBlockTableRecord
  2
*D22
  0
BLOCK_RECORD
  5
14E8
100
AcDbSymbolTableRecord
100
AcDbBlockTableRecord
  2
*D23
  0
BLOCK_RECORD
  5
14F7
100
AcDbSymbolTableRecord
100
AcDbBlockTableRecord
  2
*D24
  0
BLOCK_RECORD
  5
1503
100
AcDbSymbolTableRecord
100
AcDbBlockTableRecord
  2
*D25
  0
BLOCK_RECORD
  5
150F
100
AcDbSymbolTableRecord
100
AcDbBlockTableRecord
  2
*D26
  0
BLOCK_RECORD
  5
1522
100
AcDbSymbolTableRecord
100
AcDbBlockTableRecord
  2
*D27
  0
BLOCK_RECORD
  5
152E
100
AcDbSymbolTableRecord
100
AcDbBlockTableRecord
  2
*D28
  0
BLOCK_RECORD
  5
153C
100
AcDbSymbolTableRecord
100
AcDbBlockTableRecord
  2
*D29
  0
BLOCK_RECORD
  5
1548
100
AcDbSymbolTableRecord
100
AcDbBlockTableRecord
  2
*D30
  0
BLOCK_RECORD
  5
1557
100
AcDbSymbolTableRecord
100
AcDbBlockTableRecord
  2
*D31
  0
BLOCK_RECORD
  5
1563
100
AcDbSymbolTableRecord
100
AcDbBlockTableRecord
  2
*D32
  0
ENDTAB
  0
ENDSEC
  0
SECTION
  2
BLOCKS
  0
BLOCK
  5
3
100
AcDbEntity
  8
0
100
AcDbBlockBegin
  2
*MODEL_SPACE
 70
     0
 10
0.0
 20
0.0
 30
0.0
  3
*MODEL_SPACE
  1

  0
ENDBLK
  5
9
100
AcDbEntity
  8
0
100
AcDbBlockEnd
  0
BLOCK
  5
D
100
AcDbEntity
 67
     1
  8
0
100
AcDbBlockBegin
  2
*PAPER_SPACE
 70
     0
 10
0.0
 20
0.0
 30
0.0
  3
*PAPER_SPACE
  1

  0
ENDBLK
  5
E
100
AcDbEntity
 67
     1
  8
0
100
AcDbBlockEnd
  0
BLOCK
  5
DA7
100
AcDbEntity
  8
0
100
AcDbBlockBegin
  2
*D14
 70
     1
 10
0.0
 20
0.0
 30
0.0
  3
*D14
  1

  0
LINE
  5
DA8
100
AcDbEntity
  8
0
  6
BYBLOCK
100
AcDbLine
 10
744.237044
 20
2038.55108
 30
0.0
 11
775.341444
 21
2038.55108
 31
0.0
  0
LINE
  5
DA9
100
AcDbEntity
  8
0
  6
BYBLOCK
100
AcDbLine
 10
704.637044
 20
2070.05108
 30
0.0
 11
775.341444
 21
2070.05108
 31
0.0
  0
LINE
  5
DAA
100
AcDbEntity
  8
0
  6
BYBLOCK
100
AcDbLine
 10
772.841444
 20
2046.05108
 30
0.0
 11
772.841444
 21
2062.55108
 31
0.0
  0
SOLID
  5
DAB
100
AcDbEntity
  8
0
  6
BYBLOCK
100
AcDbTrace
 10
771.591444
 20
2046.05108
 30
0.0
 11
774.091444
 21
2046.05108
 31
0.0
 12
772.841444
 22
2038.55108
 32
0.0
 13
772.841444
 23
2038.55108
 33
0.0
  0
SOLID
  5
DAC
100
AcDbEntity
  8
0
  6
BYBLOCK
100
AcDbTrace
 10
771.591444
 20
2062.55108
 30
0.0
 11
774.091444
 21
2062.55108
 31
0.0
 12
772.841444
 22
2070.05108
 32
0.0
 13
772.841444
 23
2070.05108
 33
0.0
  0
MTEXT
  5
DAD
100
AcDbEntity
  8
0
  6
BYBLOCK
 62
     1
100
AcDbMText
 10
766.591444
 20
2054.30108
 30
0.0
 40
7.5
 41
0.0
 71
     5
 72
     1
  1
\A1;32
  7
TOM
 11
0.0
 21
1.0
 31
0.0
  0
POINT
  5
DAE
100
AcDbEntity
  8
DEFPOINTS
  6
BYBLOCK
 62
     0
100
AcDbPoint
 10
739.237044
 20
2038.55108
 30
0.0
  0
POINT
  5
DAF
100
AcDbEntity
  8
DEFPOINTS
  6
BYBLOCK
 62
     0
100
AcDbPoint
 10
699.637044
 20
2070.05108
 30
0.0
  0
POINT
  5
DB0
100
AcDbEntity
  8
DEFPOINTS
  6
BYBLOCK
 62
     0
100
AcDbPoint
 10
772.841444
 20
2070.05108
 30
0.0
  0
ENDBLK
  5
DB1
100
AcDbEntity
  8
0
100
AcDbBlockEnd
  0
BLOCK
  5
DB3
100
AcDbEntity
  8
0
100
AcDbBlockBegin
  2
*D15
 70
     1
 10
0.0
 20
0.0
 30
0.0
  3
*D15
  1

  0
LINE
  5
DB4
100
AcDbEntity
  8
0
  6
BYBLOCK
100
AcDbLine
 10
405.399673
 20
2074.178547
 30
0.0
 11
405.399673
 21
2092.929412
 31
0.0
  0
LINE
  5
DB5
100
AcDbEntity
  8
0
  6
BYBLOCK
100
AcDbLine
 10
420.517031
 20
2056.868968
 30
0.0
 11
420.517031
 21
2092.929412
 31
0.0
  0
LINE
  5
DB6
100
AcDbEntity
  8
0
  6
BYBLOCK
100
AcDbLine
 10
397.899673
 20
2090.429412
 30
0.0
 11
390.399673
 21
2090.429412
 31
0.0
  0
LINE
  5
DB7
100
AcDbEntity
  8
0
  6
BYBLOCK
100
AcDbLine
 10
428.017031
 20
2090.429412
 30
0.0
 11
435.517031
 21
2090.429412
 31
0.0
  0
LINE
  5
DB8
100
AcDbEntity
  8
0
  6
BYBLOCK
100
AcDbLine
 10
405.399673
 20
2090.429412
 30
0.0
 11
420.517031
 21
2090.429412
 31
0.0
  0
SOLID
  5
DB9
100
AcDbEntity
  8
0
  6
BYBLOCK
100
AcDbTrace
 10
397.899673
 20
2091.679412
 30
0.0
 11
397.899673
 21
2089.179412
 31
0.0
 12
405.399673
 22
2090.429412
 32
0.0
 13
405.399673
 23
2090.429412
 33
0.0
  0
SOLID
  5
DBA
100
AcDbEntity
  8
0
  6
BYBLOCK
100
AcDbTrace
 10
428.017031
 20
2091.679412
 30
0.0
 11
428.017031
 21
2089.179412
 31
0.0
 12
420.517031
 22
2090.429412
 32
0.0
 13
420.517031
 23
2090.429412
 33
0.0
  0
MTEXT
  5
DBB
100
AcDbEntity
  8
0
  6
BYBLOCK
 62
     1
100
AcDbMText
 10
412.958352
 20
2096.679412
 30
0.0
 40
7.5
 41
0.0
 71
     5
 72
     1
  1
\A1;15
  7
TOM
  0
POINT
  5
DBC
100
AcDbEntity
  8
DEFPOINTS
  6
BYBLOCK
 62
     0
100
AcDbPoint
 10
405.399673
 20
2069.178547
 30
0.0
  0
POINT
  5
DBD
100
AcDbEntity
  8
DEFPOINTS
  6
BYBLOCK
 62
     0
100
AcDbPoint
 10
420.517031
 20
2051.868968
 30
0.0
  0
POINT
  5
DBE
100
AcDbEntity
  8
DEFPOINTS
  6
BYBLOCK
 62
     0
100
AcDbPoint
 10
420.517031
 20
2090.429412
 30
0.0
  0
ENDBLK
  5
DBF
100
AcDbEntity
  8
0
100
AcDbBlockEnd
  0
BLOCK
  5
DC1
100
AcDbEntity
  8
0
100
AcDbBlockBegin
  2
*D16
 70
     1
 10
0.0
 20
0.0
 30
0.0
  3
*D16
  1

  0
LINE
  5
DC2
100
AcDbEntity
  8
0
  6
BYBLOCK
100
AcDbLine
 10
745.322801
 20
2051.05108
 30
0.0
 11
745.322801
 21
2114.965923
 31
0.0
  0
LINE
  5
DC3
100
AcDbEntity
  8
0
  6
BYBLOCK
100
AcDbLine
 10
705.462153
 20
2079.178547
 30
0.0
 11
705.462153
 21
2114.965923
 31
0.0
  0
LINE
  5
DC4
100
AcDbEntity
  8
0
  6
BYBLOCK
100
AcDbLine
 10
737.822801
 20
2112.465923
 30
0.0
 11
712.962153
 21
2112.465923
 31
0.0
  0
SOLID
  5
DC5
100
AcDbEntity
  8
0
  6
BYBLOCK
100
AcDbTrace
 10
737.822801
 20
2113.715923
 30
0.0
 11
737.822801
 21
2111.215923
 31
0.0
 12
745.322801
 22
2112.465923
 32
0.0
 13
745.322801
 23
2112.465923
 33
0.0
  0
SOLID
  5
DC6
100
AcDbEntity
  8
0
  6
BYBLOCK
100
AcDbTrace
 10
712.962153
 20
2113.715923
 30
0.0
 11
712.962153
 21
2111.215923
 31
0.0
 12
705.462153
 22
2112.465923
 32
0.0
 13
705.462153
 23
2112.465923
 33
0.0
  0
MTEXT
  5
DC7
100
AcDbEntity
  8
0
  6
BYBLOCK
 62
     1
100
AcDbMText
 10
725.392477
 20
2118.715923
 30
0.0
 40
7.5
 41
0.0
 71
     5
 72
     1
  1
\A1;40
  7
TOM
  0
POINT
  5
DC8
100
AcDbEntity
  8
DEFPOINTS
  6
BYBLOCK
 62
     0
100
AcDbPoint
 10
745.322801
 20
2046.05108
 30
0.0
  0
POINT
  5
DC9
100
AcDbEntity
  8
DEFPOINTS
  6
BYBLOCK
 62
     0
100
AcDbPoint
 10
705.462153
 20
2074.178547
 30
0.0
  0
POINT
  5
DCA
100
AcDbEntity
  8
DEFPOINTS
  6
BYBLOCK
 62
     0
100
AcDbPoint
 10
705.462153
 20
2112.465923
 30
0.0
  0
ENDBLK
  5
DCB
100
AcDbEntity
  8
0
100
AcDbBlockEnd
  0
BLOCK
  5
DCD
100
AcDbEntity
  8
0
100
AcDbBlockBegin
  2
*D17
 70
     1
 10
0.0
 20
0.0
 30
0.0
  3
*D17
  1

  0
LINE
  5
DCE
100
AcDbEntity
  8
0
  6
BYBLOCK
100
AcDbLine
 10
705.462153
 20
2074.178547
 30
0.0
 11
705.462153
 21
2092.929412
 31
0.0
  0
LINE
  5
DCF
100
AcDbEntity
  8
0
  6
BYBLOCK
100
AcDbLine
 10
720.086758
 20
2054.913229
 30
0.0
 11
720.086758
 21
2092.929412
 31
0.0
  0
LINE
  5
DD0
100
AcDbEntity
  8
0
  6
BYBLOCK
100
AcDbLine
 10
697.962153
 20
2090.429412
 30
0.0
 11
690.462153
 21
2090.429412
 31
0.0
  0
LINE
  5
DD1
100
AcDbEntity
  8
0
  6
BYBLOCK
100
AcDbLine
 10
727.586758
 20
2090.429412
 30
0.0
 11
735.086758
 21
2090.429412
 31
0.0
  0
MTEXT
  5
DD2
100
AcDbEntity
  8
0
  6
BYBLOCK
 62
     1
100
AcDbMText
 10
712.774456
 20
2096.785714
 30
0.0
 40
7.5
 41
0.0
 71
     5
 72
     1
  1
\A1;15
  7
TOM
  0
LINE
  5
DD3
100
AcDbEntity
  8
0
  6
BYBLOCK
100
AcDbLine
 10
705.462153
 20
2090.429412
 30
0.0
 11
720.086758
 21
2090.429412
 31
0.0
  0
LINE
  5
DD4
100
AcDbEntity
  8
0
  6
BYBLOCK
100
AcDbLine
 10
705.462153
 20
2090.429412
 30
0.0
 11
720.086758
 21
2090.429412
 31
0.0
  0
SOLID
  5
DD5
100
AcDbEntity
  8
0
  6
BYBLOCK
100
AcDbTrace
 10
697.962153
 20
2091.679412
 30
0.0
 11
697.962153
 21
2089.179412
 31
0.0
 12
705.462153
 22
2090.429412
 32
0.0
 13
705.462153
 23
2090.429412
 33
0.0
  0
SOLID
  5
DD6
100
AcDbEntity
  8
0
  6
BYBLOCK
100
AcDbTrace
 10
727.586758
 20
2091.679412
 30
0.0
 11
727.586758
 21
2089.179412
 31
0.0
 12
720.086758
 22
2090.429412
 32
0.0
 13
720.086758
 23
2090.429412
 33
0.0
  0
POINT
  5
DD7
100
AcDbEntity
  8
DEFPOINTS
  6
BYBLOCK
 62
     0
100
AcDbPoint
 10
705.462153
 20
2069.178547
 30
0.0
  0
POINT
  5
DD8
100
AcDbEntity
  8
DEFPOINTS
  6
BYBLOCK
 62
     0
100
AcDbPoint
 10
720.086758
 20
2049.913229
 30
0.0
  0
POINT
  5
DD9
100
AcDbEntity
  8
DEFPOINTS
  6
BYBLOCK
 62
     0
100
AcDbPoint
 10
720.086758
 20
2090.429412
 30
0.0
  0
ENDBLK
  5
DDA
100
AcDbEntity
  8
0
100
AcDbBlockEnd
  0
BLOCK
  5
DE9
100
AcDbEntity
  8
0
100
AcDbBlockBegin
  2
*D18
 70
     1
 10
0.0
 20
0.0
 30
0.0
  3
*D18
  1

  0
LINE
  5
DEA
100
AcDbEntity
  8
0
  6
BYBLOCK
100
AcDbLine
 10
705.462153
 20
1648.173143
 30
0.0
 11
705.462153
 21
1677.687206
 31
0.0
  0
LINE
  5
DEB
100
AcDbEntity
  8
0
  6
BYBLOCK
100
AcDbLine
 10
685.447669
 20
1653.863394
 30
0.0
 11
685.447669
 21
1677.687206
 31
0.0
  0
LINE
  5
DEC
100
AcDbEntity
  8
0
  6
BYBLOCK
100
AcDbLine
 10
697.962153
 20
1675.187206
 30
0.0
 11
692.947669
 21
1675.187206
 31
0.0
  0
SOLID
  5
DED
100
AcDbEntity
  8
0
  6
BYBLOCK
100
AcDbTrace
 10
697.962153
 20
1676.437206
 30
0.0
 11
697.962153
 21
1673.937206
 31
0.0
 12
705.462153
 22
1675.187206
 32
0.0
 13
705.462153
 23
1675.187206
 33
0.0
  0
SOLID
  5
DEE
100
AcDbEntity
  8
0
  6
BYBLOCK
100
AcDbTrace
 10
692.947669
 20
1676.437206
 30
0.0
 11
692.947669
 21
1673.937206
 31
0.0
 12
685.447669
 22
1675.187206
 32
0.0
 13
685.447669
 23
1675.187206
 33
0.0
  0
MTEXT
  5
DEF
100
AcDbEntity
  8
0
  6
BYBLOCK
 62
     1
100
AcDbMText
 10
695.454911
 20
1681.437206
 30
0.0
 40
7.5
 41
0.0
 71
     5
 72
     1
  1
\A1;20
  7
TOM
  0
POINT
  5
DF0
100
AcDbEntity
  8
DEFPOINTS
  6
BYBLOCK
 62
     0
100
AcDbPoint
 10
705.462153
 20
1643.173143
 30
0.0
  0
POINT
  5
DF1
100
AcDbEntity
  8
DEFPOINTS
  6
BYBLOCK
 62
     0
100
AcDbPoint
 10
685.447669
 20
1648.863394
 30
0.0
  0
POINT
  5
DF2
100
AcDbEntity
  8
DEFPOINTS
  6
BYBLOCK
 62
     0
100
AcDbPoint
 10
685.447669
 20
1675.187206
 30
0.0
  0
ENDBLK
  5
DF3
100
AcDbEntity
  8
0
100
AcDbBlockEnd
  0
BLOCK
  5
156F
100
AcDbEntity
  8
0
100
AcDbBlockBegin
  2
*D20
 70
     1
 10
0.0
 20
0.0
 30
0.0
  3
*D20
  1

  0
LINE
  5
1570
100
AcDbEntity
  8
0
  6
BYBLOCK
100
AcDbLine
 10
605.462153
 20
1653.173143
 30
0.0
 11
605.462153
 21
1699.723718
 31
0.0
  0
LINE
  5
1571
100
AcDbEntity
  8
0
  6
BYBLOCK
100
AcDbLine
 10
405.399673
 20
1663.936341
 30
0.0
 11
405.399673
 21
1699.723718
 31
0.0
  0
LINE
  5
1572
100
AcDbEntity
  8
0
  6
BYBLOCK
100
AcDbLine
 10
597.962153
 20
1697.223718
 30
0.0
 11
412.899673
 21
1697.223718
 31
0.0
  0
SOLID
  5
1573
100
AcDbEntity
  8
0
  6
BYBLOCK
100
AcDbTrace
 10
597.962153
 20
1698.473718
 30
0.0
 11
597.962153
 21
1695.973718
 31
0.0
 12
605.462153
 22
1697.223718
 32
0.0
 13
605.462153
 23
1697.223718
 33
0.0
  0
SOLID
  5
1574
100
AcDbEntity
  8
0
  6
BYBLOCK
100
AcDbTrace
 10
412.899673
 20
1698.473718
 30
0.0
 11
412.899673
 21
1695.973718
 31
0.0
 12
405.399673
 22
1697.223718
 32
0.0
 13
405.399673
 23
1697.223718
 33
0.0
  0
MTEXT
  5
1575
100
AcDbEntity
  8
0
  6
BYBLOCK
 62
     1
100
AcDbMText
 10
505.430913
 20
1703.473718
 30
0.0
 40
7.5
 41
0.0
 71
     5
 72
     1
  1
\A1;200
  7
TOM
  0
POINT
  5
1576
100
AcDbEntity
  8
DEFPOINTS
  6
BYBLOCK
 62
     0
100
AcDbPoint
 10
605.462153
 20
1648.173143
 30
0.0
  0
POINT
  5
1577
100
AcDbEntity
  8
DEFPOINTS
  6
BYBLOCK
 62
     0
100
AcDbPoint
 10
405.399673
 20
1658.936341
 30
0.0
  0
POINT
  5
1578
100
AcDbEntity
  8
DEFPOINTS
  6
BYBLOCK
 62
     0
100
AcDbPoint
 10
405.399673
 20
1697.223718
 30
0.0
  0
ENDBLK
  5
1579
100
AcDbEntity
  8
0
100
AcDbBlockEnd
  0
BLOCK
  5
14CF
100
AcDbEntity
  8
0
100
AcDbBlockBegin
  2
*D21
 70
     1
 10
0.0
 20
0.0
 30
0.0
  3
*D21
  1

  0
LINE
  5
14D0
100
AcDbEntity
  8
0
  6
BYBLOCK
100
AcDbLine
 10
405.399673
 20
1658.936341
 30
0.0
 11
405.399673
 21
1677.687206
 31
0.0
  0
LINE
  5
14D1
100
AcDbEntity
  8
0
  6
BYBLOCK
100
AcDbLine
 10
420.517031
 20
1641.626762
 30
0.0
 11
420.517031
 21
1677.687206
 31
0.0
  0
LINE
  5
14D2
100
AcDbEntity
  8
0
  6
BYBLOCK
100
AcDbLine
 10
397.899673
 20
1675.187206
 30
0.0
 11
390.399673
 21
1675.187206
 31
0.0
  0
LINE
  5
14D3
100
AcDbEntity
  8
0
  6
BYBLOCK
100
AcDbLine
 10
428.017031
 20
1675.187206
 30
0.0
 11
435.517031
 21
1675.187206
 31
0.0
  0
LINE
  5
14D4
100
AcDbEntity
  8
0
  6
BYBLOCK
100
AcDbLine
 10
405.399673
 20
1675.187206
 30
0.0
 11
420.517031
 21
1675.187206
 31
0.0
  0
SOLID
  5
14D5
100
AcDbEntity
  8
0
  6
BYBLOCK
100
AcDbTrace
 10
397.899673
 20
1676.437206
 30
0.0
 11
397.899673
 21
1673.937206
 31
0.0
 12
405.399673
 22
1675.187206
 32
0.0
 13
405.399673
 23
1675.187206
 33
0.0
  0
SOLID
  5
14D6
100
AcDbEntity
  8
0
  6
BYBLOCK
100
AcDbTrace
 10
428.017031
 20
1676.437206
 30
0.0
 11
428.017031
 21
1673.937206
 31
0.0
 12
420.517031
 22
1675.187206
 32
0.0
 13
420.517031
 23
1675.187206
 33
0.0
  0
MTEXT
  5
14D7
100
AcDbEntity
  8
0
  6
BYBLOCK
 62
     1
100
AcDbMText
 10
412.958352
 20
1681.437206
 30
0.0
 40
7.5
 41
0.0
 71
     5
 72
     1
  1
\A1;15
  7
TOM
  0
POINT
  5
14D8
100
AcDbEntity
  8
DEFPOINTS
  6
BYBLOCK
 62
     0
100
AcDbPoint
 10
405.399673
 20
1653.936341
 30
0.0
  0
POINT
  5
14D9
100
AcDbEntity
  8
DEFPOINTS
  6
BYBLOCK
 62
     0
100
AcDbPoint
 10
420.517031
 20
1636.626762
 30
0.0
  0
POINT
  5
14DA
100
AcDbEntity
  8
DEFPOINTS
  6
BYBLOCK
 62
     0
100
AcDbPoint
 10
420.517031
 20
1675.187206
 30
0.0
  0
ENDBLK
  5
14DB
100
AcDbEntity
  8
0
100
AcDbBlockEnd
  0
BLOCK
  5
14DD
100
AcDbEntity
  8
0
100
AcDbBlockBegin
  2
*D22
 70
     1
 10
0.0
 20
0.0
 30
0.0
  3
*D22
  1

  0
LINE
  5
14DE
100
AcDbEntity
  8
0
  6
BYBLOCK
100
AcDbLine
 10
745.322801
 20
1635.808874
 30
0.0
 11
745.322801
 21
1699.723718
 31
0.0
  0
LINE
  5
14DF
100
AcDbEntity
  8
0
  6
BYBLOCK
100
AcDbLine
 10
705.462153
 20
1663.936341
 30
0.0
 11
705.462153
 21
1699.723718
 31
0.0
  0
LINE
  5
14E0
100
AcDbEntity
  8
0
  6
BYBLOCK
100
AcDbLine
 10
737.822801
 20
1697.223718
 30
0.0
 11
712.962153
 21
1697.223718
 31
0.0
  0
SOLID
  5
14E1
100
AcDbEntity
  8
0
  6
BYBLOCK
100
AcDbTrace
 10
737.822801
 20
1698.473718
 30
0.0
 11
737.822801
 21
1695.973718
 31
0.0
 12
745.322801
 22
1697.223718
 32
0.0
 13
745.322801
 23
1697.223718
 33
0.0
  0
SOLID
  5
14E2
100
AcDbEntity
  8
0
  6
BYBLOCK
100
AcDbTrace
 10
712.962153
 20
1698.473718
 30
0.0
 11
712.962153
 21
1695.973718
 31
0.0
 12
705.462153
 22
1697.223718
 32
0.0
 13
705.462153
 23
1697.223718
 33
0.0
  0
MTEXT
  5
14E3
100
AcDbEntity
  8
0
  6
BYBLOCK
 62
     1
100
AcDbMText
 10
725.392477
 20
1703.473718
 30
0.0
 40
7.5
 41
0.0
 71
     5
 72
     1
  1
\A1;40
  7
TOM
  0
POINT
  5
14E4
100
AcDbEntity
  8
DEFPOINTS
  6
BYBLOCK
 62
     0
100
AcDbPoint
 10
745.322801
 20
1630.808874
 30
0.0
  0
POINT
  5
14E5
100
AcDbEntity
  8
DEFPOINTS
  6
BYBLOCK
 62
     0
100
AcDbPoint
 10
705.462153
 20
1658.936341
 30
0.0
  0
POINT
  5
14E6
100
AcDbEntity
  8
DEFPOINTS
  6
BYBLOCK
 62
     0
100
AcDbPoint
 10
705.462153
 20
1697.223718
 30
0.0
  0
ENDBLK
  5
14E7
100
AcDbEntity
  8
0
100
AcDbBlockEnd
  0
BLOCK
  5
14E9
100
AcDbEntity
  8
0
100
AcDbBlockBegin
  2
*D23
 70
     1
 10
0.0
 20
0.0
 30
0.0
  3
*D23
  1

  0
LINE
  5
14EA
100
AcDbEntity
  8
0
  6
BYBLOCK
100
AcDbLine
 10
705.462153
 20
1658.936341
 30
0.0
 11
705.462153
 21
1677.687206
 31
0.0
  0
LINE
  5
14EB
100
AcDbEntity
  8
0
  6
BYBLOCK
100
AcDbLine
 10
720.086758
 20
1639.671023
 30
0.0
 11
720.086758
 21
1677.687206
 31
0.0
  0
LINE
  5
14EC
100
AcDbEntity
  8
0
  6
BYBLOCK
100
AcDbLine
 10
697.962153
 20
1675.187206
 30
0.0
 11
690.462153
 21
1675.187206
 31
0.0
  0
LINE
  5
14ED
100
AcDbEntity
  8
0
  6
BYBLOCK
100
AcDbLine
 10
727.586758
 20
1675.187206
 30
0.0
 11
735.086758
 21
1675.187206
 31
0.0
  0
MTEXT
  5
14EE
100
AcDbEntity
  8
0
  6
BYBLOCK
 62
     1
100
AcDbMText
 10
712.774456
 20
1681.543508
 30
0.0
 40
7.5
 41
0.0
 71
     5
 72
     1
  1
\A1;15
  7
TOM
  0
LINE
  5
14EF
100
AcDbEntity
  8
0
  6
BYBLOCK
100
AcDbLine
 10
705.462153
 20
1675.187206
 30
0.0
 11
720.086758
 21
1675.187206
 31
0.0
  0
LINE
  5
14F0
100
AcDbEntity
  8
0
  6
BYBLOCK
100
AcDbLine
 10
705.462153
 20
1675.187206
 30
0.0
 11
720.086758
 21
1675.187206
 31
0.0
  0
SOLID
  5
14F1
100
AcDbEntity
  8
0
  6
BYBLOCK
100
AcDbTrace
 10
697.962153
 20
1676.437206
 30
0.0
 11
697.962153
 21
1673.937206
 31
0.0
 12
705.462153
 22
1675.187206
 32
0.0
 13
705.462153
 23
1675.187206
 33
0.0
  0
SOLID
  5
14F2
100
AcDbEntity
  8
0
  6
BYBLOCK
100
AcDbTrace
 10
727.586758
 20
1676.437206
 30
0.0
 11
727.586758
 21
1673.937206
 31
0.0
 12
720.086758
 22
1675.187206
 32
0.0
 13
720.086758
 23
1675.187206
 33
0.0
  0
POINT
  5
14F3
100
AcDbEntity
  8
DEFPOINTS
  6
BYBLOCK
 62
     0
100
AcDbPoint
 10
705.462153
 20
1653.936341
 30
0.0
  0
POINT
  5
14F4
100
AcDbEntity
  8
DEFPOINTS
  6
BYBLOCK
 62
     0
100
AcDbPoint
 10
720.086758
 20
1634.671023
 30
0.0
  0
POINT
  5
14F5
100
AcDbEntity
  8
DEFPOINTS
  6
BYBLOCK
 62
     0
100
AcDbPoint
 10
720.086758
 20
1675.187206
 30
0.0
  0
ENDBLK
  5
14F6
100
AcDbEntity
  8
0
100
AcDbBlockEnd
  0
BLOCK
  5
14F8
100
AcDbEntity
  8
0
100
AcDbBlockBegin
  2
*D24
 70
     1
 10
0.0
 20
0.0
 30
0.0
  3
*D24
  1

  0
LINE
  5
14F9
100
AcDbEntity
  8
0
  6
BYBLOCK
100
AcDbLine
 10
744.237044
 20
1623.308874
 30
0.0
 11
775.341444
 21
1623.308874
 31
0.0
  0
LINE
  5
14FA
100
AcDbEntity
  8
0
  6
BYBLOCK
100
AcDbLine
 10
704.637044
 20
1654.808874
 30
0.0
 11
775.341444
 21
1654.808874
 31
0.0
  0
LINE
  5
14FB
100
AcDbEntity
  8
0
  6
BYBLOCK
100
AcDbLine
 10
772.841444
 20
1630.808874
 30
0.0
 11
772.841444
 21
1647.308874
 31
0.0
  0
SOLID
  5
14FC
100
AcDbEntity
  8
0
  6
BYBLOCK
100
AcDbTrace
 10
771.591444
 20
1630.808874
 30
0.0
 11
774.091444
 21
1630.808874
 31
0.0
 12
772.841444
 22
1623.308874
 32
0.0
 13
772.841444
 23
1623.308874
 33
0.0
  0
SOLID
  5
14FD
100
AcDbEntity
  8
0
  6
BYBLOCK
100
AcDbTrace
 10
771.591444
 20
1647.308874
 30
0.0
 11
774.091444
 21
1647.308874
 31
0.0
 12
772.841444
 22
1654.808874
 32
0.0
 13
772.841444
 23
1654.808874
 33
0.0
  0
MTEXT
  5
14FE
100
AcDbEntity
  8
0
  6
BYBLOCK
 62
     1
100
AcDbMText
 10
766.591444
 20
1639.058874
 30
0.0
 40
7.5
 41
0.0
 71
     5
 72
     1
  1
\A1;32
  7
TOM
 11
0.0
 21
1.0
 31
0.0
  0
POINT
  5
14FF
100
AcDbEntity
  8
DEFPOINTS
  6
BYBLOCK
 62
     0
100
AcDbPoint
 10
739.237044
 20
1623.308874
 30
0.0
  0
POINT
  5
1500
100
AcDbEntity
  8
DEFPOINTS
  6
BYBLOCK
 62
     0
100
AcDbPoint
 10
699.637044
 20
1654.808874
 30
0.0
  0
POINT
  5
1501
100
AcDbEntity
  8
DEFPOINTS
  6
BYBLOCK
 62
     0
100
AcDbPoint
 10
772.841444
 20
1654.808874
 30
0.0
  0
ENDBLK
  5
1502
100
AcDbEntity
  8
0
100
AcDbBlockEnd
  0
BLOCK
  5
1504
100
AcDbEntity
  8
0
100
AcDbBlockBegin
  2
*D25
 70
     1
 10
0.0
 20
0.0
 30
0.0
  3
*D25
  1

  0
LINE
  5
1505
100
AcDbEntity
  8
0
  6
BYBLOCK
100
AcDbLine
 10
705.462153
 20
1648.173143
 30
0.0
 11
705.462153
 21
1677.687206
 31
0.0
  0
LINE
  5
1506
100
AcDbEntity
  8
0
  6
BYBLOCK
100
AcDbLine
 10
685.447669
 20
1653.863394
 30
0.0
 11
685.447669
 21
1677.687206
 31
0.0
  0
LINE
  5
1507
100
AcDbEntity
  8
0
  6
BYBLOCK
100
AcDbLine
 10
697.962153
 20
1675.187206
 30
0.0
 11
692.947669
 21
1675.187206
 31
0.0
  0
SOLID
  5
1508
100
AcDbEntity
  8
0
  6
BYBLOCK
100
AcDbTrace
 10
697.962153
 20
1676.437206
 30
0.0
 11
697.962153
 21
1673.937206
 31
0.0
 12
705.462153
 22
1675.187206
 32
0.0
 13
705.462153
 23
1675.187206
 33
0.0
  0
SOLID
  5
1509
100
AcDbEntity
  8
0
  6
BYBLOCK
100
AcDbTrace
 10
692.947669
 20
1676.437206
 30
0.0
 11
692.947669
 21
1673.937206
 31
0.0
 12
685.447669
 22
1675.187206
 32
0.0
 13
685.447669
 23
1675.187206
 33
0.0
  0
MTEXT
  5
150A
100
AcDbEntity
  8
0
  6
BYBLOCK
 62
     1
100
AcDbMText
 10
695.454911
 20
1681.437206
 30
0.0
 40
7.5
 41
0.0
 71
     5
 72
     1
  1
\A1;20
  7
TOM
  0
POINT
  5
150B
100
AcDbEntity
  8
DEFPOINTS
  6
BYBLOCK
 62
     0
100
AcDbPoint
 10
705.462153
 20
1643.173143
 30
0.0
  0
POINT
  5
150C
100
AcDbEntity
  8
DEFPOINTS
  6
BYBLOCK
 62
     0
100
AcDbPoint
 10
685.447669
 20
1648.863394
 30
0.0
  0
POINT
  5
150D
100
AcDbEntity
  8
DEFPOINTS
  6
BYBLOCK
 62
     0
100
AcDbPoint
 10
685.447669
 20
1675.187206
 30
0.0
  0
ENDBLK
  5
150E
100
AcDbEntity
  8
0
100
AcDbBlockEnd
  0
BLOCK
  5
1510
100
AcDbEntity
  8
0
100
AcDbBlockBegin
  2
*D26
 70
     1
 10
0.0
 20
0.0
 30
0.0
  3
*D26
  1

  0
LINE
  5
1511
100
AcDbEntity
  8
0
  6
BYBLOCK
100
AcDbLine
 10
705.462153
 20
1653.173143
 30
0.0
 11
705.462153
 21
1699.723718
 31
0.0
  0
LINE
  5
1512
100
AcDbEntity
  8
0
  6
BYBLOCK
100
AcDbLine
 10
405.399673
 20
1663.936341
 30
0.0
 11
405.399673
 21
1699.723718
 31
0.0
  0
LINE
  5
1513
100
AcDbEntity
  8
0
  6
BYBLOCK
100
AcDbLine
 10
697.962153
 20
1697.223718
 30
0.0
 11
412.899673
 21
1697.223718
 31
0.0
  0
SOLID
  5
1514
100
AcDbEntity
  8
0
  6
BYBLOCK
100
AcDbTrace
 10
697.962153
 20
1698.473718
 30
0.0
 11
697.962153
 21
1695.973718
 31
0.0
 12
705.462153
 22
1697.223718
 32
0.0
 13
705.462153
 23
1697.223718
 33
0.0
  0
SOLID
  5
1515
100
AcDbEntity
  8
0
  6
BYBLOCK
100
AcDbTrace
 10
412.899673
 20
1698.473718
 30
0.0
 11
412.899673
 21
1695.973718
 31
0.0
 12
405.399673
 22
1697.223718
 32
0.0
 13
405.399673
 23
1697.223718
 33
0.0
  0
MTEXT
  5
1516
100
AcDbEntity
  8
0
  6
BYBLOCK
 62
     1
100
AcDbMText
 10
555.430913
 20
1703.473718
 30
0.0
 40
7.5
 41
0.0
 71
     5
 72
     1
  1
\A1;300
  7
TOM
  0
POINT
  5
1517
100
AcDbEntity
  8
DEFPOINTS
  6
BYBLOCK
 62
     0
100
AcDbPoint
 10
705.462153
 20
1648.173143
 30
0.0
  0
POINT
  5
1518
100
AcDbEntity
  8
DEFPOINTS
  6
BYBLOCK
 62
     0
100
AcDbPoint
 10
405.399673
 20
1658.936341
 30
0.0
  0
POINT
  5
1519
100
AcDbEntity
  8
DEFPOINTS
  6
BYBLOCK
 62
     0
100
AcDbPoint
 10
405.399673
 20
1697.223718
 30
0.0
  0
ENDBLK
  5
151A
100
AcDbEntity
  8
0
100
AcDbBlockEnd
  0
BLOCK
  5
157A
100
AcDbEntity
  8
0
100
AcDbBlockBegin
  2
*D27
 70
     1
 10
0.0
 20
0.0
 30
0.0
  3
*D27
  1

  0
LINE
  5
157B
100
AcDbEntity
  8
0
  6
BYBLOCK
100
AcDbLine
 10
805.462153
 20
1383.23035
 30
0.0
 11
805.462153
 21
1429.780925
 31
0.0
  0
LINE
  5
157C
100
AcDbEntity
  8
0
  6
BYBLOCK
100
AcDbLine
 10
405.399673
 20
1393.993548
 30
0.0
 11
405.399673
 21
1429.780925
 31
0.0
  0
LINE
  5
157D
100
AcDbEntity
  8
0
  6
BYBLOCK
100
AcDbLine
 10
797.962153
 20
1427.280925
 30
0.0
 11
412.899673
 21
1427.280925
 31
0.0
  0
SOLID
  5
157E
100
AcDbEntity
  8
0
  6
BYBLOCK
100
AcDbTrace
 10
797.962153
 20
1428.530925
 30
0.0
 11
797.962153
 21
1426.030925
 31
0.0
 12
805.462153
 22
1427.280925
 32
0.0
 13
805.462153
 23
1427.280925
 33
0.0
  0
SOLID
  5
157F
100
AcDbEntity
  8
0
  6
BYBLOCK
100
AcDbTrace
 10
412.899673
 20
1428.530925
 30
0.0
 11
412.899673
 21
1426.030925
 31
0.0
 12
405.399673
 22
1427.280925
 32
0.0
 13
405.399673
 23
1427.280925
 33
0.0
  0
MTEXT
  5
1580
100
AcDbEntity
  8
0
  6
BYBLOCK
 62
     1
100
AcDbMText
 10
605.430913
 20
1433.530925
 30
0.0
 40
7.5
 41
0.0
 71
     5
 72
     1
  1
\A1;400
  7
TOM
  0
POINT
  5
1581
100
AcDbEntity
  8
DEFPOINTS
  6
BYBLOCK
 62
     0
100
AcDbPoint
 10
805.462153
 20
1378.23035
 30
0.0
  0
POINT
  5
1582
100
AcDbEntity
  8
DEFPOINTS
  6
BYBLOCK
 62
     0
100
AcDbPoint
 10
405.399673
 20
1388.993548
 30
0.0
  0
POINT
  5
1583
100
AcDbEntity
  8
DEFPOINTS
  6
BYBLOCK
 62
     0
100
AcDbPoint
 10
405.399673
 20
1427.280925
 30
0.0
  0
ENDBLK
  5
1584
100
AcDbEntity
  8
0
100
AcDbBlockEnd
  0
BLOCK
  5
152F
100
AcDbEntity
  8
0
100
AcDbBlockBegin
  2
*D28
 70
     1
 10
0.0
 20
0.0
 30
0.0
  3
*D28
  1

  0
LINE
  5
1530
100
AcDbEntity
  8
0
  6
BYBLOCK
100
AcDbLine
 10
405.399673
 20
1523.964945
 30
0.0
 11
405.399673
 21
1542.71581
 31
0.0
  0
LINE
  5
1531
100
AcDbEntity
  8
0
  6
BYBLOCK
100
AcDbLine
 10
420.517031
 20
1506.655366
 30
0.0
 11
420.517031
 21
1542.71581
 31
0.0
  0
LINE
  5
1532
100
AcDbEntity
  8
0
  6
BYBLOCK
100
AcDbLine
 10
397.899673
 20
1540.21581
 30
0.0
 11
390.399673
 21
1540.21581
 31
0.0
  0
LINE
  5
1533
100
AcDbEntity
  8
0
  6
BYBLOCK
100
AcDbLine
 10
428.017031
 20
1540.21581
 30
0.0
 11
435.517031
 21
1540.21581
 31
0.0
  0
LINE
  5
1534
100
AcDbEntity
  8
0
  6
BYBLOCK
100
AcDbLine
 10
405.399673
 20
1540.21581
 30
0.0
 11
420.517031
 21
1540.21581
 31
0.0
  0
SOLID
  5
1535
100
AcDbEntity
  8
0
  6
BYBLOCK
100
AcDbTrace
 10
397.899673
 20
1541.46581
 30
0.0
 11
397.899673
 21
1538.96581
 31
0.0
 12
405.399673
 22
1540.21581
 32
0.0
 13
405.399673
 23
1540.21581
 33
0.0
  0
SOLID
  5
1536
100
AcDbEntity
  8
0
  6
BYBLOCK
100
AcDbTrace
 10
428.017031
 20
1541.46581
 30
0.0
 11
428.017031
 21
1538.96581
 31
0.0
 12
420.517031
 22
1540.21581
 32
0.0
 13
420.517031
 23
1540.21581
 33
0.0
  0
MTEXT
  5
1537
100
AcDbEntity
  8
0
  6
BYBLOCK
 62
     1
100
AcDbMText
 10
412.958352
 20
1546.46581
 30
0.0
 40
7.5
 41
0.0
 71
     5
 72
     1
  1
\A1;15
  7
TOM
  0
POINT
  5
1538
100
AcDbEntity
  8
DEFPOINTS
  6
BYBLOCK
 62
     0
100
AcDbPoint
 10
405.399673
 20
1518.964945
 30
0.0
  0
POINT
  5
1539
100
AcDbEntity
  8
DEFPOINTS
  6
BYBLOCK
 62
     0
100
AcDbPoint
 10
420.517031
 20
1501.655366
 30
0.0
  0
POINT
  5
153A
100
AcDbEntity
  8
DEFPOINTS
  6
BYBLOCK
 62
     0
100
AcDbPoint
 10
420.517031
 20
1540.21581
 30
0.0
  0
ENDBLK
  5
153B
100
AcDbEntity
  8
0
100
AcDbBlockEnd
  0
BLOCK
  5
153D
100
AcDbEntity
  8
0
100
AcDbBlockBegin
  2
*D29
 70
     1
 10
0.0
 20
0.0
 30
0.0
  3
*D29
  1

  0
LINE
  5
153E
100
AcDbEntity
  8
0
  6
BYBLOCK
100
AcDbLine
 10
705.462153
 20
1513.201746
 30
0.0
 11
705.462153
 21
1542.71581
 31
0.0
  0
LINE
  5
153F
100
AcDbEntity
  8
0
  6
BYBLOCK
100
AcDbLine
 10
685.447669
 20
1518.891997
 30
0.0
 11
685.447669
 21
1542.71581
 31
0.0
  0
LINE
  5
1540
100
AcDbEntity
  8
0
  6
BYBLOCK
100
AcDbLine
 10
697.962153
 20
1540.21581
 30
0.0
 11
692.947669
 21
1540.21581
 31
0.0
  0
SOLID
  5
1541
100
AcDbEntity
  8
0
  6
BYBLOCK
100
AcDbTrace
 10
697.962153
 20
1541.46581
 30
0.0
 11
697.962153
 21
1538.96581
 31
0.0
 12
705.462153
 22
1540.21581
 32
0.0
 13
705.462153
 23
1540.21581
 33
0.0
  0
SOLID
  5
1542
100
AcDbEntity
  8
0
  6
BYBLOCK
100
AcDbTrace
 10
692.947669
 20
1541.46581
 30
0.0
 11
692.947669
 21
1538.96581
 31
0.0
 12
685.447669
 22
1540.21581
 32
0.0
 13
685.447669
 23
1540.21581
 33
0.0
  0
MTEXT
  5
1543
100
AcDbEntity
  8
0
  6
BYBLOCK
 62
     1
100
AcDbMText
 10
695.454911
 20
1546.46581
 30
0.0
 40
7.5
 41
0.0
 71
     5
 72
     1
  1
\A1;20
  7
TOM
  0
POINT
  5
1544
100
AcDbEntity
  8
DEFPOINTS
  6
BYBLOCK
 62
     0
100
AcDbPoint
 10
705.462153
 20
1508.201746
 30
0.0
  0
POINT
  5
1545
100
AcDbEntity
  8
DEFPOINTS
  6
BYBLOCK
 62
     0
100
AcDbPoint
 10
685.447669
 20
1513.891997
 30
0.0
  0
POINT
  5
1546
100
AcDbEntity
  8
DEFPOINTS
  6
BYBLOCK
 62
     0
100
AcDbPoint
 10
685.447669
 20
1540.21581
 30
0.0
  0
ENDBLK
  5
1547
100
AcDbEntity
  8
0
100
AcDbBlockEnd
  0
BLOCK
  5
1549
100
AcDbEntity
  8
0
100
AcDbBlockBegin
  2
*D30
 70
     1
 10
0.0
 20
0.0
 30
0.0
  3
*D30
  1

  0
LINE
  5
154A
100
AcDbEntity
  8
0
  6
BYBLOCK
100
AcDbLine
 10
705.462153
 20
1523.964945
 30
0.0
 11
705.462153
 21
1542.71581
 31
0.0
  0
LINE
  5
154B
100
AcDbEntity
  8
0
  6
BYBLOCK
100
AcDbLine
 10
720.086758
 20
1504.699627
 30
0.0
 11
720.086758
 21
1542.71581
 31
0.0
  0
LINE
  5
154C
100
AcDbEntity
  8
0
  6
BYBLOCK
100
AcDbLine
 10
697.962153
 20
1540.21581
 30
0.0
 11
690.462153
 21
1540.21581
 31
0.0
  0
LINE
  5
154D
100
AcDbEntity
  8
0
  6
BYBLOCK
100
AcDbLine
 10
727.586758
 20
1540.21581
 30
0.0
 11
735.086758
 21
1540.21581
 31
0.0
  0
MTEXT
  5
154E
100
AcDbEntity
  8
0
  6
BYBLOCK
 62
     1
100
AcDbMText
 10
712.774456
 20
1546.572112
 30
0.0
 40
7.5
 41
0.0
 71
     5
 72
     1
  1
\A1;15
  7
TOM
  0
LINE
  5
154F
100
AcDbEntity
  8
0
  6
BYBLOCK
100
AcDbLine
 10
705.462153
 20
1540.21581
 30
0.0
 11
720.086758
 21
1540.21581
 31
0.0
  0
LINE
  5
1550
100
AcDbEntity
  8
0
  6
BYBLOCK
100
AcDbLine
 10
705.462153
 20
1540.21581
 30
0.0
 11
720.086758
 21
1540.21581
 31
0.0
  0
SOLID
  5
1551
100
AcDbEntity
  8
0
  6
BYBLOCK
100
AcDbTrace
 10
697.962153
 20
1541.46581
 30
0.0
 11
697.962153
 21
1538.96581
 31
0.0
 12
705.462153
 22
1540.21581
 32
0.0
 13
705.462153
 23
1540.21581
 33
0.0
  0
SOLID
  5
1552
100
AcDbEntity
  8
0
  6
BYBLOCK
100
AcDbTrace
 10
727.586758
 20
1541.46581
 30
0.0
 11
727.586758
 21
1538.96581
 31
0.0
 12
720.086758
 22
1540.21581
 32
0.0
 13
720.086758
 23
1540.21581
 33
0.0
  0
POINT
  5
1553
100
AcDbEntity
  8
DEFPOINTS
  6
BYBLOCK
 62
     0
100
AcDbPoint
 10
705.462153
 20
1518.964945
 30
0.0
  0
POINT
  5
1554
100
AcDbEntity
  8
DEFPOINTS
  6
BYBLOCK
 62
     0
100
AcDbPoint
 10
720.086758
 20
1499.699627
 30
0.0
  0
POINT
  5
1555
100
AcDbEntity
  8
DEFPOINTS
  6
BYBLOCK
 62
     0
100
AcDbPoint
 10
720.086758
 20
1540.21581
 30
0.0
  0
ENDBLK
  5
1556
100
AcDbEntity
  8
0
100
AcDbBlockEnd
  0
BLOCK
  5
1558
100
AcDbEntity
  8
0
100
AcDbBlockBegin
  2
*D31
 70
     1
 10
0.0
 20
0.0
 30
0.0
  3
*D31
  1

  0
LINE
  5
1559
100
AcDbEntity
  8
0
  6
BYBLOCK
100
AcDbLine
 10
744.237044
 20
1488.337478
 30
0.0
 11
775.341444
 21
1488.337478
 31
0.0
  0
LINE
  5
155A
100
AcDbEntity
  8
0
  6
BYBLOCK
100
AcDbLine
 10
704.637044
 20
1519.837478
 30
0.0
 11
775.341444
 21
1519.837478
 31
0.0
  0
LINE
  5
155B
100
AcDbEntity
  8
0
  6
BYBLOCK
100
AcDbLine
 10
772.841444
 20
1495.837478
 30
0.0
 11
772.841444
 21
1512.337478
 31
0.0
  0
SOLID
  5
155C
100
AcDbEntity
  8
0
  6
BYBLOCK
100
AcDbTrace
 10
771.591444
 20
1495.837478
 30
0.0
 11
774.091444
 21
1495.837478
 31
0.0
 12
772.841444
 22
1488.337478
 32
0.0
 13
772.841444
 23
1488.337478
 33
0.0
  0
SOLID
  5
155D
100
AcDbEntity
  8
0
  6
BYBLOCK
100
AcDbTrace
 10
771.591444
 20
1512.337478
 30
0.0
 11
774.091444
 21
1512.337478
 31
0.0
 12
772.841444
 22
1519.837478
 32
0.0
 13
772.841444
 23
1519.837478
 33
0.0
  0
MTEXT
  5
155E
100
AcDbEntity
  8
0
  6
BYBLOCK
 62
     1
100
AcDbMText
 10
766.591444
 20
1504.087478
 30
0.0
 40
7.5
 41
0.0
 71
     5
 72
     1
  1
\A1;32
  7
TOM
 11
0.0
 21
1.0
 31
0.0
  0
POINT
  5
155F
100
AcDbEntity
  8
DEFPOINTS
  6
BYBLOCK
 62
     0
100
AcDbPoint
 10
739.237044
 20
1488.337478
 30
0.0
  0
POINT
  5
1560
100
AcDbEntity
  8
DEFPOINTS
  6
BYBLOCK
 62
     0
100
AcDbPoint
 10
699.637044
 20
1519.837478
 30
0.0
  0
POINT
  5
1561
100
AcDbEntity
  8
DEFPOINTS
  6
BYBLOCK
 62
     0
100
AcDbPoint
 10
772.841444
 20
1519.837478
 30
0.0
  0
ENDBLK
  5
1562
100
AcDbEntity
  8
0
100
AcDbBlockEnd
  0
BLOCK
  5
1564
100
AcDbEntity
  8
0
100
AcDbBlockBegin
  2
*D32
 70
     1
 10
0.0
 20
0.0
 30
0.0
  3
*D32
  1

  0
LINE
  5
1565
100
AcDbEntity
  8
0
  6
BYBLOCK
100
AcDbLine
 10
745.322801
 20
1500.837478
 30
0.0
 11
745.322801
 21
1564.752321
 31
0.0
  0
LINE
  5
1566
100
AcDbEntity
  8
0
  6
BYBLOCK
100
AcDbLine
 10
705.462153
 20
1528.964945
 30
0.0
 11
705.462153
 21
1564.752321
 31
0.0
  0
LINE
  5
1567
100
AcDbEntity
  8
0
  6
BYBLOCK
100
AcDbLine
 10
737.822801
 20
1562.252321
 30
0.0
 11
712.962153
 21
1562.252321
 31
0.0
  0
SOLID
  5
1568
100
AcDbEntity
  8
0
  6
BYBLOCK
100
AcDbTrace
 10
737.822801
 20
1563.502321
 30
0.0
 11
737.822801
 21
1561.002321
 31
0.0
 12
745.322801
 22
1562.252321
 32
0.0
 13
745.322801
 23
1562.252321
 33
0.0
  0
SOLID
  5
1569
100
AcDbEntity
  8
0
  6
BYBLOCK
100
AcDbTrace
 10
712.962153
 20
1563.502321
 30
0.0
 11
712.962153
 21
1561.002321
 31
0.0
 12
705.462153
 22
1562.252321
 32
0.0
 13
705.462153
 23
1562.252321
 33
0.0
  0
MTEXT
  5
156A
100
AcDbEntity
  8
0
  6
BYBLOCK
 62
     1
100
AcDbMText
 10
725.392477
 20
1568.502321
 30
0.0
 40
7.5
 41
0.0
 71
     5
 72
     1
  1
\A1;40
  7
TOM
  0
POINT
  5
156B
100
AcDbEntity
  8
DEFPOINTS
  6
BYBLOCK
 62
     0
100
AcDbPoint
 10
745.322801
 20
1495.837478
 30
0.0
  0
POINT
  5
156C
100
AcDbEntity
  8
DEFPOINTS
  6
BYBLOCK
 62
     0
100
AcDbPoint
 10
705.462153
 20
1523.964945
 30
0.0
  0
POINT
  5
156D
100
AcDbEntity
  8
DEFPOINTS
  6
BYBLOCK
 62
     0
100
AcDbPoint
 10
705.462153
 20
1562.252321
 30
0.0
  0
ENDBLK
  5
156E
100
AcDbEntity
  8
0
100
AcDbBlockEnd
  0
ENDSEC
  0
SECTION
  2
ENTITIES
  0
MTEXT
  5
4C
100
AcDbEntity
  8
0
100
AcDbMText
 10
448.360139
 20
1735.038555
 30
0.0
 40
10.0
 41
222.6
 71
     1
 72
     5
  1
Linear F
  7
TOM
1001
ACAD
1000
MTEXTBEGIN
1070
    73
1070
     1
1070
    44
1040
1.0
1070
    74
1070
     0
1000
MTEXTEND
  0
LWPOLYLINE
  5
ACB
100
AcDbEntity
  8
LAMELA-VELKA
100
AcDbPolyline
 90
       15
 70
     0
 43
2.0
 10
645.322801
 20
1630.808874
 10
642.764706
 20
1625.808874
 42
-0.200073
 10
639.237044
 20
1623.308874
 10
609.737044
 20
1623.308874
 42
-1.0
 10
609.737044
 20
1627.308874
 10
610.237044
 20
1627.308874
 42
0.831908
 10
613.458047
 20
1644.712751
 10
587.84816
 20
1646.622216
 42
-0.214719
 10
585.447669
 20
1648.863394
 10
584.252424
 20
1651.731962
 42
0.302775
 10
579.637044
 20
1654.808874
 10
408.517045
 20
1654.808874
 42
1.0
 10
408.517044
 20
1648.608874
 42
-0.413777
 10
420.517031
 20
1636.626762
 42
-0.287877
 10
412.333139
 20
1625.485596
 42
-0.287877
  0
DIMENSION
  5
D95
100
AcDbEntity
  8
KOTY-UPLNE
100
AcDbDimension
  2
*D15
 10
420.517031
 20
1675.187206
 30
0.0
 11
412.958352
 21
1681.437206
 31
0.0
 12
0.0
 22
-415.242205
 32
0.0
 70
    32
  3
KOTY-VELKE
100
AcDbAlignedDimension
 13
405.399673
 23
1653.936341
 33
0.0
 14
420.517031
 24
1636.626762
 34
0.0
100
AcDbRotatedDimension
1001
ACAD
1000
DSTYLE
1002
{
1070
    40
1040
5.0
1070
   147
1040
0.5
1070
    44
1040
0.5
1070
   178
1070
     1
1070
   177
1070
   256
1070
   176
1070
   256
1002
}
  0
DIMENSION
  5
D97
100
AcDbEntity
  8
KOTY-UPLNE
100
AcDbDimension
  2
*D16
 10
605.462153
 20
1697.223718
 30
0.0
 11
725.392477
 21
1703.473718
 31
0.0
 12
-100.0
 22
-415.242205
 32
0.0
 70
    32
  3
KOTY-VELKE
100
AcDbAlignedDimension
 13
645.322801
 23
1630.808874
 33
0.0
 14
605.462153
 24
1658.936341
 34
0.0
100
AcDbRotatedDimension
1001
ACAD
1000
DSTYLE
1002
{
1070
    40
1040
5.0
1070
   147
1040
0.5
1070
    44
1040
0.5
1070
   178
1070
     1
1070
   177
1070
   256
1070
   176
1070
   256
1002
}
  0
DIMENSION
  5
D98
100
AcDbEntity
  8
KOTY-UPLNE
100
AcDbDimension
  2
*D17
 10
620.086758
 20
1675.187206
 30
0.0
 11
612.774456
 21
1681.543508
 31
0.0
 12
-100.0
 22
-415.242205
 32
0.0
 70
   160
  3
KOTY-VELKE
100
AcDbAlignedDimension
 13
605.462153
 23
1653.936341
 33
0.0
 14
620.086758
 24
1634.671023
 34
0.0
100
AcDbRotatedDimension
1001
ACAD
1000
DSTYLE
1002
{
1070
    40
1040
5.0
1070
   147
1040
0.5
1070
    44
1040
0.5
1070
   178
1070
     1
1070
   177
1070
   256
1070
   176
1070
   256
1002
}
  0
DIMENSION
  5
D99
100
AcDbEntity
  8
KOTY-UPLNE
100
AcDbDimension
  2
*D14
 10
672.841444
 20
1654.808874
 30
0.0
 11
766.591444
 21
1639.058874
 31
0.0
 12
-100.0
 22
-415.242205
 32
0.0
 70
    32
  3
KOTY-VELKE
100
AcDbAlignedDimension
 13
639.237044
 23
1623.308874
 33
0.0
 14
599.637044
 24
1654.808874
 34
0.0
 50
90.0
100
AcDbRotatedDimension
1001
ACAD
1000
DSTYLE
1002
{
1070
    40
1040
5.0
1070
   147
1040
0.5
1070
    44
1040
0.5
1070
   178
1070
     1
1070
   177
1070
   256
1070
   176
1070
   256
1002
}
  0
DIMENSION
  5
DF4
100
AcDbEntity
  8
KOTY-UPLNE
100
AcDbDimension
  2
*D18
 10
585.447669
 20
1675.187206
 30
0.0
 11
695.454911
 21
1681.437206
 31
0.0
 12
-100.0
 22
0.0
 32
0.0
 70
    32
  3
KOTY-VELKE
100
AcDbAlignedDimension
 13
605.462153
 23
1643.173143
 33
0.0
 14
585.447669
 24
1648.863394
 34
0.0
100
AcDbRotatedDimension
1001
ACAD
1000
DSTYLE
1002
{
1070
    40
1040
5.0
1070
   147
1040
0.5
1070
    44
1040
0.5
1070
   178
1070
     1
1070
   177
1070
   256
1070
   176
1070
   256
1002
}
  0
DIMENSION
  5
14C6
100
AcDbEntity
  8
KOTY-UPLNE
100
AcDbDimension
  2
*D20
 10
405.399673
 20
1697.223718
 30
0.0
 11
505.430913
 21
1703.473718
 31
0.0
 70
    32
  3
KOTY-VELKE
100
AcDbAlignedDimension
 13
605.462153
 23
1648.173143
 33
0.0
 14
405.399673
 24
1658.936341
 34
0.0
100
AcDbRotatedDimension
1001
ACAD
1000
DSTYLE
1002
{
1070
    40
1040
5.0
1070
   147
1040
0.5
1070
    44
1040
0.5
1070
   178
1070
     1
1070
   177
1070
   256
1070
   176
1070
   256
1002
}
  0
DIMENSION
  5
14C7
100
AcDbEntity
  8
KOTY-UPLNE
100
AcDbDimension
  2
*D26
 10
405.399673
 20
1562.252321
 30
0.0
 11
555.430913
 21
1568.502321
 31
0.0
 12
0.0
 22
-134.971396
 32
0.0
 70
    32
  3
KOTY-VELKE
100
AcDbAlignedDimension
 13
705.462153
 23
1513.201746
 33
0.0
 14
405.399673
 24
1523.964945
 34
0.0
100
AcDbRotatedDimension
1001
ACAD
1000
DSTYLE
1002
{
1070
    40
1040
5.0
1070
   147
1040
0.5
1070
    44
1040
0.5
1070
   178
1070
     1
1070
   177
1070
   256
1070
   176
1070
   256
1002
}
  0
LWPOLYLINE
  5
14C8
100
AcDbEntity
  8
LAMELA-VELKA
100
AcDbPolyline
 90
       15
 70
     0
 43
2.0
 10
745.322801
 20
1495.837478
 10
742.764706
 20
1490.837478
 42
-0.200073
 10
739.237044
 20
1488.337478
 10
709.737044
 20
1488.337478
 42
-1.0
 10
709.737044
 20
1492.337478
 10
710.237044
 20
1492.337478
 42
0.831908
 10
713.458047
 20
1509.741354
 10
687.84816
 20
1511.65082
 42
-0.214719
 10
685.447669
 20
1513.891997
 10
684.252424
 20
1516.760565
 42
0.302775
 10
679.637044
 20
1519.837478
 10
408.517045
 20
1519.837478
 42
1.0
 10
408.517044
 20
1513.637478
 42
-0.413777
 10
420.517031
 20
1501.655366
 42
-0.287877
 10
412.333139
 20
1490.5142
 42
-0.287877
  0
DIMENSION
  5
14C9
100
AcDbEntity
  8
KOTY-UPLNE
100
AcDbDimension
  2
*D21
 10
420.517031
 20
1540.21581
 30
0.0
 11
412.958352
 21
1546.46581
 31
0.0
 12
0.0
 22
-134.971396
 32
0.0
 70
    32
  3
KOTY-VELKE
100
AcDbAlignedDimension
 13
405.399673
 23
1518.964945
 33
0.0
 14
420.517031
 24
1501.655366
 34
0.0
100
AcDbRotatedDimension
1001
ACAD
1000
DSTYLE
1002
{
1070
    40
1040
5.0
1070
   147
1040
0.5
1070
    44
1040
0.5
1070
   178
1070
     1
1070
   177
1070
   256
1070
   176
1070
   256
1002
}
  0
DIMENSION
  5
14CA
100
AcDbEntity
  8
KOTY-UPLNE
100
AcDbDimension
  2
*D25
 10
685.447669
 20
1540.21581
 30
0.0
 11
695.454911
 21
1546.46581
 31
0.0
 12
0.0
 22
-134.971396
 32
0.0
 70
    32
  3
KOTY-VELKE
100
AcDbAlignedDimension
 13
705.462153
 23
1508.201746
 33
0.0
 14
685.447669
 24
1513.891997
 34
0.0
100
AcDbRotatedDimension
1001
ACAD
1000
DSTYLE
1002
{
1070
    40
1040
5.0
1070
   147
1040
0.5
1070
    44
1040
0.5
1070
   178
1070
     1
1070
   177
1070
   256
1070
   176
1070
   256
1002
}
  0
DIMENSION
  5
14CB
100
AcDbEntity
  8
KOTY-UPLNE
100
AcDbDimension
  2
*D23
 10
720.086758
 20
1540.21581
 30
0.0
 11
712.774456
 21
1546.572112
 31
0.0
 12
0.0
 22
-134.971396
 32
0.0
 70
   160
  3
KOTY-VELKE
100
AcDbAlignedDimension
 13
705.462153
 23
1518.964945
 33
0.0
 14
720.086758
 24
1499.699627
 34
0.0
100
AcDbRotatedDimension
1001
ACAD
1000
DSTYLE
1002
{
1070
    40
1040
5.0
1070
   147
1040
0.5
1070
    44
1040
0.5
1070
   178
1070
     1
1070
   177
1070
   256
1070
   176
1070
   256
1002
}
  0
DIMENSION
  5
14CC
100
AcDbEntity
  8
KOTY-UPLNE
100
AcDbDimension
  2
*D24
 10
772.841444
 20
1519.837478
 30
0.0
 11
766.591444
 21
1504.087478
 31
0.0
 12
0.0
 22
-134.971396
 32
0.0
 70
    32
  3
KOTY-VELKE
100
AcDbAlignedDimension
 13
739.237044
 23
1488.337478
 33
0.0
 14
699.637044
 24
1519.837478
 34
0.0
 50
90.0
100
AcDbRotatedDimension
1001
ACAD
1000
DSTYLE
1002
{
1070
    40
1040
5.0
1070
   147
1040
0.5
1070
    44
1040
0.5
1070
   178
1070
     1
1070
   177
1070
   256
1070
   176
1070
   256
1002
}
  0
DIMENSION
  5
14CD
100
AcDbEntity
  8
KOTY-UPLNE
100
AcDbDimension
  2
*D22
 10
705.462153
 20
1562.252321
 30
0.0
 11
725.392477
 21
1568.502321
 31
0.0
 12
0.0
 22
-134.971396
 32
0.0
 70
    32
  3
KOTY-VELKE
100
AcDbAlignedDimension
 13
745.322801
 23
1495.837478
 33
0.0
 14
705.462153
 24
1523.964945
 34
0.0
100
AcDbRotatedDimension
1001
ACAD
1000
DSTYLE
1002
{
1070
    40
1040
5.0
1070
   147
1040
0.5
1070
    44
1040
0.5
1070
   178
1070
     1
1070
   177
1070
   256
1070
   176
1070
   256
1002
}
  0
DIMENSION
  5
151B
100
AcDbEntity
  8
KOTY-UPLNE
100
AcDbDimension
  2
*D27
 10
405.399673
 20
1427.280925
 30
0.0
 11
605.430913
 21
1433.530925
 31
0.0
 70
    32
  3
KOTY-VELKE
100
AcDbAlignedDimension
 13
805.462153
 23
1378.23035
 33
0.0
 14
405.399673
 24
1388.993548
 34
0.0
100
AcDbRotatedDimension
1001
ACAD
1000
DSTYLE
1002
{
1070
    40
1040
5.0
1070
   147
1040
0.5
1070
    44
1040
0.5
1070
   178
1070
     1
1070
   177
1070
   256
1070
   176
1070
   256
1002
}
  0
LWPOLYLINE
  5
151C
100
AcDbEntity
  8
LAMELA-VELKA
100
AcDbPolyline
 90
       15
 70
     0
 43
2.0
 10
845.322801
 20
1360.866081
 10
842.764706
 20
1355.866081
 42
-0.200073
 10
839.237044
 20
1353.366081
 10
809.737044
 20
1353.366081
 42
-1.0
 10
809.737044
 20
1357.366081
 10
810.237044
 20
1357.366081
 42
0.831908
 10
813.458047
 20
1374.769958
 10
787.84816
 20
1376.679423
 42
-0.214719
 10
785.447669
 20
1378.920601
 10
784.252424
 20
1381.789169
 42
0.302775
 10
779.637044
 20
1384.866081
 10
408.517045
 20
1384.866081
 42
1.0
 10
408.517044
 20
1378.666081
 42
-0.413777
 10
420.517031
 20
1366.683969
 42
-0.287877
 10
412.333139
 20
1355.542804
 42
-0.287877
  0
DIMENSION
  5
151D
100
AcDbEntity
  8
KOTY-UPLNE
100
AcDbDimension
  2
*D28
 10
420.517031
 20
1405.244413
 30
0.0
 11
412.958352
 21
1411.494413
 31
0.0
 12
0.0
 22
-134.971396
 32
0.0
 70
    32
  3
KOTY-VELKE
100
AcDbAlignedDimension
 13
405.399673
 23
1383.993548
 33
0.0
 14
420.517031
 24
1366.683969
 34
0.0
100
AcDbRotatedDimension
1001
ACAD
1000
DSTYLE
1002
{
1070
    40
1040
5.0
1070
   147
1040
0.5
1070
    44
1040
0.5
1070
   178
1070
     1
1070
   177
1070
   256
1070
   176
1070
   256
1002
}
  0
DIMENSION
  5
151E
100
AcDbEntity
  8
KOTY-UPLNE
100
AcDbDimension
  2
*D29
 10
785.447669
 20
1405.244413
 30
0.0
 11
695.454911
 21
1411.494413
 31
0.0
 12
100.0
 22
-134.971396
 32
0.0
 70
    32
  3
KOTY-VELKE
100
AcDbAlignedDimension
 13
805.462153
 23
1373.23035
 33
0.0
 14
785.447669
 24
1378.920601
 34
0.0
100
AcDbRotatedDimension
1001
ACAD
1000
DSTYLE
1002
{
1070
    40
1040
5.0
1070
   147
1040
0.5
1070
    44
1040
0.5
1070
   178
1070
     1
1070
   177
1070
   256
1070
   176
1070
   256
1002
}
  0
DIMENSION
  5
151F
100
AcDbEntity
  8
KOTY-UPLNE
100
AcDbDimension
  2
*D30
 10
820.086758
 20
1405.244413
 30
0.0
 11
812.774456
 21
1411.600715
 31
0.0
 12
100.0
 22
-134.971396
 32
0.0
 70
   160
  3
KOTY-VELKE
100
AcDbAlignedDimension
 13
805.462153
 23
1383.993548
 33
0.0
 14
820.086758
 24
1364.72823
 34
0.0
100
AcDbRotatedDimension
1001
ACAD
1000
DSTYLE
1002
{
1070
    40
1040
5.0
1070
   147
1040
0.5
1070
    44
1040
0.5
1070
   178
1070
     1
1070
   177
1070
   256
1070
   176
1070
   256
1002
}
  0
DIMENSION
  5
1520
100
AcDbEntity
  8
KOTY-UPLNE
100
AcDbDimension
  2
*D32
 10
805.462153
 20
1427.280925
 30
0.0
 11
725.392477
 21
1433.530925
 31
0.0
 12
100.0
 22
-134.971396
 32
0.0
 70
    32
  3
KOTY-VELKE
100
AcDbAlignedDimension
 13
845.322801
 23
1360.866081
 33
0.0
 14
805.462153
 24
1388.993548
 34
0.0
100
AcDbRotatedDimension
1001
ACAD
1000
DSTYLE
1002
{
1070
    40
1040
5.0
1070
   147
1040
0.5
1070
    44
1040
0.5
1070
   178
1070
     1
1070
   177
1070
   256
1070
   176
1070
   256
1002
}
  0
DIMENSION
  5
1521
100
AcDbEntity
  8
KOTY-UPLNE
100
AcDbDimension
  2
*D31
 10
872.841444
 20
1384.866081
 30
0.0
 11
766.591444
 21
1369.116081
 31
0.0
 12
100.0
 22
-134.971396
 32
0.0
 70
    32
  3
KOTY-VELKE
100
AcDbAlignedDimension
 13
839.237044
 23
1353.366081
 33
0.0
 14
799.637044
 24
1384.866081
 34
0.0
 50
90.0
100
AcDbRotatedDimension
1001
ACAD
1000
DSTYLE
1002
{
1070
    40
1040
5.0
1070
   147
1040
0.5
1070
    44
1040
0.5
1070
   178
1070
     1
1070
   177
1070
   256
1070
   176
1070
   256
1002
}
  0
ENDSEC
  0
SECTION
  2
OBJECTS
  0
DICTIONARY
  5
7
100
AcDbDictionary
  3
ACAD_GROUP
350
22
  3
ACAD_LAYOUT
350
B
  3
ACAD_MLINESTYLE
350
23
  3
ACAD_PLOTSETTINGS
350
24
  3
ACAD_PLOTSTYLENAME
350
6
  3
ACDBHEADERROUNDTRIPXREC
350
11D
  3
DWGPROPS
350
52
  0
DICTIONARY
  5
147
100
AcDbDictionary
280
     1
  3
ACAD_XREC_ROUNDTRIP
360
148
  0
DICTIONARY
  5
117
100
AcDbDictionary
280
     1
  3
ACAD_XREC_ROUNDTRIP
360
118
  0
DICTIONARY
  5
145
100
AcDbDictionary
280
     1
  3
ACAD_XREC_ROUNDTRIP
360
146
  0
DICTIONARY
  5
13E
100
AcDbDictionary
280
     1
  3
ACAD_LAYOUTSELFREF
360
13F
  0
DICTIONARY
  5
111
100
AcDbDictionary
280
     1
  3
ACAD_LAYOUTSELFREF
360
142
  3
ACAD_XREC_ROUNDTRIP
360
112
  0
DICTIONARY
  5
22
102
{ACAD_REACTORS
330
7
102
}
100
AcDbDictionary
  0
DICTIONARY
  5
B
102
{ACAD_XDICTIONARY
360
140
102
}
102
{ACAD_REACTORS
330
7
102
}
100
AcDbDictionary
  3
LAYOUT2
350
F
  3
MODEL
350
A
  0
DICTIONARY
  5
23
102
{ACAD_REACTORS
330
7
102
}
100
AcDbDictionary
  3
STANDARD
350
27
  0
DICTIONARY
  5
24
102
{ACAD_REACTORS
330
7
102
}
100
AcDbDictionary
  0
ACAD_PROXY_OBJECT
  5
6
102
{ACAD_REACTORS
330
7
102
}
100
AcDbProxyObject
 90
      499
 91
      502
 93
       86
310
405010041939BDC9B585B2
350
5
340
5
 94
        0
  0
DICTIONARY
  5
11D
102
{ACAD_REACTORS
330
7
102
}
100
AcDbDictionary
  3
CEPSNTYPE
350
127
  3
DIMSTYLEDATA
350
12B
  3
FINGERPRINTGUID
350
128
  3
HYPERLINKBASE
350
120
  3
INSUNITS
350
126
  3
LAYOUTDICT
350
122
  3
LWETCUNION
350
125
  3
PLOTSETDICT
350
123
  3
PLOTSTYLNAMDICT
350
124
  3
PSVPSCALE
350
12A
  3
PUCSBASE
350
12E
  3
PUCSORGBACK
350
134
  3
PUCSORGBOTTOM
350
130
  3
PUCSORGFRONT
350
133
  3
PUCSORGLEFT
350
131
  3
PUCSORGRIGHT
350
132
  3
PUCSORGTOP
350
12F
  3
PUCSORTHOREF
350
12C
  3
PUCSORTHOVIEW
350
12D
  3
STYLESHEET
350
121
  3
TSTACKALIGN
350
11E
  3
TSTACKSIZE
350
11F
  3
UCSBASE
350
137
  3
UCSORGBACK
350
13D
  3
UCSORGBOTTOM
350
139
  3
UCSORGFRONT
350
13C
  3
UCSORGLEFT
350
13A
  3
UCSORGRIGHT
350
13B
  3
UCSORGTOP
350
138
  3
UCSORTHOREF
350
135
  3
UCSORTHOVIEW
350
136
  3
VERSIONGUID
350
129
  0
XRECORD
  5
52
102
{ACAD_REACTORS
330
7
102
}
100
AcDbXrecord
  1
DWGPROPS COOKIE
  2

  3

  4

  6

  7

  8
tom
  9

300
=
301
=
302
=
303
=
304
=
305
=
306
=
307
=
308
=
309
=
 40
0.356595
 41
2450098.461195
 42
2452040.602766
  1

 90
        0
  0
XRECORD
  5
148
102
{ACAD_REACTORS
330
147
102
}
100
AcDbXrecord
102
PLOTBIT
280
     0
  0
XRECORD
  5
118
102
{ACAD_REACTORS
330
117
102
}
100
AcDbXrecord
102
EXTNAMES
  1
TOM
  2
tom
  0
XRECORD
  5
146
102
{ACAD_REACTORS
330
145
102
}
100
AcDbXrecord
102
ACADR14ROUNDTRIP
1000
DSTYLE
1002
{
1070
   279
 70
     2
1002
}
  0
XRECORD
  5
13F
102
{ACAD_REACTORS
330
13E
102
}
100
AcDbXrecord
340
2
  0
XRECORD
  5
142
102
{ACAD_REACTORS
330
111
102
}
100
AcDbXrecord
340
C
  0
XRECORD
  5
112
102
{ACAD_REACTORS
330
111
102
}
100
AcDbXrecord
102
EXTNAMES
  1
*PAPER_SPACE
  2
*Paper_Space
  0
DICTIONARY
  5
140
100
AcDbDictionary
280
     1
  3
ACAD_XREC_ROUNDTRIP
360
141
  0
ACAD_PROXY_OBJECT
  5
F
102
{ACAD_REACTORS
330
B
102
}
100
AcDbProxyObject
 90
      499
 91
      504
 93
     1484
310
91943616E6F6E20427562626C652D4A657420424A432D343030302C8080000002033931C4000000000333F0A9000000000080ED0C4000000000003003D000000008067416A400000001017639C901024134A40501416AA543D513D34C4B5CDA591A5B99CB98DD1891069074C61796F75743240501A80000000003003F00000
310
00080CE4C7300000001037539C9000000039F3571A502A6A6A0000000022FC4ED00D0CCCCB8ACED3340800000060BC6F6F401999B993D89AD99020
330
C
330
0
340
0
340
0
 94
        0
  0
ACAD_PROXY_OBJECT
  5
A
102
{ACAD_REACTORS
330
B
102
}
100
AcDbProxyObject
 90
      499
 91
      504
 93
     1796
310
9144B796F63657261204D6974612046532D31383030290B8000000C067381B40000000102F06C51000000000068381B40000000002E06C510000000080253F6A400000003834239C90102413400000000002012100AE47E17A148E5E40405014100055D792FC8379401026BDF13AE5E0500049AA63FFE6283402D878F5E855
310
EE41024000000000000144043D513D34C4B5CDA591A5B99CB98DD18A26A666666666724FC0055D792FC8379C01026BDF13AE5E0701054D6F64656C901A800000000000000000000000000000000000000000000A1000000000000008902A6A6AAAAF
330
2
330
0
340
0
340
0
 94
        0
  0
MLINESTYLE
  5
27
102
{ACAD_REACTORS
330
23
102
}
100
AcDbMlineStyle
  2
STANDARD
 70
     0
  3

 62
   256
 51
90.0
 52
90.0
 71
     2
 49
0.5
 62
   256
  6
BYLAYER
 49
-0.5
 62
   256
  6
BYLAYER
  0
ACAD_PROXY_OBJECT
  5
5
102
{ACAD_REACTORS
330
6
102
}
100
AcDbProxyObject
 90
      499
 91
      503
 93
        0
 94
        0
  0
XRECORD
  5
127
102
{ACAD_REACTORS
330
11D
102
}
100
AcDbXrecord
 90
        0
  0
XRECORD
  5
12B
102
{ACAD_REACTORS
330
11D
102
}
100
AcDbXrecord
1000
DSTYLE
1002
{
1070
   179
 70
     4
1070
   278
 70
    44
1070
   279
 70
     2
1070
   289
 70
     1
1002
}
  0
XRECORD
  5
128
102
{ACAD_REACTORS
330
11D
102
}
100
AcDbXrecord
  1
{986116A0-451F-11D5-BBCF-006097BB053F}
  0
XRECORD
  5
120
102
{ACAD_REACTORS
330
11D
102
}
100
AcDbXrecord
  1

  0
XRECORD
  5
126
102
{ACAD_REACTORS
330
11D
102
}
100
AcDbXrecord
 90
        0
  0
XRECORD
  5
122
102
{ACAD_REACTORS
330
11D
102
}
100
AcDbXrecord
340
B
  0
XRECORD
  5
125
102
{ACAD_REACTORS
330
11D
102
}
100
AcDbXrecord
 90
    10781
  0
XRECORD
  5
123
102
{ACAD_REACTORS
330
11D
102
}
100
AcDbXrecord
340
24
  0
XRECORD
  5
124
102
{ACAD_REACTORS
330
11D
102
}
100
AcDbXrecord
340
6
  0
XRECORD
  5
12A
102
{ACAD_REACTORS
330
11D
102
}
100
AcDbXrecord
 40
0.0
  0
XRECORD
  5
12E
102
{ACAD_REACTORS
330
11D
102
}
100
AcDbXrecord
340
0
  0
XRECORD
  5
134
102
{ACAD_REACTORS
330
11D
102
}
100
AcDbXrecord
 10
0.0
 20
0.0
 30
0.0
  0
XRECORD
  5
130
102
{ACAD_REACTORS
330
11D
102
}
100
AcDbXrecord
 10
0.0
 20
0.0
 30
0.0
  0
XRECORD
  5
133
102
{ACAD_REACTORS
330
11D
102
}
100
AcDbXrecord
 10
0.0
 20
0.0
 30
0.0
  0
XRECORD
  5
131
102
{ACAD_REACTORS
330
11D
102
}
100
AcDbXrecord
 10
0.0
 20
0.0
 30
0.0
  0
XRECORD
  5
132
102
{ACAD_REACTORS
330
11D
102
}
100
AcDbXrecord
 10
0.0
 20
0.0
 30
0.0
  0
XRECORD
  5
12F
102
{ACAD_REACTORS
330
11D
102
}
100
AcDbXrecord
 10
0.0
 20
0.0
 30
0.0
  0
XRECORD
  5
12C
102
{ACAD_REACTORS
330
11D
102
}
100
AcDbXrecord
340
0
  0
XRECORD
  5
12D
102
{ACAD_REACTORS
330
11D
102
}
100
AcDbXrecord
 70
     0
  0
XRECORD
  5
121
102
{ACAD_REACTORS
330
11D
102
}
100
AcDbXrecord
  1
TOM1-siding.ctb
  0
XRECORD
  5
11E
102
{ACAD_REACTORS
330
11D
102
}
100
AcDbXrecord
 90
        1
  0
XRECORD
  5
11F
102
{ACAD_REACTORS
330
11D
102
}
100
AcDbXrecord
 90
       70
  0
XRECORD
  5
137
102
{ACAD_REACTORS
330
11D
102
}
100
AcDbXrecord
340
0
  0
XRECORD
  5
13D
102
{ACAD_REACTORS
330
11D
102
}
100
AcDbXrecord
 10
0.0
 20
0.0
 30
0.0
  0
XRECORD
  5
139
102
{ACAD_REACTORS
330
11D
102
}
100
AcDbXrecord
 10
0.0
 20
0.0
 30
0.0
  0
XRECORD
  5
13C
102
{ACAD_REACTORS
330
11D
102
}
100
AcDbXrecord
 10
0.0
 20
0.0
 30
0.0
  0
XRECORD
  5
13A
102
{ACAD_REACTORS
330
11D
102
}
100
AcDbXrecord
 10
0.0
 20
0.0
 30
0.0
  0
XRECORD
  5
13B
102
{ACAD_REACTORS
330
11D
102
}
100
AcDbXrecord
 10
0.0
 20
0.0
 30
0.0
  0
XRECORD
  5
138
102
{ACAD_REACTORS
330
11D
102
}
100
AcDbXrecord
 10
0.0
 20
0.0
 30
0.0
  0
XRECORD
  5
135
102
{ACAD_REACTORS
330
11D
102
}
100
AcDbXrecord
340
0
  0
XRECORD
  5
136
102
{ACAD_REACTORS
330
11D
102
}
100
AcDbXrecord
 70
     0
  0
XRECORD
  5
129
102
{ACAD_REACTORS
330
11D
102
}
100
AcDbXrecord
  1
{F5D44C6B-50ED-11D5-BBCF-006097BB053F}
  0
XRECORD
  5
141
102
{ACAD_REACTORS
330
140
102
}
100
AcDbXrecord
102
EXTNAMES
  1
LAYOUT2
  2
Layout2
  1
MODEL
  2
Model
  0
ENDSEC
  0
EOF
