  0
SECTION
  2
HEADER
  9
$ACADVER
  1
AC1009
  9
$INSBASE
 10
0.0
 20
0.0
 30
0.0
  9
$EXTMIN
 10
390.34424152963851
 20
882.22578391815853
 30
-0.0015258207003583
  9
$EXTMAX
 10
875.39062741607256
 20
1510.5509314221731
 30
0.0000000349246037
  9
$LIMMIN
 10
0.0
 20
0.0
  9
$LIMMAX
 10
1200.0
 20
880.0
  9
$ORTHOMODE
 70
     1
  9
$REGENMODE
 70
     1
  9
$FILLMODE
 70
     1
  9
$QTEXTMODE
 70
     0
  9
$MIRRTEXT
 70
     0
  9
$DRAGMODE
 70
     2
  9
$LTSCALE
 40
5.0
  9
$OSMODE
 70
    37
  9
$ATTMODE
 70
     1
  9
$TEXTSIZE
 40
100.0
  9
$TRACEWID
 40
1.0
  9
$TEXTSTYLE
  7
TOM
  9
$CLAYER
  8
KOTY-UPLNE
  9
$CELTYPE
  6
BYLAYER
  9
$CECOLOR
 62
   256
  9
$DIMSCALE
 40
5.0
  9
$DIMASZ
 40
1.5
  9
$DIMEXO
 40
1.0
  9
$DIMDLI
 40
10.0
  9
$DIMRND
 40
1.0
  9
$DIMDLE
 40
1.0
  9
$DIMEXE
 40
0.5
  9
$DIMTP
 40
0.0
  9
$DIMTM
 40
0.0
  9
$DIMTXT
 40
1.500000000000004
  9
$DIMCEN
 40
2.0
  9
$DIMTSZ
 40
0.0
  9
$DIMTOL
 70
     0
  9
$DIMLIM
 70
     0
  9
$DIMTIH
 70
     0
  9
$DIMTOH
 70
     0
  9
$DIMSE1
 70
     0
  9
$DIMSE2
 70
     0
  9
$DIMTAD
 70
     1
  9
$DIMZIN
 70
     9
  9
$DIMBLK
  1

  9
$DIMASO
 70
     1
  9
$DIMSHO
 70
     1
  9
$DIMPOST
  1

  9
$DIMAPOST
  1

  9
$DIMALT
 70
     0
  9
$DIMALTD
 70
     2
  9
$DIMALTF
 40
25.399999999999999
  9
$DIMLFAC
 40
1.0
  9
$DIMTOFL
 70
     1
  9
$DIMTVP
 40
0.0
  9
$DIMTIX
 70
     0
  9
$DIMSOXD
 70
     0
  9
$DIMSAH
 70
     0
  9
$DIMBLK1
  1

  9
$DIMBLK2
  1

  9
$DIMSTYLE
  2
KOTY-VELKE
  9
$DIMCLRD
 70
   256
  9
$DIMCLRE
 70
   256
  9
$DIMCLRT
 70
     1
  9
$DIMTFAC
 40
1.0
  9
$DIMGAP
 40
0.5
  9
$LUNITS
 70
     2
  9
$LUPREC
 70
     2
  9
$SKETCHINC
 40
1.0
  9
$FILLETRAD
 40
3.0
  9
$AUNITS
 70
     0
  9
$AUPREC
 70
     4
  9
$MENU
  1
acad
  9
$ELEVATION
 40
0.0
  9
$PELEVATION
 40
0.0
  9
$THICKNESS
 40
0.0
  9
$LIMCHECK
 70
     0
  9
$BLIPMODE
 70
     0
  9
$CHAMFERA
 40
0.0
  9
$CHAMFERB
 40
0.0
  9
$SKPOLY
 70
     0
  9
$TDCREATE
 40
2450098.4611947909
  9
$TDUPDATE
 40
2453257.8788371528
  9
$TDINDWG
 40
0.4612760417
  9
$TDUSRTIMER
 40
0.4612760417
  9
$USRTIMER
 70
     1
  9
$ANGBASE
 50
0.0
  9
$ANGDIR
 70
     0
  9
$PDMODE
 70
     0
  9
$PDSIZE
 40
0.0
  9
$PLINEWID
 40
0.0
  9
$COORDS
 70
     1
  9
$SPLFRAME
 70
     0
  9
$SPLINETYPE
 70
     6
  9
$SPLINESEGS
 70
     8
  9
$ATTDIA
 70
     0
  9
$ATTREQ
 70
     1
  9
$HANDLING
 70
 22529
  9
$HANDSEED
  5
1770
  9
$SURFTAB1
 70
     6
  9
$SURFTAB2
 70
     6
  9
$SURFTYPE
 70
     6
  9
$SURFU
 70
     6
  9
$SURFV
 70
     6
  9
$UCSNAME
  2

  9
$UCSORG
 10
0.0
 20
0.0
 30
0.0
  9
$UCSXDIR
 10
1.0
 20
0.0
 30
0.0
  9
$UCSYDIR
 10
0.0
 20
1.0
 30
0.0
  9
$PUCSNAME
  2

  9
$PUCSORG
 10
0.0
 20
0.0
 30
0.0
  9
$PUCSXDIR
 10
1.0
 20
0.0
 30
0.0
  9
$PUCSYDIR
 10
0.0
 20
1.0
 30
0.0
  9
$USERI1
 70
     0
  9
$USERI2
 70
     0
  9
$USERI3
 70
     0
  9
$USERI4
 70
     0
  9
$USERI5
 70
     0
  9
$USERR1
 40
0.0
  9
$USERR2
 40
0.0
  9
$USERR3
 40
0.0
  9
$USERR4
 40
0.0
  9
$USERR5
 40
0.0
  9
$WORLDVIEW
 70
     1
  9
$SHADEDGE
 70
     3
  9
$SHADEDIF
 70
    70
  9
$TILEMODE
 70
     1
  9
$MAXACTVP
 70
    16
  9
$PLIMCHECK
 70
     0
  9
$PEXTMIN
 10
27.94352722167968
 20
19.928416776657109
 30
0.0
  9
$PEXTMAX
 10
251.4917449951171
 20
179.3557509899139
 30
0.0
  9
$PLIMMIN
 10
-3.96875
 20
-7.1437497138977051
  9
$PLIMMAX
 10
292.92901611328119
 20
202.90013456344599
  9
$UNITMODE
 70
     0
  9
$VISRETAIN
 70
     0
  9
$PLINEGEN
 70
     0
  9
$PSLTSCALE
 70
     1
  0
ENDSEC
  0
SECTION
  2
TABLES
  0
TABLE
  2
VPORT
 70
     3
  0
VPORT
  2
*ACTIVE
 70
     0
 10
0.0
 20
0.0
 11
1.0
 21
1.0
 12
632.86743447285573
 22
1196.3883576701651
 13
0.0
 23
0.0
 14
1.0
 24
1.0
 15
1000.0
 25
1000.0
 16
0.0
 26
0.0
 36
1.0
 17
0.0
 27
0.0
 37
0.0
 40
635.28077644317409
 41
1.654343807763401
 42
50.0
 43
0.0
 44
0.0
 50
0.0
 51
0.0
 71
     0
 72
 20000
 73
     1
 74
     1
 75
     0
 76
     0
 77
     0
 78
     0
  0
ENDTAB
  0
TABLE
  2
LTYPE
 70
     2
  0
LTYPE
  2
AUSGEZOGEN
 70
     0
  3
Ausgezogene Linie
 72
    65
 73
     0
 40
0.0
  0
LTYPE
  2
CONTINUOUS
 70
     0
  3
Solid line
 72
    65
 73
     0
 40
0.0
  0
ENDTAB
  0
TABLE
  2
LAYER
 70
     4
  0
LAYER
  2
0
 70
     0
 62
     7
  6
AUSGEZOGEN
  0
LAYER
  2
DEFPOINTS
 70
     0
 62
     7
  6
AUSGEZOGEN
  0
LAYER
  2
KOTY-UPLNE
 70
     0
 62
     5
  6
CONTINUOUS
  0
LAYER
  2
LAMELA-VELKA
 70
     0
 62
     7
  6
CONTINUOUS
  0
ENDTAB
  0
TABLE
  2
STYLE
 70
     3
  0
STYLE
  2
STANDARD
 70
     0
 40
0.0
 41
1.0
 50
0.0
 71
     0
 42
2.0
  3
txt8.shx
  4

  0
STYLE
  2
SIMPLEX8
 70
     0
 40
0.0
 41
1.0
 50
0.0
 71
     0
 42
100.0
  3
simplex8.shx
  4

  0
STYLE
  2
TOM
 70
     0
 40
0.0
 41
0.9
 50
0.0
 71
     0
 42
100.0
  3
simplex.shx
  4

  0
ENDTAB
  0
TABLE
  2
VIEW
 70
     0
  0
ENDTAB
  0
TABLE
  2
UCS
 70
     0
  0
ENDTAB
  0
TABLE
  2
APPID
 70
     2
  0
APPID
  2
ACAD
 70
     0
  0
APPID
  2
DCO15
 70
     0
  0
ENDTAB
  0
TABLE
  2
DIMSTYLE
 70
     3
  0
DIMSTYLE
  2
PFLAUM2-35
 70
     0
  3

  4

  5

  6

  7

 40
2.0
 41
0.0
 42
1.0
 43
7.0
 44
1.0
 45
1.0
 46
1.0
 47
0.0
 48
0.0
140
3.5
141
2.0
142
1.0
143
25.399999999999999
144
1.0
145
0.0
146
1.0
147
0.0
 71
     0
 72
     0
 73
     0
 74
     0
 75
     0
 76
     0
 77
     1
 78
     8
170
     0
171
     2
172
     1
173
     0
174
     0
175
     0
176
     7
177
     7
178
    30
  0
DIMSTYLE
  2
STANDARD
 70
     0
  3

  4

  5

  6

  7

 40
1.0
 41
0.18
 42
0.0625
 43
0.38
 44
0.18
 45
0.0
 46
0.0
 47
0.0
 48
0.0
140
0.18
141
0.09
142
0.0
143
25.399999999999999
144
1.0
145
0.0
146
1.0
147
0.09
 71
     0
 72
     0
 73
     1
 74
     1
 75
     0
 76
     0
 77
     0
 78
     0
170
     0
171
     2
172
     0
173
     0
174
     0
175
     0
176
     0
177
     0
178
     0
  0
DIMSTYLE
  2
KOTY-VELKE
 70
     0
  3

  4

  5

  6

  7

 40
3.0
 41
1.5
 42
1.0
 43
10.000000000000011
 44
0.0
 45
1.0
 46
1.0
 47
0.0
 48
0.0
140
1.500000000000004
141
2.0
142
0.0
143
25.399999999999999
144
1.0
145
0.0
146
1.0
147
1.5
 71
     0
 72
     0
 73
     0
 74
     0
 75
     0
 76
     0
 77
     1
 78
     9
170
     0
171
     2
172
     1
173
     0
174
     0
175
     0
176
   170
177
   170
178
    50
  0
ENDTAB
  0
ENDSEC
  0
SECTION
  2
BLOCKS
  0
BLOCK
  8
0
  2
$MODEL_SPACE
 70
     0
 10
0.0
 20
0.0
 30
0.0
  3
$MODEL_SPACE
  1

  0
ENDBLK
  5
9
  8
0
  0
BLOCK
 67
     1
  8
0
  2
$PAPER_SPACE
 70
     0
 10
0.0
 20
0.0
 30
0.0
  3
$PAPER_SPACE
  1

  0
ENDBLK
  5
E
 67
     1
  8
0
  0
BLOCK
  8
0
  2
*D0
 70
     1
 10
0.0
 20
0.0
 30
0.0
  3
*D0
  1

  0
LINE
  5
E08
  8
0
  6
BYBLOCK
 10
744.23704413430835
 20
2038.5510797105089
 30
0.0
 11
775.34144376883523
 21
2038.5510797105089
 31
0.0
  0
LINE
  5
E09
  8
0
  6
BYBLOCK
 10
704.63704413430719
 20
2070.0510797105098
 30
0.0
 11
775.34144376883523
 21
2070.0510797105098
 31
0.0
  0
LINE
  5
E0A
  8
0
  6
BYBLOCK
 10
772.84144376883523
 20
2046.0510797105101
 30
0.0
 11
772.84144376883523
 21
2062.5510797105098
 31
0.0
  0
SOLID
  5
E0B
  8
0
  6
BYBLOCK
 10
771.59144376883523
 20
2046.0510797105101
 30
0.0
 11
774.09144376883523
 21
2046.0510797105101
 31
0.0
 12
772.84144376883523
 22
2038.5510797105089
 32
0.0
 13
772.84144376883523
 23
2038.5510797105089
 33
0.0
  0
SOLID
  5
E0C
  8
0
  6
BYBLOCK
 10
771.59144376883523
 20
2062.5510797105098
 30
0.0
 11
774.09144376883523
 21
2062.5510797105098
 31
0.0
 12
772.84144376883523
 22
2070.0510797105098
 32
0.0
 13
772.84144376883523
 23
2070.0510797105098
 33
0.0
  0
TEXT
  5
E0D
  8
KOTY-UPLNE
 62
     1
 10
770.34144376883523
 20
2048.8367939962241
 30
0.0
 40
7.500000000000024
  1
32
 50
90.0
 41
0.9
  7
TOM
  0
POINT
  5
E0E
  8
DEFPOINTS
  6
BYBLOCK
 62
     0
 10
739.23704413430835
 20
2038.5510797105089
 30
0.0
  0
POINT
  5
E0F
  8
DEFPOINTS
  6
BYBLOCK
 62
     0
 10
699.63704413430719
 20
2070.0510797105098
 30
0.0
  0
POINT
  5
E10
  8
DEFPOINTS
  6
BYBLOCK
 62
     0
 10
772.84144376883523
 20
2070.0510797105098
 30
0.0
  0
ENDBLK
  5
E11
  8
0
  0
BLOCK
  8
0
  2
*D1
 70
     1
 10
0.0
 20
0.0
 30
0.0
  3
*D1
  1

  0
LINE
  5
E14
  8
0
  6
BYBLOCK
 10
405.39967290595439
 20
2074.1785468593021
 30
0.0
 11
405.39967290595439
 21
2092.929411678916
 31
0.0
  0
LINE
  5
E15
  8
0
  6
BYBLOCK
 10
420.51703080176691
 20
2056.8689677181542
 30
0.0
 11
420.51703080176691
 21
2092.929411678916
 31
0.0
  0
LINE
  5
E16
  8
0
  6
BYBLOCK
 10
397.8996729059545
 20
2090.429411678916
 30
0.0
 11
390.39967290595439
 21
2090.429411678916
 31
0.0
  0
LINE
  5
E17
  8
0
  6
BYBLOCK
 10
428.01703080176679
 20
2090.429411678916
 30
0.0
 11
435.51703080176679
 21
2090.429411678916
 31
0.0
  0
LINE
  5
E18
  8
0
  6
BYBLOCK
 10
405.39967290595439
 20
2090.429411678916
 30
0.0
 11
420.51703080176691
 21
2090.429411678916
 31
0.0
  0
SOLID
  5
E19
  8
0
  6
BYBLOCK
 10
397.8996729059545
 20
2091.6794116789151
 30
0.0
 11
397.8996729059545
 21
2089.1794116789151
 31
0.0
 12
405.39967290595439
 22
2090.429411678916
 32
0.0
 13
405.39967290595439
 23
2090.429411678916
 33
0.0
  0
SOLID
  5
E1A
  8
0
  6
BYBLOCK
 10
428.01703080176679
 20
2091.6794116789151
 30
0.0
 11
428.01703080176679
 21
2089.1794116789151
 31
0.0
 12
420.51703080176691
 22
2090.429411678916
 32
0.0
 13
420.51703080176691
 23
2090.429411678916
 33
0.0
  0
TEXT
  5
E1B
  8
KOTY-UPLNE
 62
     1
 10
408.13692328243201
 20
2092.929411678916
 30
0.0
 40
7.500000000000024
  1
15
 41
0.9
  7
TOM
  0
POINT
  5
E1C
  8
DEFPOINTS
  6
BYBLOCK
 62
     0
 10
405.39967290595439
 20
2069.1785468593021
 30
0.0
  0
POINT
  5
E1D
  8
DEFPOINTS
  6
BYBLOCK
 62
     0
 10
420.51703080176691
 20
2051.8689677181542
 30
0.0
  0
POINT
  5
E1E
  8
DEFPOINTS
  6
BYBLOCK
 62
     0
 10
420.51703080176691
 20
2090.429411678916
 30
0.0
  0
ENDBLK
  5
E1F
  8
0
  0
BLOCK
  8
0
  2
*D2
 70
     1
 10
0.0
 20
0.0
 30
0.0
  3
*D2
  1

  0
LINE
  5
E22
  8
0
  6
BYBLOCK
 10
745.32280111827038
 20
2051.0510797105089
 30
0.0
 11
745.32280111827038
 21
2114.965923437594
 31
0.0
  0
LINE
  5
E23
  8
0
  6
BYBLOCK
 10
705.46215268064259
 20
2079.178546859303
 30
0.0
 11
705.46215268064259
 21
2114.965923437594
 31
0.0
  0
LINE
  5
E24
  8
0
  6
BYBLOCK
 10
737.82280111827049
 20
2112.465923437594
 30
0.0
 11
712.9621526806427
 21
2112.465923437594
 31
0.0
  0
SOLID
  5
E25
  8
0
  6
BYBLOCK
 10
737.82280111827049
 20
2113.7159234375931
 30
0.0
 11
737.82280111827049
 21
2111.215923437594
 31
0.0
 12
745.32280111827038
 22
2112.465923437594
 32
0.0
 13
745.32280111827038
 23
2112.465923437594
 33
0.0
  0
SOLID
  5
E26
  8
0
  6
BYBLOCK
 10
712.9621526806427
 20
2113.7159234375931
 30
0.0
 11
712.9621526806427
 21
2111.215923437594
 31
0.0
 12
705.46215268064259
 22
2112.465923437594
 32
0.0
 13
705.46215268064259
 23
2112.465923437594
 33
0.0
  0
TEXT
  5
E27
  8
KOTY-UPLNE
 62
     1
 10
719.9281911851707
 20
2114.965923437594
 30
0.0
 40
7.500000000000024
  1
40
 41
0.9
  7
TOM
  0
POINT
  5
E28
  8
DEFPOINTS
  6
BYBLOCK
 62
     0
 10
745.32280111827038
 20
2046.0510797105101
 30
0.0
  0
POINT
  5
E29
  8
DEFPOINTS
  6
BYBLOCK
 62
     0
 10
705.46215268064259
 20
2074.178546859303
 30
0.0
  0
POINT
  5
E2A
  8
DEFPOINTS
  6
BYBLOCK
 62
     0
 10
705.46215268064259
 20
2112.465923437594
 30
0.0
  0
ENDBLK
  5
E2B
  8
0
  0
BLOCK
  8
0
  2
*D3
 70
     1
 10
0.0
 20
0.0
 30
0.0
  3
*D3
  1

  0
LINE
  5
E2E
  8
0
  6
BYBLOCK
 10
705.46215268064259
 20
2074.178546859303
 30
0.0
 11
705.46215268064259
 21
2092.929411678916
 31
0.0
  0
LINE
  5
E2F
  8
0
  6
BYBLOCK
 10
720.08675848472217
 20
2054.9132287050488
 30
0.0
 11
720.08675848472217
 21
2092.929411678916
 31
0.0
  0
LINE
  5
E30
  8
0
  6
BYBLOCK
 10
697.96215268064259
 20
2090.429411678916
 30
0.0
 11
690.4621526806427
 21
2090.429411678916
 31
0.0
  0
LINE
  5
E31
  8
0
  6
BYBLOCK
 10
727.58675848472217
 20
2090.429411678916
 30
0.0
 11
735.08675848472228
 21
2090.429411678916
 31
0.0
  0
TEXT
  5
E32
  8
KOTY-UPLNE
 62
     1
 10
707.95302701125399
 20
2093.0357135948439
 30
0.0
 40
7.500000000000024
  1
15
 41
0.9
  7
TOM
  0
LINE
  5
E33
  8
0
  6
BYBLOCK
 10
705.46215268064259
 20
2090.429411678916
 30
0.0
 11
720.08675848472217
 21
2090.429411678916
 31
0.0
  0
LINE
  5
E34
  8
0
  6
BYBLOCK
 10
705.46215268064259
 20
2090.429411678916
 30
0.0
 11
720.08675848472217
 21
2090.429411678916
 31
0.0
  0
SOLID
  5
E35
  8
0
  6
BYBLOCK
 10
697.96215268064259
 20
2091.6794116789151
 30
0.0
 11
697.96215268064259
 21
2089.1794116789151
 31
0.0
 12
705.46215268064259
 22
2090.429411678916
 32
0.0
 13
705.46215268064259
 23
2090.429411678916
 33
0.0
  0
SOLID
  5
E36
  8
0
  6
BYBLOCK
 10
727.58675848472217
 20
2091.6794116789151
 30
0.0
 11
727.58675848472217
 21
2089.1794116789151
 31
0.0
 12
720.08675848472217
 22
2090.429411678916
 32
0.0
 13
720.08675848472217
 23
2090.429411678916
 33
0.0
  0
POINT
  5
E37
  8
DEFPOINTS
  6
BYBLOCK
 62
     0
 10
705.46215268064259
 20
2069.178546859303
 30
0.0
  0
POINT
  5
E38
  8
DEFPOINTS
  6
BYBLOCK
 62
     0
 10
720.08675848472217
 20
2049.9132287050488
 30
0.0
  0
POINT
  5
E39
  8
DEFPOINTS
  6
BYBLOCK
 62
     0
 10
720.08675848472217
 20
2090.429411678916
 30
0.0
  0
ENDBLK
  5
E3A
  8
0
  0
BLOCK
  8
0
  2
*D4
 70
     1
 10
0.0
 20
0.0
 30
0.0
  3
*D4
  1

  0
LINE
  5
163C
  8
0
  6
BYBLOCK
 10
447.94444874757949
 20
1434.8303388037109
 30
0.0
 11
675.3414441428605
 21
1434.8303388037109
 31
0.0
  0
LINE
  5
163D
  8
0
  6
BYBLOCK
 10
625.08675885874754
 20
1405.7920588298221
 30
0.0
 11
675.3414441428605
 21
1405.7920588298221
 31
0.0
  0
LINE
  5
163E
  8
0
  6
BYBLOCK
 10
672.84144414286061
 20
1427.3303388037109
 30
0.0
 11
672.84144414286061
 21
1413.2920588298221
 31
0.0
  0
SOLID
  5
163F
  8
0
  6
BYBLOCK
 10
671.59144414286061
 20
1427.3303388037109
 30
0.0
 11
674.09144414286061
 21
1427.3303388037109
 31
0.0
 12
672.84144414286061
 22
1434.8303388037109
 32
0.0
 13
672.84144414286061
 23
1434.8303388037109
 33
0.0
  0
SOLID
  5
1640
  8
0
  6
BYBLOCK
 10
671.59144414286061
 20
1413.2920588298221
 30
0.0
 11
674.09144414286061
 21
1413.2920588298221
 31
0.0
 12
672.84144414286061
 22
1405.7920588298221
 32
0.0
 13
672.84144414286061
 23
1405.7920588298221
 33
0.0
  0
TEXT
  5
1641
  8
KOTY-UPLNE
 62
     1
 10
670.34144414286061
 20
1415.007627388195
 30
0.0
 40
7.500000000000024
  1
29
 50
90.0
 41
0.9
  7
TOM
  0
POINT
  5
1642
  8
DEFPOINTS
  6
BYBLOCK
 62
     0
 10
442.94444874757949
 20
1434.8303388037109
 30
0.0
  0
POINT
  5
1643
  8
DEFPOINTS
  6
BYBLOCK
 62
     0
 10
620.08675885874766
 20
1405.7920588298221
 30
0.0
  0
POINT
  5
1644
  8
DEFPOINTS
  6
BYBLOCK
 62
     0
 10
672.84144414286061
 20
1405.7920588298221
 30
0.0
  0
ENDBLK
  5
1645
  8
0
  0
BLOCK
  8
0
  2
*D5
 70
     1
 10
0.0
 20
0.0
 30
0.0
  3
*D5
  1

  0
LINE
  5
E64
  8
0
  6
BYBLOCK
 10
441.12808524843092
 20
1439.335614176581
 30
0.0
 11
441.12808524843092
 21
1450.706902556906
 31
0.0
  0
LINE
  5
E65
  8
0
  6
BYBLOCK
 10
570.69000438698777
 20
1410.7920588298221
 30
0.0
 11
570.69000438698777
 21
1450.706902556906
 31
0.0
  0
LINE
  5
E66
  8
0
  6
BYBLOCK
 10
448.62808524843092
 20
1448.206902556906
 30
0.0
 11
563.19000438698788
 21
1448.206902556906
 31
0.0
  0
SOLID
  5
E67
  8
0
  6
BYBLOCK
 10
448.62808524843092
 20
1449.456902556906
 30
0.0
 11
448.62808524843092
 21
1446.956902556906
 31
0.0
 12
441.12808524843092
 22
1448.206902556906
 32
0.0
 13
441.12808524843092
 23
1448.206902556906
 33
0.0
  0
SOLID
  5
E68
  8
0
  6
BYBLOCK
 10
563.19000438698788
 20
1449.456902556906
 30
0.0
 11
563.19000438698788
 21
1446.956902556906
 31
0.0
 12
570.69000438698777
 22
1448.206902556906
 32
0.0
 13
570.69000438698777
 23
1448.206902556906
 33
0.0
  0
TEXT
  5
E69
  8
KOTY-UPLNE
 62
     1
 10
497.87333053199501
 20
1450.706902556906
 30
0.0
 40
7.500000000000024
  1
130
 41
0.9
  7
TOM
  0
POINT
  5
E6A
  8
DEFPOINTS
  6
BYBLOCK
 62
     0
 10
441.12808524843092
 20
1434.335614176581
 30
0.0
  0
POINT
  5
E6B
  8
DEFPOINTS
  6
BYBLOCK
 62
     0
 10
570.69000438698777
 20
1405.7920588298221
 30
0.0
  0
POINT
  5
E6C
  8
DEFPOINTS
  6
BYBLOCK
 62
     0
 10
570.69000438698777
 20
1448.206902556906
 30
0.0
  0
ENDBLK
  5
E6D
  8
0
  0
BLOCK
  8
0
  2
*D6
 70
     1
 10
0.0
 20
0.0
 30
0.0
  3
*D6
  1

  0
LINE
  5
1631
  8
0
  6
BYBLOCK
 10
605.46215305466808
 20
1437.721116892676
 30
0.0
 11
605.46215305466808
 21
1468.5084934709671
 31
0.0
  0
LINE
  5
1632
  8
0
  6
BYBLOCK
 10
405.39967327997988
 20
1432.7211168926749
 30
0.0
 11
405.39967327997988
 21
1468.5084934709671
 31
0.0
  0
LINE
  5
1633
  8
0
  6
BYBLOCK
 10
597.96215305466808
 20
1466.008493470966
 30
0.0
 11
412.89967327997982
 21
1466.008493470966
 31
0.0
  0
SOLID
  5
1634
  8
0
  6
BYBLOCK
 10
597.96215305466808
 20
1467.258493470966
 30
0.0
 11
597.96215305466808
 21
1464.758493470966
 31
0.0
 12
605.46215305466808
 22
1466.008493470966
 32
0.0
 13
605.46215305466808
 23
1466.008493470966
 33
0.0
  0
SOLID
  5
1635
  8
0
  6
BYBLOCK
 10
412.89967327997982
 20
1467.258493470966
 30
0.0
 11
412.89967327997982
 21
1464.758493470966
 31
0.0
 12
405.39967327997988
 22
1466.008493470966
 32
0.0
 13
405.39967327997988
 23
1466.008493470966
 33
0.0
  0
TEXT
  5
1636
  8
KOTY-UPLNE
 62
     1
 10
496.75234173875248
 20
1468.5084934709671
 30
0.0
 40
7.500000000000024
  1
200
 41
0.9
  7
TOM
  0
POINT
  5
1637
  8
DEFPOINTS
  6
BYBLOCK
 62
     0
 10
605.46215305466808
 20
1432.721116892676
 30
0.0
  0
POINT
  5
1638
  8
DEFPOINTS
  6
BYBLOCK
 62
     0
 10
405.39967327997988
 20
1427.7211168926749
 30
0.0
  0
POINT
  5
1639
  8
DEFPOINTS
  6
BYBLOCK
 62
     0
 10
405.39967327997988
 20
1466.008493470966
 30
0.0
  0
ENDBLK
  5
163A
  8
0
  0
BLOCK
  8
0
  2
*D7
 70
     1
 10
0.0
 20
0.0
 30
0.0
  3
*D7
  1

  0
LINE
  5
14B6
  8
0
  6
BYBLOCK
 10
405.39967327997988
 20
1409.919525978614
 30
0.0
 11
405.39967327997988
 21
1428.670390798228
 31
0.0
  0
LINE
  5
14B7
  8
0
  6
BYBLOCK
 10
420.51703117579223
 20
1392.6099468374671
 30
0.0
 11
420.51703117579223
 21
1428.670390798228
 31
0.0
  0
LINE
  5
14B8
  8
0
  6
BYBLOCK
 10
397.89967327997988
 20
1426.170390798228
 30
0.0
 11
390.39967327997982
 21
1426.170390798228
 31
0.0
  0
LINE
  5
14B9
  8
0
  6
BYBLOCK
 10
428.01703117579223
 20
1426.170390798228
 30
0.0
 11
435.51703117579223
 21
1426.170390798228
 31
0.0
  0
LINE
  5
14BA
  8
0
  6
BYBLOCK
 10
405.39967327997988
 20
1426.170390798228
 30
0.0
 11
420.51703117579223
 21
1426.170390798228
 31
0.0
  0
SOLID
  5
14BB
  8
0
  6
BYBLOCK
 10
397.89967327997988
 20
1427.420390798228
 30
0.0
 11
397.89967327997988
 21
1424.920390798228
 31
0.0
 12
405.39967327997988
 22
1426.170390798228
 32
0.0
 13
405.39967327997988
 23
1426.170390798228
 33
0.0
  0
SOLID
  5
14BC
  8
0
  6
BYBLOCK
 10
428.01703117579223
 20
1427.420390798228
 30
0.0
 11
428.01703117579223
 21
1424.920390798228
 31
0.0
 12
420.51703117579223
 22
1426.170390798228
 32
0.0
 13
420.51703117579223
 23
1426.170390798228
 33
0.0
  0
TEXT
  5
14BD
  8
KOTY-UPLNE
 62
     1
 10
408.13692365645738
 20
1428.670390798228
 30
0.0
 40
7.500000000000024
  1
15
 41
0.9
  7
TOM
  0
POINT
  5
14BE
  8
DEFPOINTS
  6
BYBLOCK
 62
     0
 10
405.39967327997988
 20
1404.919525978614
 30
0.0
  0
POINT
  5
14BF
  8
DEFPOINTS
  6
BYBLOCK
 62
     0
 10
420.51703117579223
 20
1387.6099468374671
 30
0.0
  0
POINT
  5
14C0
  8
DEFPOINTS
  6
BYBLOCK
 62
     0
 10
420.51703117579223
 20
1426.170390798228
 30
0.0
  0
ENDBLK
  5
14C1
  8
0
  0
BLOCK
  8
0
  2
*D8
 70
     1
 10
0.0
 20
0.0
 30
0.0
  3
*D8
  1

  0
LINE
  5
14C4
  8
0
  6
BYBLOCK
 10
745.32280149229587
 20
1386.7920588298221
 30
0.0
 11
745.32280149229587
 21
1450.706902556906
 31
0.0
  0
LINE
  5
14C5
  8
0
  6
BYBLOCK
 10
705.46215305466808
 20
1414.9195259786161
 30
0.0
 11
705.46215305466808
 21
1450.706902556906
 31
0.0
  0
LINE
  5
14C6
  8
0
  6
BYBLOCK
 10
737.82280149229575
 20
1448.206902556906
 30
0.0
 11
712.96215305466797
 21
1448.206902556906
 31
0.0
  0
SOLID
  5
14C7
  8
0
  6
BYBLOCK
 10
737.82280149229575
 20
1449.456902556906
 30
0.0
 11
737.82280149229575
 21
1446.956902556906
 31
0.0
 12
745.32280149229587
 22
1448.206902556906
 32
0.0
 13
745.32280149229587
 23
1448.206902556906
 33
0.0
  0
SOLID
  5
14C8
  8
0
  6
BYBLOCK
 10
712.96215305466797
 20
1449.456902556906
 30
0.0
 11
712.96215305466797
 21
1446.956902556906
 31
0.0
 12
705.46215305466808
 22
1448.206902556906
 32
0.0
 13
705.46215305466808
 23
1448.206902556906
 33
0.0
  0
TEXT
  5
14C9
  8
KOTY-UPLNE
 62
     1
 10
719.92819155919619
 20
1450.706902556906
 30
0.0
 40
7.500000000000024
  1
40
 41
0.9
  7
TOM
  0
POINT
  5
14CA
  8
DEFPOINTS
  6
BYBLOCK
 62
     0
 10
745.32280149229587
 20
1381.7920588298221
 30
0.0
  0
POINT
  5
14CB
  8
DEFPOINTS
  6
BYBLOCK
 62
     0
 10
705.46215305466808
 20
1409.919525978615
 30
0.0
  0
POINT
  5
14CC
  8
DEFPOINTS
  6
BYBLOCK
 62
     0
 10
705.46215305466808
 20
1448.206902556906
 30
0.0
  0
ENDBLK
  5
14CD
  8
0
  0
BLOCK
  8
0
  2
*D9
 70
     1
 10
0.0
 20
0.0
 30
0.0
  3
*D9
  1

  0
LINE
  5
14D0
  8
0
  6
BYBLOCK
 10
744.23704450833372
 20
1374.2920588298221
 30
0.0
 11
775.3414441428605
 21
1374.2920588298221
 31
0.0
  0
LINE
  5
14D1
  8
0
  6
BYBLOCK
 10
704.63704450833268
 20
1405.7920588298221
 30
0.0
 11
775.3414441428605
 21
1405.7920588298221
 31
0.0
  0
LINE
  5
14D2
  8
0
  6
BYBLOCK
 10
772.84144414286061
 20
1381.7920588298221
 30
0.0
 11
772.84144414286061
 21
1398.2920588298221
 31
0.0
  0
SOLID
  5
14D3
  8
0
  6
BYBLOCK
 10
771.59144414286061
 20
1381.7920588298221
 30
0.0
 11
774.09144414286061
 21
1381.7920588298221
 31
0.0
 12
772.84144414286061
 22
1374.2920588298221
 32
0.0
 13
772.84144414286061
 23
1374.2920588298221
 33
0.0
  0
SOLID
  5
14D4
  8
0
  6
BYBLOCK
 10
771.59144414286061
 20
1398.2920588298221
 30
0.0
 11
774.09144414286061
 21
1398.2920588298221
 31
0.0
 12
772.84144414286061
 22
1405.7920588298221
 32
0.0
 13
772.84144414286061
 23
1405.7920588298221
 33
0.0
  0
TEXT
  5
14D5
  8
KOTY-UPLNE
 62
     1
 10
770.34144414286061
 20
1384.577773115536
 30
0.0
 40
7.500000000000024
  1
32
 50
90.0
 41
0.9
  7
TOM
  0
POINT
  5
14D6
  8
DEFPOINTS
  6
BYBLOCK
 62
     0
 10
739.23704450833361
 20
1374.2920588298221
 30
0.0
  0
POINT
  5
14D7
  8
DEFPOINTS
  6
BYBLOCK
 62
     0
 10
699.63704450833268
 20
1405.7920588298221
 30
0.0
  0
POINT
  5
14D8
  8
DEFPOINTS
  6
BYBLOCK
 62
     0
 10
772.84144414286061
 20
1405.7920588298221
 30
0.0
  0
ENDBLK
  5
14D9
  8
0
  0
BLOCK
  8
0
  2
*D10
 70
     1
 10
0.0
 20
0.0
 30
0.0
  3
*D10
  1

  0
LINE
  5
14DC
  8
0
  6
BYBLOCK
 10
705.46215305466808
 20
1409.919525978615
 30
0.0
 11
705.46215305466808
 21
1428.670390798228
 31
0.0
  0
LINE
  5
14DD
  8
0
  6
BYBLOCK
 10
720.08675885874766
 20
1390.654207824361
 30
0.0
 11
720.08675885874766
 21
1428.670390798228
 31
0.0
  0
LINE
  5
14DE
  8
0
  6
BYBLOCK
 10
697.96215305466808
 20
1426.170390798228
 30
0.0
 11
690.46215305466797
 21
1426.170390798228
 31
0.0
  0
LINE
  5
14DF
  8
0
  6
BYBLOCK
 10
727.58675885874754
 20
1426.170390798228
 30
0.0
 11
735.08675885874754
 21
1426.170390798228
 31
0.0
  0
TEXT
  5
14E0
  8
KOTY-UPLNE
 62
     1
 10
707.95302738527926
 20
1428.776692714157
 30
0.0
 40
7.500000000000024
  1
15
 41
0.9
  7
TOM
  0
LINE
  5
14E1
  8
0
  6
BYBLOCK
 10
705.46215305466808
 20
1426.170390798228
 30
0.0
 11
720.08675885874766
 21
1426.170390798228
 31
0.0
  0
LINE
  5
14E2
  8
0
  6
BYBLOCK
 10
705.46215305466808
 20
1426.170390798228
 30
0.0
 11
720.08675885874766
 21
1426.170390798228
 31
0.0
  0
SOLID
  5
14E3
  8
0
  6
BYBLOCK
 10
697.96215305466808
 20
1427.420390798228
 30
0.0
 11
697.96215305466808
 21
1424.920390798228
 31
0.0
 12
705.46215305466808
 22
1426.170390798228
 32
0.0
 13
705.46215305466808
 23
1426.170390798228
 33
0.0
  0
SOLID
  5
14E4
  8
0
  6
BYBLOCK
 10
727.58675885874754
 20
1427.420390798228
 30
0.0
 11
727.58675885874754
 21
1424.920390798228
 31
0.0
 12
720.08675885874766
 22
1426.170390798228
 32
0.0
 13
720.08675885874766
 23
1426.170390798228
 33
0.0
  0
POINT
  5
14E5
  8
DEFPOINTS
  6
BYBLOCK
 62
     0
 10
705.46215305466808
 20
1404.919525978615
 30
0.0
  0
POINT
  5
14E6
  8
DEFPOINTS
  6
BYBLOCK
 62
     0
 10
720.08675885874766
 20
1385.654207824361
 30
0.0
  0
POINT
  5
14E7
  8
DEFPOINTS
  6
BYBLOCK
 62
     0
 10
720.08675885874766
 20
1426.170390798228
 30
0.0
  0
ENDBLK
  5
14E8
  8
0
  0
BLOCK
  8
0
  2
*D11
 70
     1
 10
0.0
 20
0.0
 30
0.0
  3
*D11
  1

  0
LINE
  5
1647
  8
0
  6
BYBLOCK
 10
447.94444874757949
 20
1312.1971687904361
 30
0.0
 11
745.34144414286061
 21
1312.1971687904361
 31
0.0
  0
LINE
  5
1648
  8
0
  6
BYBLOCK
 10
695.08675885874766
 20
1283.158888816547
 30
0.0
 11
745.34144414286061
 21
1283.158888816547
 31
0.0
  0
LINE
  5
1649
  8
0
  6
BYBLOCK
 10
742.84144414286061
 20
1304.6971687904361
 30
0.0
 11
742.84144414286061
 21
1290.658888816547
 31
0.0
  0
SOLID
  5
164A
  8
0
  6
BYBLOCK
 10
741.59144414286061
 20
1304.6971687904361
 30
0.0
 11
744.0914441428605
 21
1304.6971687904361
 31
0.0
 12
742.84144414286061
 22
1312.1971687904361
 32
0.0
 13
742.84144414286061
 23
1312.1971687904361
 33
0.0
  0
SOLID
  5
164B
  8
0
  6
BYBLOCK
 10
741.59144414286061
 20
1290.658888816547
 30
0.0
 11
744.0914441428605
 21
1290.658888816547
 31
0.0
 12
742.84144414286061
 22
1283.158888816547
 32
0.0
 13
742.84144414286061
 23
1283.158888816547
 33
0.0
  0
TEXT
  5
164C
  8
KOTY-UPLNE
 62
     1
 10
740.34144414286061
 20
1292.37445737492
 30
0.0
 40
7.500000000000024
  1
29
 50
90.0
 41
0.9
  7
TOM
  0
POINT
  5
164D
  8
DEFPOINTS
  6
BYBLOCK
 62
     0
 10
442.94444874757949
 20
1312.1971687904361
 30
0.0
  0
POINT
  5
164E
  8
DEFPOINTS
  6
BYBLOCK
 62
     0
 10
690.08675885874754
 20
1283.158888816547
 30
0.0
  0
POINT
  5
164F
  8
DEFPOINTS
  6
BYBLOCK
 62
     0
 10
742.84144414286061
 20
1283.158888816547
 30
0.0
  0
ENDBLK
  5
1650
  8
0
  0
BLOCK
  8
0
  2
*D12
 70
     1
 10
0.0
 20
0.0
 30
0.0
  3
*D12
  1

  0
LINE
  5
14F7
  8
0
  6
BYBLOCK
 10
441.12808524843092
 20
1439.335614176581
 30
0.0
 11
441.12808524843092
 21
1450.706902556906
 31
0.0
  0
LINE
  5
14F8
  8
0
  6
BYBLOCK
 10
570.69000438698777
 20
1410.7920588298221
 30
0.0
 11
570.69000438698777
 21
1450.706902556906
 31
0.0
  0
LINE
  5
14F9
  8
0
  6
BYBLOCK
 10
448.62808524843092
 20
1448.206902556906
 30
0.0
 11
563.19000438698788
 21
1448.206902556906
 31
0.0
  0
SOLID
  5
14FA
  8
0
  6
BYBLOCK
 10
448.62808524843092
 20
1449.456902556906
 30
0.0
 11
448.62808524843092
 21
1446.956902556906
 31
0.0
 12
441.12808524843092
 22
1448.206902556906
 32
0.0
 13
441.12808524843092
 23
1448.206902556906
 33
0.0
  0
SOLID
  5
14FB
  8
0
  6
BYBLOCK
 10
563.19000438698788
 20
1449.456902556906
 30
0.0
 11
563.19000438698788
 21
1446.956902556906
 31
0.0
 12
570.69000438698777
 22
1448.206902556906
 32
0.0
 13
570.69000438698777
 23
1448.206902556906
 33
0.0
  0
TEXT
  5
14FC
  8
KOTY-UPLNE
 62
     1
 10
497.87333053199501
 20
1450.706902556906
 30
0.0
 40
7.500000000000024
  1
130
 41
0.9
  7
TOM
  0
POINT
  5
14FD
  8
DEFPOINTS
  6
BYBLOCK
 62
     0
 10
441.12808524843092
 20
1434.335614176581
 30
0.0
  0
POINT
  5
14FE
  8
DEFPOINTS
  6
BYBLOCK
 62
     0
 10
570.69000438698777
 20
1405.7920588298221
 30
0.0
  0
POINT
  5
14FF
  8
DEFPOINTS
  6
BYBLOCK
 62
     0
 10
570.69000438698777
 20
1448.206902556906
 30
0.0
  0
ENDBLK
  5
1500
  8
0
  0
BLOCK
  8
0
  2
*D13
 70
     1
 10
0.0
 20
0.0
 30
0.0
  3
*D13
  1

  0
LINE
  5
1652
  8
0
  6
BYBLOCK
 10
675.46215305466797
 20
1315.087946879401
 30
0.0
 11
675.46215305466797
 21
1345.8753234576909
 31
0.0
  0
LINE
  5
1653
  8
0
  6
BYBLOCK
 10
405.39967327997988
 20
1310.0879468794001
 30
0.0
 11
405.39967327997988
 21
1345.8753234576909
 31
0.0
  0
LINE
  5
1654
  8
0
  6
BYBLOCK
 10
667.96215305466808
 20
1343.3753234576909
 30
0.0
 11
412.89967327997982
 21
1343.3753234576909
 31
0.0
  0
SOLID
  5
1655
  8
0
  6
BYBLOCK
 10
667.96215305466808
 20
1344.6253234576909
 30
0.0
 11
667.96215305466808
 21
1342.1253234576909
 31
0.0
 12
675.46215305466797
 22
1343.3753234576909
 32
0.0
 13
675.46215305466797
 23
1343.3753234576909
 33
0.0
  0
SOLID
  5
1656
  8
0
  6
BYBLOCK
 10
412.89967327997982
 20
1344.6253234576909
 30
0.0
 11
412.89967327997982
 21
1342.1253234576909
 31
0.0
 12
405.39967327997988
 22
1343.3753234576909
 32
0.0
 13
405.39967327997988
 23
1343.3753234576909
 33
0.0
  0
TEXT
  5
1657
  8
KOTY-UPLNE
 62
     1
 10
531.75234173875253
 20
1345.8753234576909
 30
0.0
 40
7.500000000000024
  1
270
 41
0.9
  7
TOM
  0
POINT
  5
1658
  8
DEFPOINTS
  6
BYBLOCK
 62
     0
 10
675.46215305466797
 20
1310.087946879401
 30
0.0
  0
POINT
  5
1659
  8
DEFPOINTS
  6
BYBLOCK
 62
     0
 10
405.39967327997988
 20
1305.0879468794001
 30
0.0
  0
POINT
  5
165A
  8
DEFPOINTS
  6
BYBLOCK
 62
     0
 10
405.39967327997988
 20
1343.3753234576909
 30
0.0
  0
ENDBLK
  5
165B
  8
0
  0
BLOCK
  8
0
  2
*D14
 70
     1
 10
0.0
 20
0.0
 30
0.0
  3
*D14
  1

  0
LINE
  5
1517
  8
0
  6
BYBLOCK
 10
705.46215305466808
 20
1315.087946879401
 30
0.0
 11
705.46215305466808
 21
1345.8753234576909
 31
0.0
  0
LINE
  5
1518
  8
0
  6
BYBLOCK
 10
405.39967327997988
 20
1310.0879468794001
 30
0.0
 11
405.39967327997988
 21
1345.8753234576909
 31
0.0
  0
LINE
  5
1519
  8
0
  6
BYBLOCK
 10
697.96215305466808
 20
1343.3753234576909
 30
0.0
 11
412.89967327997982
 21
1343.3753234576909
 31
0.0
  0
SOLID
  5
151A
  8
0
  6
BYBLOCK
 10
697.96215305466808
 20
1344.6253234576909
 30
0.0
 11
697.96215305466808
 21
1342.1253234576909
 31
0.0
 12
705.46215305466808
 22
1343.3753234576909
 32
0.0
 13
705.46215305466808
 23
1343.3753234576909
 33
0.0
  0
SOLID
  5
151B
  8
0
  6
BYBLOCK
 10
412.89967327997982
 20
1344.6253234576909
 30
0.0
 11
412.89967327997982
 21
1342.1253234576909
 31
0.0
 12
405.39967327997988
 22
1343.3753234576909
 32
0.0
 13
405.39967327997988
 23
1343.3753234576909
 33
0.0
  0
TEXT
  5
151C
  8
KOTY-UPLNE
 62
     1
 10
546.75234173875253
 20
1345.8753234576909
 30
0.0
 40
7.500000000000024
  1
300
 41
0.9
  7
TOM
  0
POINT
  5
151D
  8
DEFPOINTS
  6
BYBLOCK
 62
     0
 10
705.46215305466808
 20
1310.087946879401
 30
0.0
  0
POINT
  5
151E
  8
DEFPOINTS
  6
BYBLOCK
 62
     0
 10
405.39967327997988
 20
1305.0879468794001
 30
0.0
  0
POINT
  5
151F
  8
DEFPOINTS
  6
BYBLOCK
 62
     0
 10
405.39967327997988
 20
1343.3753234576909
 30
0.0
  0
ENDBLK
  5
1520
  8
0
  0
BLOCK
  8
0
  2
*D15
 70
     1
 10
0.0
 20
0.0
 30
0.0
  3
*D15
  1

  0
LINE
  5
1523
  8
0
  6
BYBLOCK
 10
447.94444874757949
 20
1312.1971687904361
 30
0.0
 11
775.3414441428605
 21
1312.1971687904361
 31
0.0
  0
LINE
  5
1524
  8
0
  6
BYBLOCK
 10
725.08675885874754
 20
1283.158888816547
 30
0.0
 11
775.3414441428605
 21
1283.158888816547
 31
0.0
  0
LINE
  5
1525
  8
0
  6
BYBLOCK
 10
772.84144414286061
 20
1304.6971687904361
 30
0.0
 11
772.84144414286061
 21
1290.658888816547
 31
0.0
  0
SOLID
  5
1526
  8
0
  6
BYBLOCK
 10
771.59144414286061
 20
1304.6971687904361
 30
0.0
 11
774.09144414286061
 21
1304.6971687904361
 31
0.0
 12
772.84144414286061
 22
1312.1971687904361
 32
0.0
 13
772.84144414286061
 23
1312.1971687904361
 33
0.0
  0
SOLID
  5
1527
  8
0
  6
BYBLOCK
 10
771.59144414286061
 20
1290.658888816547
 30
0.0
 11
774.09144414286061
 21
1290.658888816547
 31
0.0
 12
772.84144414286061
 22
1283.158888816547
 32
0.0
 13
772.84144414286061
 23
1283.158888816547
 33
0.0
  0
TEXT
  5
1528
  8
KOTY-UPLNE
 62
     1
 10
770.34144414286061
 20
1292.37445737492
 30
0.0
 40
7.500000000000024
  1
29
 50
90.0
 41
0.9
  7
TOM
  0
POINT
  5
1529
  8
DEFPOINTS
  6
BYBLOCK
 62
     0
 10
442.94444874757949
 20
1312.1971687904361
 30
0.0
  0
POINT
  5
152A
  8
DEFPOINTS
  6
BYBLOCK
 62
     0
 10
720.08675885874766
 20
1283.158888816547
 30
0.0
  0
POINT
  5
152B
  8
DEFPOINTS
  6
BYBLOCK
 62
     0
 10
772.84144414286061
 20
1283.158888816547
 30
0.0
  0
ENDBLK
  5
152C
  8
0
  0
BLOCK
  8
0
  2
*D16
 70
     1
 10
0.0
 20
0.0
 30
0.0
  3
*D16
  1

  0
LINE
  5
152F
  8
0
  6
BYBLOCK
 10
405.39967327997988
 20
1287.2863559653399
 30
0.0
 11
405.39967327997988
 21
1306.037220784953
 31
0.0
  0
LINE
  5
1530
  8
0
  6
BYBLOCK
 10
420.51703117579223
 20
1269.976776824192
 30
0.0
 11
420.51703117579223
 21
1306.037220784953
 31
0.0
  0
LINE
  5
1531
  8
0
  6
BYBLOCK
 10
397.89967327997988
 20
1303.537220784953
 30
0.0
 11
390.39967327997982
 21
1303.537220784953
 31
0.0
  0
LINE
  5
1532
  8
0
  6
BYBLOCK
 10
428.01703117579223
 20
1303.537220784953
 30
0.0
 11
435.51703117579223
 21
1303.537220784953
 31
0.0
  0
LINE
  5
1533
  8
0
  6
BYBLOCK
 10
405.39967327997988
 20
1303.537220784953
 30
0.0
 11
420.51703117579223
 21
1303.537220784953
 31
0.0
  0
SOLID
  5
1534
  8
0
  6
BYBLOCK
 10
397.89967327997988
 20
1304.787220784953
 30
0.0
 11
397.89967327997988
 21
1302.287220784953
 31
0.0
 12
405.39967327997988
 22
1303.537220784953
 32
0.0
 13
405.39967327997988
 23
1303.537220784953
 33
0.0
  0
SOLID
  5
1535
  8
0
  6
BYBLOCK
 10
428.01703117579223
 20
1304.787220784953
 30
0.0
 11
428.01703117579223
 21
1302.287220784953
 31
0.0
 12
420.51703117579223
 22
1303.537220784953
 32
0.0
 13
420.51703117579223
 23
1303.537220784953
 33
0.0
  0
TEXT
  5
1536
  8
KOTY-UPLNE
 62
     1
 10
408.13692365645738
 20
1306.037220784953
 30
0.0
 40
7.500000000000024
  1
15
 41
0.9
  7
TOM
  0
POINT
  5
1537
  8
DEFPOINTS
  6
BYBLOCK
 62
     0
 10
405.39967327997988
 20
1282.286355965339
 30
0.0
  0
POINT
  5
1538
  8
DEFPOINTS
  6
BYBLOCK
 62
     0
 10
420.51703117579223
 20
1264.976776824192
 30
0.0
  0
POINT
  5
1539
  8
DEFPOINTS
  6
BYBLOCK
 62
     0
 10
420.51703117579223
 20
1303.537220784953
 30
0.0
  0
ENDBLK
  5
153A
  8
0
  0
BLOCK
  8
0
  2
*D17
 70
     1
 10
0.0
 20
0.0
 30
0.0
  3
*D17
  1

  0
LINE
  5
153D
  8
0
  6
BYBLOCK
 10
441.12808524843092
 20
1316.7024441633059
 30
0.0
 11
441.12808524843092
 21
1328.073732543631
 31
0.0
  0
LINE
  5
153E
  8
0
  6
BYBLOCK
 10
570.69000438698777
 20
1288.158888816547
 30
0.0
 11
570.69000438698777
 21
1328.073732543631
 31
0.0
  0
LINE
  5
153F
  8
0
  6
BYBLOCK
 10
448.62808524843092
 20
1325.573732543631
 30
0.0
 11
563.19000438698788
 21
1325.573732543631
 31
0.0
  0
SOLID
  5
1540
  8
0
  6
BYBLOCK
 10
448.62808524843092
 20
1326.823732543631
 30
0.0
 11
448.62808524843092
 21
1324.323732543631
 31
0.0
 12
441.12808524843092
 22
1325.573732543631
 32
0.0
 13
441.12808524843092
 23
1325.573732543631
 33
0.0
  0
SOLID
  5
1541
  8
0
  6
BYBLOCK
 10
563.19000438698788
 20
1326.823732543631
 30
0.0
 11
563.19000438698788
 21
1324.323732543631
 31
0.0
 12
570.69000438698777
 22
1325.573732543631
 32
0.0
 13
570.69000438698777
 23
1325.573732543631
 33
0.0
  0
TEXT
  5
1542
  8
KOTY-UPLNE
 62
     1
 10
497.87333053199501
 20
1328.073732543631
 30
0.0
 40
7.500000000000024
  1
130
 41
0.9
  7
TOM
  0
POINT
  5
1543
  8
DEFPOINTS
  6
BYBLOCK
 62
     0
 10
441.12808524843092
 20
1311.7024441633059
 30
0.0
  0
POINT
  5
1544
  8
DEFPOINTS
  6
BYBLOCK
 62
     0
 10
570.69000438698777
 20
1283.158888816547
 30
0.0
  0
POINT
  5
1545
  8
DEFPOINTS
  6
BYBLOCK
 62
     0
 10
570.69000438698777
 20
1325.573732543631
 30
0.0
  0
ENDBLK
  5
1546
  8
0
  0
BLOCK
  8
0
  2
*D18
 70
     1
 10
0.0
 20
0.0
 30
0.0
  3
*D18
  1

  0
LINE
  5
1549
  8
0
  6
BYBLOCK
 10
705.46215305466808
 20
1287.2863559653399
 30
0.0
 11
705.46215305466808
 21
1306.037220784953
 31
0.0
  0
LINE
  5
154A
  8
0
  6
BYBLOCK
 10
720.08675885874766
 20
1268.021037811086
 30
0.0
 11
720.08675885874766
 21
1306.037220784953
 31
0.0
  0
LINE
  5
154B
  8
0
  6
BYBLOCK
 10
697.96215305466808
 20
1303.537220784953
 30
0.0
 11
690.46215305466797
 21
1303.537220784953
 31
0.0
  0
LINE
  5
154C
  8
0
  6
BYBLOCK
 10
727.58675885874754
 20
1303.537220784953
 30
0.0
 11
735.08675885874754
 21
1303.537220784953
 31
0.0
  0
TEXT
  5
154D
  8
KOTY-UPLNE
 62
     1
 10
707.95302738527926
 20
1306.143522700881
 30
0.0
 40
7.500000000000024
  1
15
 41
0.9
  7
TOM
  0
LINE
  5
154E
  8
0
  6
BYBLOCK
 10
705.46215305466808
 20
1303.537220784953
 30
0.0
 11
720.08675885874766
 21
1303.537220784953
 31
0.0
  0
LINE
  5
154F
  8
0
  6
BYBLOCK
 10
705.46215305466808
 20
1303.537220784953
 30
0.0
 11
720.08675885874766
 21
1303.537220784953
 31
0.0
  0
SOLID
  5
1550
  8
0
  6
BYBLOCK
 10
697.96215305466808
 20
1304.787220784953
 30
0.0
 11
697.96215305466808
 21
1302.287220784953
 31
0.0
 12
705.46215305466808
 22
1303.537220784953
 32
0.0
 13
705.46215305466808
 23
1303.537220784953
 33
0.0
  0
SOLID
  5
1551
  8
0
  6
BYBLOCK
 10
727.58675885874754
 20
1304.787220784953
 30
0.0
 11
727.58675885874754
 21
1302.287220784953
 31
0.0
 12
720.08675885874766
 22
1303.537220784953
 32
0.0
 13
720.08675885874766
 23
1303.537220784953
 33
0.0
  0
POINT
  5
1552
  8
DEFPOINTS
  6
BYBLOCK
 62
     0
 10
705.46215305466808
 20
1282.2863559653399
 30
0.0
  0
POINT
  5
1553
  8
DEFPOINTS
  6
BYBLOCK
 62
     0
 10
720.08675885874766
 20
1263.021037811086
 30
0.0
  0
POINT
  5
1554
  8
DEFPOINTS
  6
BYBLOCK
 62
     0
 10
720.08675885874766
 20
1303.537220784953
 30
0.0
  0
ENDBLK
  5
1555
  8
0
  0
BLOCK
  8
0
  2
*D19
 70
     1
 10
0.0
 20
0.0
 30
0.0
  3
*D19
  1

  0
LINE
  5
1558
  8
0
  6
BYBLOCK
 10
744.23704450833372
 20
1251.658888816547
 30
0.0
 11
775.3414441428605
 21
1251.658888816547
 31
0.0
  0
LINE
  5
1559
  8
0
  6
BYBLOCK
 10
704.63704450833268
 20
1283.158888816547
 30
0.0
 11
775.3414441428605
 21
1283.158888816547
 31
0.0
  0
LINE
  5
155A
  8
0
  6
BYBLOCK
 10
772.84144414286061
 20
1259.158888816547
 30
0.0
 11
772.84144414286061
 21
1275.658888816547
 31
0.0
  0
SOLID
  5
155B
  8
0
  6
BYBLOCK
 10
771.59144414286061
 20
1259.158888816547
 30
0.0
 11
774.09144414286061
 21
1259.158888816547
 31
0.0
 12
772.84144414286061
 22
1251.658888816547
 32
0.0
 13
772.84144414286061
 23
1251.658888816547
 33
0.0
  0
SOLID
  5
155C
  8
0
  6
BYBLOCK
 10
771.59144414286061
 20
1275.658888816547
 30
0.0
 11
774.09144414286061
 21
1275.658888816547
 31
0.0
 12
772.84144414286061
 22
1283.158888816547
 32
0.0
 13
772.84144414286061
 23
1283.158888816547
 33
0.0
  0
TEXT
  5
155D
  8
KOTY-UPLNE
 62
     1
 10
770.34144414286061
 20
1261.944603102261
 30
0.0
 40
7.500000000000024
  1
32
 50
90.0
 41
0.9
  7
TOM
  0
POINT
  5
155E
  8
DEFPOINTS
  6
BYBLOCK
 62
     0
 10
739.23704450833361
 20
1251.658888816547
 30
0.0
  0
POINT
  5
155F
  8
DEFPOINTS
  6
BYBLOCK
 62
     0
 10
699.63704450833268
 20
1283.158888816547
 30
0.0
  0
POINT
  5
1560
  8
DEFPOINTS
  6
BYBLOCK
 62
     0
 10
772.84144414286061
 20
1283.158888816547
 30
0.0
  0
ENDBLK
  5
1561
  8
0
  0
BLOCK
  8
0
  2
*D20
 70
     1
 10
0.0
 20
0.0
 30
0.0
  3
*D20
  1

  0
LINE
  5
1564
  8
0
  6
BYBLOCK
 10
745.32280149229587
 20
1264.158888816547
 30
0.0
 11
745.32280149229587
 21
1328.073732543631
 31
0.0
  0
LINE
  5
1565
  8
0
  6
BYBLOCK
 10
705.46215305466808
 20
1292.2863559653399
 30
0.0
 11
705.46215305466808
 21
1328.073732543631
 31
0.0
  0
LINE
  5
1566
  8
0
  6
BYBLOCK
 10
737.82280149229575
 20
1325.573732543631
 30
0.0
 11
712.96215305466797
 21
1325.573732543631
 31
0.0
  0
SOLID
  5
1567
  8
0
  6
BYBLOCK
 10
737.82280149229575
 20
1326.823732543631
 30
0.0
 11
737.82280149229575
 21
1324.323732543631
 31
0.0
 12
745.32280149229587
 22
1325.573732543631
 32
0.0
 13
745.32280149229587
 23
1325.573732543631
 33
0.0
  0
SOLID
  5
1568
  8
0
  6
BYBLOCK
 10
712.96215305466797
 20
1326.823732543631
 30
0.0
 11
712.96215305466797
 21
1324.323732543631
 31
0.0
 12
705.46215305466808
 22
1325.573732543631
 32
0.0
 13
705.46215305466808
 23
1325.573732543631
 33
0.0
  0
TEXT
  5
1569
  8
KOTY-UPLNE
 62
     1
 10
719.92819155919619
 20
1328.073732543631
 30
0.0
 40
7.500000000000024
  1
40
 41
0.9
  7
TOM
  0
POINT
  5
156A
  8
DEFPOINTS
  6
BYBLOCK
 62
     0
 10
745.32280149229587
 20
1259.158888816547
 30
0.0
  0
POINT
  5
156B
  8
DEFPOINTS
  6
BYBLOCK
 62
     0
 10
705.46215305466808
 20
1287.2863559653399
 30
0.0
  0
POINT
  5
156C
  8
DEFPOINTS
  6
BYBLOCK
 62
     0
 10
705.46215305466808
 20
1325.573732543631
 30
0.0
  0
ENDBLK
  5
156D
  8
0
  0
BLOCK
  8
0
  2
*D21
 70
     1
 10
0.0
 20
0.0
 30
0.0
  3
*D21
  1

  0
LINE
  5
165D
  8
0
  6
BYBLOCK
 10
447.94444874757949
 20
1066.9308287638851
 30
0.0
 11
825.34144414286061
 21
1066.9308287638851
 31
0.0
  0
LINE
  5
165E
  8
0
  6
BYBLOCK
 10
775.08675885874754
 20
1037.8925487899969
 30
0.0
 11
825.34144414286061
 21
1037.8925487899969
 31
0.0
  0
LINE
  5
165F
  8
0
  6
BYBLOCK
 10
822.84144414286061
 20
1059.430828763886
 30
0.0
 11
822.84144414286061
 21
1045.3925487899969
 31
0.0
  0
SOLID
  5
1660
  8
0
  6
BYBLOCK
 10
821.5914441428605
 20
1059.430828763886
 30
0.0
 11
824.0914441428605
 21
1059.430828763886
 31
0.0
 12
822.84144414286061
 22
1066.9308287638851
 32
0.0
 13
822.84144414286061
 23
1066.9308287638851
 33
0.0
  0
SOLID
  5
1661
  8
0
  6
BYBLOCK
 10
821.5914441428605
 20
1045.3925487899969
 30
0.0
 11
824.0914441428605
 21
1045.3925487899969
 31
0.0
 12
822.84144414286061
 22
1037.8925487899969
 32
0.0
 13
822.84144414286061
 23
1037.8925487899969
 33
0.0
  0
TEXT
  5
1662
  8
KOTY-UPLNE
 62
     1
 10
820.34144414286061
 20
1047.108117348369
 30
0.0
 40
7.500000000000024
  1
29
 50
90.0
 41
0.9
  7
TOM
  0
POINT
  5
1663
  8
DEFPOINTS
  6
BYBLOCK
 62
     0
 10
442.94444874757949
 20
1066.9308287638851
 30
0.0
  0
POINT
  5
1664
  8
DEFPOINTS
  6
BYBLOCK
 62
     0
 10
770.08675885874766
 20
1037.8925487899969
 30
0.0
  0
POINT
  5
1665
  8
DEFPOINTS
  6
BYBLOCK
 62
     0
 10
822.84144414286061
 20
1037.8925487899969
 30
0.0
  0
ENDBLK
  5
1666
  8
0
  0
BLOCK
  8
0
  2
*D22
 70
     1
 10
0.0
 20
0.0
 30
0.0
  3
*D22
  1

  0
LINE
  5
1668
  8
0
  6
BYBLOCK
 10
755.46215305466808
 20
1069.8216068528509
 30
0.0
 11
755.46215305466808
 21
1100.608983431141
 31
0.0
  0
LINE
  5
1669
  8
0
  6
BYBLOCK
 10
405.39967327997988
 20
1064.82160685285
 30
0.0
 11
405.39967327997988
 21
1100.608983431141
 31
0.0
  0
LINE
  5
166A
  8
0
  6
BYBLOCK
 10
747.96215305466808
 20
1098.108983431141
 30
0.0
 11
412.89967327997982
 21
1098.108983431141
 31
0.0
  0
SOLID
  5
166B
  8
0
  6
BYBLOCK
 10
747.96215305466808
 20
1099.358983431141
 30
0.0
 11
747.96215305466808
 21
1096.858983431141
 31
0.0
 12
755.46215305466808
 22
1098.108983431141
 32
0.0
 13
755.46215305466808
 23
1098.108983431141
 33
0.0
  0
SOLID
  5
166C
  8
0
  6
BYBLOCK
 10
412.89967327997982
 20
1099.358983431141
 30
0.0
 11
412.89967327997982
 21
1096.858983431141
 31
0.0
 12
405.39967327997988
 22
1098.108983431141
 32
0.0
 13
405.39967327997988
 23
1098.108983431141
 33
0.0
  0
TEXT
  5
166D
  8
KOTY-UPLNE
 62
     1
 10
571.75234173875253
 20
1100.608983431141
 30
0.0
 40
7.500000000000024
  1
350
 41
0.9
  7
TOM
  0
POINT
  5
166E
  8
DEFPOINTS
  6
BYBLOCK
 62
     0
 10
755.46215305466808
 20
1064.8216068528509
 30
0.0
  0
POINT
  5
166F
  8
DEFPOINTS
  6
BYBLOCK
 62
     0
 10
405.39967327997988
 20
1059.82160685285
 30
0.0
  0
POINT
  5
1670
  8
DEFPOINTS
  6
BYBLOCK
 62
     0
 10
405.39967327997988
 20
1098.108983431141
 30
0.0
  0
ENDBLK
  5
1671
  8
0
  0
BLOCK
  8
0
  2
*D23
 70
     1
 10
0.0
 20
0.0
 30
0.0
  3
*D23
  1

  0
LINE
  5
1590
  8
0
  6
BYBLOCK
 10
405.39967327997988
 20
1164.653185952064
 30
0.0
 11
405.39967327997988
 21
1183.4040507716779
 31
0.0
  0
LINE
  5
1591
  8
0
  6
BYBLOCK
 10
420.51703117579223
 20
1147.343606810917
 30
0.0
 11
420.51703117579223
 21
1183.4040507716779
 31
0.0
  0
LINE
  5
1592
  8
0
  6
BYBLOCK
 10
397.89967327997988
 20
1180.9040507716779
 30
0.0
 11
390.39967327997982
 21
1180.9040507716779
 31
0.0
  0
LINE
  5
1593
  8
0
  6
BYBLOCK
 10
428.01703117579223
 20
1180.9040507716779
 30
0.0
 11
435.51703117579223
 21
1180.9040507716779
 31
0.0
  0
LINE
  5
1594
  8
0
  6
BYBLOCK
 10
405.39967327997988
 20
1180.9040507716779
 30
0.0
 11
420.51703117579223
 21
1180.9040507716779
 31
0.0
  0
SOLID
  5
1595
  8
0
  6
BYBLOCK
 10
397.89967327997988
 20
1182.1540507716779
 30
0.0
 11
397.89967327997988
 21
1179.6540507716779
 31
0.0
 12
405.39967327997988
 22
1180.9040507716779
 32
0.0
 13
405.39967327997988
 23
1180.9040507716779
 33
0.0
  0
SOLID
  5
1596
  8
0
  6
BYBLOCK
 10
428.01703117579223
 20
1182.1540507716779
 30
0.0
 11
428.01703117579223
 21
1179.6540507716779
 31
0.0
 12
420.51703117579223
 22
1180.9040507716779
 32
0.0
 13
420.51703117579223
 23
1180.9040507716779
 33
0.0
  0
TEXT
  5
1597
  8
KOTY-UPLNE
 62
     1
 10
408.13692365645738
 20
1183.4040507716779
 30
0.0
 40
7.500000000000024
  1
15
 41
0.9
  7
TOM
  0
POINT
  5
1598
  8
DEFPOINTS
  6
BYBLOCK
 62
     0
 10
405.39967327997988
 20
1159.653185952064
 30
0.0
  0
POINT
  5
1599
  8
DEFPOINTS
  6
BYBLOCK
 62
     0
 10
420.51703117579223
 20
1142.343606810917
 30
0.0
  0
POINT
  5
159A
  8
DEFPOINTS
  6
BYBLOCK
 62
     0
 10
420.51703117579223
 20
1180.9040507716779
 30
0.0
  0
ENDBLK
  5
159B
  8
0
  0
BLOCK
  8
0
  2
*D24
 70
     1
 10
0.0
 20
0.0
 30
0.0
  3
*D24
  1

  0
LINE
  5
159E
  8
0
  6
BYBLOCK
 10
441.12808524843092
 20
1194.0692741500311
 30
0.0
 11
441.12808524843092
 21
1205.4405625303559
 31
0.0
  0
LINE
  5
159F
  8
0
  6
BYBLOCK
 10
570.69000438698777
 20
1165.525718803272
 30
0.0
 11
570.69000438698777
 21
1205.4405625303559
 31
0.0
  0
LINE
  5
15A0
  8
0
  6
BYBLOCK
 10
448.62808524843092
 20
1202.9405625303559
 30
0.0
 11
563.19000438698788
 21
1202.9405625303559
 31
0.0
  0
SOLID
  5
15A1
  8
0
  6
BYBLOCK
 10
448.62808524843092
 20
1204.1905625303559
 30
0.0
 11
448.62808524843092
 21
1201.6905625303559
 31
0.0
 12
441.12808524843092
 22
1202.9405625303559
 32
0.0
 13
441.12808524843092
 23
1202.9405625303559
 33
0.0
  0
SOLID
  5
15A2
  8
0
  6
BYBLOCK
 10
563.19000438698788
 20
1204.1905625303559
 30
0.0
 11
563.19000438698788
 21
1201.6905625303559
 31
0.0
 12
570.69000438698777
 22
1202.9405625303559
 32
0.0
 13
570.69000438698777
 23
1202.9405625303559
 33
0.0
  0
TEXT
  5
15A3
  8
KOTY-UPLNE
 62
     1
 10
497.87333053199501
 20
1205.4405625303559
 30
0.0
 40
7.500000000000024
  1
130
 41
0.9
  7
TOM
  0
POINT
  5
15A4
  8
DEFPOINTS
  6
BYBLOCK
 62
     0
 10
441.12808524843092
 20
1189.0692741500311
 30
0.0
  0
POINT
  5
15A5
  8
DEFPOINTS
  6
BYBLOCK
 62
     0
 10
570.69000438698777
 20
1160.525718803272
 30
0.0
  0
POINT
  5
15A6
  8
DEFPOINTS
  6
BYBLOCK
 62
     0
 10
570.69000438698777
 20
1202.9405625303559
 30
0.0
  0
ENDBLK
  5
15A7
  8
0
  0
BLOCK
  8
0
  2
*D25
 70
     1
 10
0.0
 20
0.0
 30
0.0
  3
*D25
  1

  0
LINE
  5
15AA
  8
0
  6
BYBLOCK
 10
705.46215305466808
 20
1164.6531859520651
 30
0.0
 11
705.46215305466808
 21
1183.4040507716779
 31
0.0
  0
LINE
  5
15AB
  8
0
  6
BYBLOCK
 10
720.08675885874766
 20
1145.3878677978109
 30
0.0
 11
720.08675885874766
 21
1183.4040507716779
 31
0.0
  0
LINE
  5
15AC
  8
0
  6
BYBLOCK
 10
697.96215305466808
 20
1180.9040507716779
 30
0.0
 11
690.46215305466797
 21
1180.9040507716779
 31
0.0
  0
LINE
  5
15AD
  8
0
  6
BYBLOCK
 10
727.58675885874754
 20
1180.9040507716779
 30
0.0
 11
735.08675885874754
 21
1180.9040507716779
 31
0.0
  0
TEXT
  5
15AE
  8
KOTY-UPLNE
 62
     1
 10
707.95302738527926
 20
1183.510352687606
 30
0.0
 40
7.500000000000024
  1
15
 41
0.9
  7
TOM
  0
LINE
  5
15AF
  8
0
  6
BYBLOCK
 10
705.46215305466808
 20
1180.9040507716779
 30
0.0
 11
720.08675885874766
 21
1180.9040507716779
 31
0.0
  0
LINE
  5
15B0
  8
0
  6
BYBLOCK
 10
705.46215305466808
 20
1180.9040507716779
 30
0.0
 11
720.08675885874766
 21
1180.9040507716779
 31
0.0
  0
SOLID
  5
15B1
  8
0
  6
BYBLOCK
 10
697.96215305466808
 20
1182.1540507716779
 30
0.0
 11
697.96215305466808
 21
1179.6540507716779
 31
0.0
 12
705.46215305466808
 22
1180.9040507716779
 32
0.0
 13
705.46215305466808
 23
1180.9040507716779
 33
0.0
  0
SOLID
  5
15B2
  8
0
  6
BYBLOCK
 10
727.58675885874754
 20
1182.1540507716779
 30
0.0
 11
727.58675885874754
 21
1179.6540507716779
 31
0.0
 12
720.08675885874766
 22
1180.9040507716779
 32
0.0
 13
720.08675885874766
 23
1180.9040507716779
 33
0.0
  0
POINT
  5
15B3
  8
DEFPOINTS
  6
BYBLOCK
 62
     0
 10
705.46215305466808
 20
1159.6531859520651
 30
0.0
  0
POINT
  5
15B4
  8
DEFPOINTS
  6
BYBLOCK
 62
     0
 10
720.08675885874766
 20
1140.3878677978109
 30
0.0
  0
POINT
  5
15B5
  8
DEFPOINTS
  6
BYBLOCK
 62
     0
 10
720.08675885874766
 20
1180.9040507716779
 30
0.0
  0
ENDBLK
  5
15B6
  8
0
  0
BLOCK
  8
0
  2
*D26
 70
     1
 10
0.0
 20
0.0
 30
0.0
  3
*D26
  1

  0
LINE
  5
15B9
  8
0
  6
BYBLOCK
 10
745.32280149229587
 20
1141.525718803272
 30
0.0
 11
745.32280149229587
 21
1205.4405625303559
 31
0.0
  0
LINE
  5
15BA
  8
0
  6
BYBLOCK
 10
705.46215305466808
 20
1169.6531859520651
 30
0.0
 11
705.46215305466808
 21
1205.4405625303559
 31
0.0
  0
LINE
  5
15BB
  8
0
  6
BYBLOCK
 10
737.82280149229575
 20
1202.9405625303559
 30
0.0
 11
712.96215305466797
 21
1202.9405625303559
 31
0.0
  0
SOLID
  5
15BC
  8
0
  6
BYBLOCK
 10
737.82280149229575
 20
1204.1905625303559
 30
0.0
 11
737.82280149229575
 21
1201.6905625303559
 31
0.0
 12
745.32280149229587
 22
1202.9405625303559
 32
0.0
 13
745.32280149229587
 23
1202.9405625303559
 33
0.0
  0
SOLID
  5
15BD
  8
0
  6
BYBLOCK
 10
712.96215305466797
 20
1204.1905625303559
 30
0.0
 11
712.96215305466797
 21
1201.6905625303559
 31
0.0
 12
705.46215305466808
 22
1202.9405625303559
 32
0.0
 13
705.46215305466808
 23
1202.9405625303559
 33
0.0
  0
TEXT
  5
15BE
  8
KOTY-UPLNE
 62
     1
 10
719.92819155919619
 20
1205.4405625303559
 30
0.0
 40
7.500000000000024
  1
40
 41
0.9
  7
TOM
  0
POINT
  5
15BF
  8
DEFPOINTS
  6
BYBLOCK
 62
     0
 10
745.32280149229587
 20
1136.525718803272
 30
0.0
  0
POINT
  5
15C0
  8
DEFPOINTS
  6
BYBLOCK
 62
     0
 10
705.46215305466808
 20
1164.6531859520651
 30
0.0
  0
POINT
  5
15C1
  8
DEFPOINTS
  6
BYBLOCK
 62
     0
 10
705.46215305466808
 20
1202.9405625303559
 30
0.0
  0
ENDBLK
  5
15C2
  8
0
  0
BLOCK
  8
0
  2
*D27
 70
     1
 10
0.0
 20
0.0
 30
0.0
  3
*D27
  1

  0
LINE
  5
15C5
  8
0
  6
BYBLOCK
 10
744.23704450833372
 20
1129.025718803272
 30
0.0
 11
775.3414441428605
 21
1129.025718803272
 31
0.0
  0
LINE
  5
15C6
  8
0
  6
BYBLOCK
 10
704.63704450833268
 20
1160.525718803272
 30
0.0
 11
775.3414441428605
 21
1160.525718803272
 31
0.0
  0
LINE
  5
15C7
  8
0
  6
BYBLOCK
 10
772.84144414286061
 20
1136.525718803272
 30
0.0
 11
772.84144414286061
 21
1153.025718803272
 31
0.0
  0
SOLID
  5
15C8
  8
0
  6
BYBLOCK
 10
771.59144414286061
 20
1136.525718803272
 30
0.0
 11
774.09144414286061
 21
1136.525718803272
 31
0.0
 12
772.84144414286061
 22
1129.025718803272
 32
0.0
 13
772.84144414286061
 23
1129.025718803272
 33
0.0
  0
SOLID
  5
15C9
  8
0
  6
BYBLOCK
 10
771.59144414286061
 20
1153.025718803272
 30
0.0
 11
774.09144414286061
 21
1153.025718803272
 31
0.0
 12
772.84144414286061
 22
1160.525718803272
 32
0.0
 13
772.84144414286061
 23
1160.525718803272
 33
0.0
  0
TEXT
  5
15CA
  8
KOTY-UPLNE
 62
     1
 10
770.34144414286061
 20
1139.311433088986
 30
0.0
 40
7.500000000000024
  1
32
 50
90.0
 41
0.9
  7
TOM
  0
POINT
  5
15CB
  8
DEFPOINTS
  6
BYBLOCK
 62
     0
 10
739.23704450833361
 20
1129.025718803272
 30
0.0
  0
POINT
  5
15CC
  8
DEFPOINTS
  6
BYBLOCK
 62
     0
 10
699.63704450833268
 20
1160.525718803272
 30
0.0
  0
POINT
  5
15CD
  8
DEFPOINTS
  6
BYBLOCK
 62
     0
 10
772.84144414286061
 20
1160.525718803272
 30
0.0
  0
ENDBLK
  5
15CE
  8
0
  0
BLOCK
  8
0
  2
*D28
 70
     1
 10
0.0
 20
0.0
 30
0.0
  3
*D28
  1

  0
LINE
  5
1673
  8
0
  6
BYBLOCK
 10
805.46215305466808
 20
947.18843683957607
 30
0.0
 11
805.46215305466808
 21
977.97581341786668
 31
0.0
  0
LINE
  5
1674
  8
0
  6
BYBLOCK
 10
405.39967327997988
 20
942.18843683957505
 30
0.0
 11
405.39967327997988
 21
977.97581341786668
 31
0.0
  0
LINE
  5
1675
  8
0
  6
BYBLOCK
 10
797.96215305466808
 20
975.47581341786668
 30
0.0
 11
412.89967327997982
 21
975.47581341786668
 31
0.0
  0
SOLID
  5
1676
  8
0
  6
BYBLOCK
 10
797.96215305466808
 20
976.72581341786656
 30
0.0
 11
797.96215305466808
 21
974.22581341786668
 31
0.0
 12
805.46215305466808
 22
975.47581341786668
 32
0.0
 13
805.46215305466808
 23
975.47581341786668
 33
0.0
  0
SOLID
  5
1677
  8
0
  6
BYBLOCK
 10
412.89967327997982
 20
976.72581341786656
 30
0.0
 11
412.89967327997982
 21
974.22581341786668
 31
0.0
 12
405.39967327997988
 22
975.47581341786668
 32
0.0
 13
405.39967327997988
 23
975.47581341786668
 33
0.0
  0
TEXT
  5
1678
  8
KOTY-UPLNE
 62
     1
 10
596.75234173875253
 20
977.97581341786668
 30
0.0
 40
7.500000000000024
  1
400
 41
0.9
  7
TOM
  0
POINT
  5
1679
  8
DEFPOINTS
  6
BYBLOCK
 62
     0
 10
805.46215305466808
 20
942.18843683957596
 30
0.0
  0
POINT
  5
167A
  8
DEFPOINTS
  6
BYBLOCK
 62
     0
 10
405.39967327997988
 20
937.18843683957516
 30
0.0
  0
POINT
  5
167B
  8
DEFPOINTS
  6
BYBLOCK
 62
     0
 10
405.39967327997988
 20
975.47581341786668
 30
0.0
  0
ENDBLK
  5
167C
  8
0
  0
BLOCK
  8
0
  2
*D29
 70
     1
 10
0.0
 20
0.0
 30
0.0
  3
*D29
  1

  0
LINE
  5
167E
  8
0
  6
BYBLOCK
 10
447.94444874757949
 20
944.29765875061094
 30
0.0
 11
875.34144414286061
 21
944.29765875061094
 31
0.0
  0
LINE
  5
167F
  8
0
  6
BYBLOCK
 10
825.08675885874754
 20
915.25937877672209
 30
0.0
 11
875.34144414286061
 21
915.25937877672209
 31
0.0
  0
LINE
  5
1680
  8
0
  6
BYBLOCK
 10
872.84144414286084
 20
936.79765875061105
 30
0.0
 11
872.84144414286061
 21
922.75937877672197
 31
0.0
  0
SOLID
  5
1681
  8
0
  6
BYBLOCK
 10
871.59144414286072
 20
936.79765875061105
 30
0.0
 11
874.09144414286072
 21
936.79765875061105
 31
0.0
 12
872.84144414286084
 22
944.29765875061094
 32
0.0
 13
872.84144414286084
 23
944.29765875061094
 33
0.0
  0
SOLID
  5
1682
  8
0
  6
BYBLOCK
 10
871.59144414286072
 20
922.75937877672197
 30
0.0
 11
874.0914441428605
 21
922.75937877672197
 31
0.0
 12
872.84144414286061
 22
915.25937877672209
 32
0.0
 13
872.84144414286061
 23
915.25937877672209
 33
0.0
  0
TEXT
  5
1683
  8
KOTY-UPLNE
 62
     1
 10
870.34144414286072
 20
924.47494733509495
 30
0.0
 40
7.500000000000024
  1
29
 50
90.0
 41
0.9
  7
TOM
  0
POINT
  5
1684
  8
DEFPOINTS
  6
BYBLOCK
 62
     0
 10
442.94444874757949
 20
944.29765875061094
 30
0.0
  0
POINT
  5
1685
  8
DEFPOINTS
  6
BYBLOCK
 62
     0
 10
820.08675885874754
 20
915.25937877672209
 30
0.0
  0
POINT
  5
1686
  8
DEFPOINTS
  6
BYBLOCK
 62
     0
 10
872.84144414286061
 20
915.25937877672209
 30
0.0
  0
ENDBLK
  5
1687
  8
0
  0
BLOCK
  8
0
  2
*D30
 70
     1
 10
0.0
 20
0.0
 30
0.0
  3
*D30
  1

  0
LINE
  5
15F1
  8
0
  6
BYBLOCK
 10
405.39967327997988
 20
1042.0200159387889
 30
0.0
 11
405.39967327997988
 21
1060.7708807584031
 31
0.0
  0
LINE
  5
15F2
  8
0
  6
BYBLOCK
 10
420.51703117579223
 20
1024.7104367976419
 30
0.0
 11
420.51703117579223
 21
1060.7708807584031
 31
0.0
  0
LINE
  5
15F3
  8
0
  6
BYBLOCK
 10
397.89967327997988
 20
1058.2708807584031
 30
0.0
 11
390.39967327997982
 21
1058.2708807584031
 31
0.0
  0
LINE
  5
15F4
  8
0
  6
BYBLOCK
 10
428.01703117579223
 20
1058.2708807584031
 30
0.0
 11
435.51703117579223
 21
1058.2708807584031
 31
0.0
  0
LINE
  5
15F5
  8
0
  6
BYBLOCK
 10
405.39967327997988
 20
1058.2708807584031
 30
0.0
 11
420.51703117579223
 21
1058.2708807584031
 31
0.0
  0
SOLID
  5
15F6
  8
0
  6
BYBLOCK
 10
397.89967327997988
 20
1059.5208807584031
 30
0.0
 11
397.89967327997988
 21
1057.0208807584031
 31
0.0
 12
405.39967327997988
 22
1058.2708807584031
 32
0.0
 13
405.39967327997988
 23
1058.2708807584031
 33
0.0
  0
SOLID
  5
15F7
  8
0
  6
BYBLOCK
 10
428.01703117579223
 20
1059.5208807584031
 30
0.0
 11
428.01703117579223
 21
1057.0208807584031
 31
0.0
 12
420.51703117579223
 22
1058.2708807584031
 32
0.0
 13
420.51703117579223
 23
1058.2708807584031
 33
0.0
  0
TEXT
  5
15F8
  8
KOTY-UPLNE
 62
     1
 10
408.13692365645738
 20
1060.7708807584031
 30
0.0
 40
7.500000000000024
  1
15
 41
0.9
  7
TOM
  0
POINT
  5
15F9
  8
DEFPOINTS
  6
BYBLOCK
 62
     0
 10
405.39967327997988
 20
1037.0200159387889
 30
0.0
  0
POINT
  5
15FA
  8
DEFPOINTS
  6
BYBLOCK
 62
     0
 10
420.51703117579223
 20
1019.710436797642
 30
0.0
  0
POINT
  5
15FB
  8
DEFPOINTS
  6
BYBLOCK
 62
     0
 10
420.51703117579223
 20
1058.2708807584031
 30
0.0
  0
ENDBLK
  5
15FC
  8
0
  0
BLOCK
  8
0
  2
*D31
 70
     1
 10
0.0
 20
0.0
 30
0.0
  3
*D31
  1

  0
LINE
  5
15FF
  8
0
  6
BYBLOCK
 10
441.12808524843092
 20
1071.4361041367561
 30
0.0
 11
441.12808524843092
 21
1082.8073925170811
 31
0.0
  0
LINE
  5
1600
  8
0
  6
BYBLOCK
 10
570.69000438698777
 20
1042.8925487899969
 30
0.0
 11
570.69000438698777
 21
1082.8073925170811
 31
0.0
  0
LINE
  5
1601
  8
0
  6
BYBLOCK
 10
448.62808524843092
 20
1080.3073925170811
 30
0.0
 11
563.19000438698788
 21
1080.3073925170811
 31
0.0
  0
SOLID
  5
1602
  8
0
  6
BYBLOCK
 10
448.62808524843092
 20
1081.5573925170811
 30
0.0
 11
448.62808524843092
 21
1079.0573925170811
 31
0.0
 12
441.12808524843092
 22
1080.3073925170811
 32
0.0
 13
441.12808524843092
 23
1080.3073925170811
 33
0.0
  0
SOLID
  5
1603
  8
0
  6
BYBLOCK
 10
563.19000438698788
 20
1081.5573925170811
 30
0.0
 11
563.19000438698788
 21
1079.0573925170811
 31
0.0
 12
570.69000438698777
 22
1080.3073925170811
 32
0.0
 13
570.69000438698777
 23
1080.3073925170811
 33
0.0
  0
TEXT
  5
1604
  8
KOTY-UPLNE
 62
     1
 10
497.87333053199501
 20
1082.8073925170811
 30
0.0
 40
7.500000000000024
  1
130
 41
0.9
  7
TOM
  0
POINT
  5
1605
  8
DEFPOINTS
  6
BYBLOCK
 62
     0
 10
441.12808524843092
 20
1066.4361041367561
 30
0.0
  0
POINT
  5
1606
  8
DEFPOINTS
  6
BYBLOCK
 62
     0
 10
570.69000438698777
 20
1037.8925487899969
 30
0.0
  0
POINT
  5
1607
  8
DEFPOINTS
  6
BYBLOCK
 62
     0
 10
570.69000438698777
 20
1080.3073925170811
 30
0.0
  0
ENDBLK
  5
1608
  8
0
  0
BLOCK
  8
0
  2
*D32
 70
     1
 10
0.0
 20
0.0
 30
0.0
  3
*D32
  1

  0
LINE
  5
160B
  8
0
  6
BYBLOCK
 10
705.46215305466808
 20
1042.02001593879
 30
0.0
 11
705.46215305466808
 21
1060.7708807584031
 31
0.0
  0
LINE
  5
160C
  8
0
  6
BYBLOCK
 10
720.08675885874766
 20
1022.754697784536
 30
0.0
 11
720.08675885874766
 21
1060.7708807584031
 31
0.0
  0
LINE
  5
160D
  8
0
  6
BYBLOCK
 10
697.96215305466808
 20
1058.2708807584031
 30
0.0
 11
690.46215305466797
 21
1058.2708807584031
 31
0.0
  0
LINE
  5
160E
  8
0
  6
BYBLOCK
 10
727.58675885874754
 20
1058.2708807584031
 30
0.0
 11
735.08675885874754
 21
1058.2708807584031
 31
0.0
  0
TEXT
  5
160F
  8
KOTY-UPLNE
 62
     1
 10
707.95302738527926
 20
1060.8771826743309
 30
0.0
 40
7.500000000000024
  1
15
 41
0.9
  7
TOM
  0
LINE
  5
1610
  8
0
  6
BYBLOCK
 10
705.46215305466808
 20
1058.2708807584031
 30
0.0
 11
720.08675885874766
 21
1058.2708807584031
 31
0.0
  0
LINE
  5
1611
  8
0
  6
BYBLOCK
 10
705.46215305466808
 20
1058.2708807584031
 30
0.0
 11
720.08675885874766
 21
1058.2708807584031
 31
0.0
  0
SOLID
  5
1612
  8
0
  6
BYBLOCK
 10
697.96215305466808
 20
1059.5208807584031
 30
0.0
 11
697.96215305466808
 21
1057.0208807584031
 31
0.0
 12
705.46215305466808
 22
1058.2708807584031
 32
0.0
 13
705.46215305466808
 23
1058.2708807584031
 33
0.0
  0
SOLID
  5
1613
  8
0
  6
BYBLOCK
 10
727.58675885874754
 20
1059.5208807584031
 30
0.0
 11
727.58675885874754
 21
1057.0208807584031
 31
0.0
 12
720.08675885874766
 22
1058.2708807584031
 32
0.0
 13
720.08675885874766
 23
1058.2708807584031
 33
0.0
  0
POINT
  5
1614
  8
DEFPOINTS
  6
BYBLOCK
 62
     0
 10
705.46215305466808
 20
1037.02001593879
 30
0.0
  0
POINT
  5
1615
  8
DEFPOINTS
  6
BYBLOCK
 62
     0
 10
720.08675885874766
 20
1017.754697784536
 30
0.0
  0
POINT
  5
1616
  8
DEFPOINTS
  6
BYBLOCK
 62
     0
 10
720.08675885874766
 20
1058.2708807584031
 30
0.0
  0
ENDBLK
  5
1617
  8
0
  0
BLOCK
  8
0
  2
*D33
 70
     1
 10
0.0
 20
0.0
 30
0.0
  3
*D33
  1

  0
LINE
  5
161A
  8
0
  6
BYBLOCK
 10
744.23704450833372
 20
1006.392548789997
 30
0.0
 11
775.3414441428605
 21
1006.392548789997
 31
0.0
  0
LINE
  5
161B
  8
0
  6
BYBLOCK
 10
704.63704450833268
 20
1037.8925487899969
 30
0.0
 11
775.3414441428605
 21
1037.8925487899969
 31
0.0
  0
LINE
  5
161C
  8
0
  6
BYBLOCK
 10
772.84144414286061
 20
1013.892548789997
 30
0.0
 11
772.84144414286061
 21
1030.3925487899969
 31
0.0
  0
SOLID
  5
161D
  8
0
  6
BYBLOCK
 10
771.59144414286061
 20
1013.892548789997
 30
0.0
 11
774.09144414286061
 21
1013.892548789997
 31
0.0
 12
772.84144414286061
 22
1006.392548789997
 32
0.0
 13
772.84144414286061
 23
1006.392548789997
 33
0.0
  0
SOLID
  5
161E
  8
0
  6
BYBLOCK
 10
771.59144414286061
 20
1030.3925487899969
 30
0.0
 11
774.09144414286061
 21
1030.3925487899969
 31
0.0
 12
772.84144414286061
 22
1037.8925487899969
 32
0.0
 13
772.84144414286061
 23
1037.8925487899969
 33
0.0
  0
TEXT
  5
161F
  8
KOTY-UPLNE
 62
     1
 10
770.34144414286061
 20
1016.678263075711
 30
0.0
 40
7.500000000000024
  1
32
 50
90.0
 41
0.9
  7
TOM
  0
POINT
  5
1620
  8
DEFPOINTS
  6
BYBLOCK
 62
     0
 10
739.23704450833361
 20
1006.392548789997
 30
0.0
  0
POINT
  5
1621
  8
DEFPOINTS
  6
BYBLOCK
 62
     0
 10
699.63704450833268
 20
1037.8925487899969
 30
0.0
  0
POINT
  5
1622
  8
DEFPOINTS
  6
BYBLOCK
 62
     0
 10
772.84144414286061
 20
1037.8925487899969
 30
0.0
  0
ENDBLK
  5
1623
  8
0
  0
BLOCK
  8
0
  2
*D34
 70
     1
 10
0.0
 20
0.0
 30
0.0
  3
*D34
  1

  0
LINE
  5
1626
  8
0
  6
BYBLOCK
 10
745.32280149229587
 20
1018.892548789997
 30
0.0
 11
745.32280149229587
 21
1082.8073925170811
 31
0.0
  0
LINE
  5
1627
  8
0
  6
BYBLOCK
 10
705.46215305466808
 20
1047.02001593879
 30
0.0
 11
705.46215305466808
 21
1082.8073925170811
 31
0.0
  0
LINE
  5
1628
  8
0
  6
BYBLOCK
 10
737.82280149229575
 20
1080.3073925170811
 30
0.0
 11
712.96215305466797
 21
1080.3073925170811
 31
0.0
  0
SOLID
  5
1629
  8
0
  6
BYBLOCK
 10
737.82280149229575
 20
1081.5573925170811
 30
0.0
 11
737.82280149229575
 21
1079.0573925170811
 31
0.0
 12
745.32280149229587
 22
1080.3073925170811
 32
0.0
 13
745.32280149229587
 23
1080.3073925170811
 33
0.0
  0
SOLID
  5
162A
  8
0
  6
BYBLOCK
 10
712.96215305466797
 20
1081.5573925170811
 30
0.0
 11
712.96215305466797
 21
1079.0573925170811
 31
0.0
 12
705.46215305466808
 22
1080.3073925170811
 32
0.0
 13
705.46215305466808
 23
1080.3073925170811
 33
0.0
  0
TEXT
  5
162B
  8
KOTY-UPLNE
 62
     1
 10
719.92819155919619
 20
1082.8073925170811
 30
0.0
 40
7.500000000000024
  1
40
 41
0.9
  7
TOM
  0
POINT
  5
162C
  8
DEFPOINTS
  6
BYBLOCK
 62
     0
 10
745.32280149229587
 20
1013.892548789997
 30
0.0
  0
POINT
  5
162D
  8
DEFPOINTS
  6
BYBLOCK
 62
     0
 10
705.46215305466808
 20
1042.02001593879
 30
0.0
  0
POINT
  5
162E
  8
DEFPOINTS
  6
BYBLOCK
 62
     0
 10
705.46215305466808
 20
1080.3073925170811
 30
0.0
  0
ENDBLK
  5
162F
  8
0
  0
ENDSEC
  0
SECTION
  2
ENTITIES
  0
TEXT
  5
2E0
  8
KOTY-UPLNE
 10
473.23153306218859
 20
1500.536287845259
 30
0.0
 40
10.0
  1
Linear - Kontur
 41
0.9
  7
TOM
  0
POLYLINE
  5
AC8
  8
LAMELA-VELKA
 66
     1
 10
0.0
 20
0.0
 30
0.0
 40
2.0
 41
2.0
  0
VERTEX
  5
1702
  8
LAMELA-VELKA
 10
412.33313951408047
 20
1376.4687810761991
 30
0.0
 42
0.2878766142580728
  0
VERTEX
  5
1703
  8
LAMELA-VELKA
 10
420.51703117579189
 20
1387.6099468374659
 30
0.0
 42
0.4137770144300034
  0
VERTEX
  5
1704
  8
LAMELA-VELKA
 10
408.51704486907659
 20
1399.592058829822
 30
0.0
 42
-0.9999998645872132
  0
VERTEX
  5
1705
  8
LAMELA-VELKA
 10
408.51704496226893
 20
1405.7920588298221
 30
0.0
  0
VERTEX
  5
1706
  8
LAMELA-VELKA
 10
441.44575998180312
 20
1405.7920588298221
 30
0.0
 42
0.4634545778523476
  0
VERTEX
  5
1707
  8
LAMELA-VELKA
 10
444.4049417532994
 20
1409.2852557917381
 30
0.0
  0
VERTEX
  5
1708
  8
LAMELA-VELKA
 10
440.52722664862148
 20
1432.5515464198061
 30
0.0
 42
-0.533398701840854
  0
VERTEX
  5
1709
  8
LAMELA-VELKA
 10
442.94444874757949
 20
1434.8303388037109
 30
0.0
  0
VERTEX
  5
170A
  8
LAMELA-VELKA
 10
570.02335301004655
 20
1405.867067215881
 30
0.0
 42
0.0560806475051206
  0
VERTEX
  5
170B
  8
LAMELA-VELKA
 10
570.69000438698708
 20
1405.7920588298221
 30
0.0
  0
VERTEX
  5
170C
  8
LAMELA-VELKA
 10
599.63704450833325
 20
1405.7920588298221
 30
0.0
 42
-0.3027750024983844
  0
VERTEX
  5
170D
  8
LAMELA-VELKA
 10
604.252424647628
 20
1402.71514649548
 30
0.0
  0
VERTEX
  5
170E
  8
LAMELA-VELKA
 10
605.44766923064458
 20
1399.8465783024801
 30
0.0
 42
0.21471862628893
  0
VERTEX
  5
170F
  8
LAMELA-VELKA
 10
607.8481605828589
 20
1397.605400906712
 30
0.0
  0
VERTEX
  5
1710
  8
LAMELA-VELKA
 10
613.45804751874653
 20
1395.695935292915
 30
0.0
 42
-0.8319080936433575
  0
VERTEX
  5
1711
  8
LAMELA-VELKA
 10
610.23704450833225
 20
1378.2920588298221
 30
0.0
  0
VERTEX
  5
1712
  8
LAMELA-VELKA
 10
609.73704450833338
 20
1378.2920588298221
 30
0.0
 42
0.9999999999999998
  0
VERTEX
  5
1713
  8
LAMELA-VELKA
 10
609.73704450833338
 20
1374.2920588298221
 30
0.0
  0
VERTEX
  5
1714
  8
LAMELA-VELKA
 10
639.23704450833338
 20
1374.2920588298221
 30
0.0
 42
0.200072562538303
  0
VERTEX
  5
1715
  8
LAMELA-VELKA
 10
642.76470614417406
 20
1376.7920588298221
 30
0.0
  0
VERTEX
  5
1716
  8
LAMELA-VELKA
 10
645.32280149229587
 20
1381.7920588298221
 30
0.0
  0
SEQEND
  5
1717
  8
LAMELA-VELKA
  0
DIMENSION
  5
DF5
  8
KOTY-UPLNE
  2
*D1
 10
420.51703117579223
 20
1426.170390798228
 30
0.0
 11
412.958352227886
 21
1432.420390798228
 31
0.0
 12
0.000000374025376
 22
-664.25902088068756
 32
0.0
 70
     0
 13
405.39967327997988
 23
1404.919525978614
 33
0.0
 14
420.51703117579223
 24
1387.6099468374671
 34
0.0
1001
ACAD
1000
DSTYLE
1002
{
1070
    40
1040
5.0
1070
   147
1040
0.5
1070
    44
1040
0.5
1070
   178
1070
     1
1070
   177
1070
   256
1070
   176
1070
   256
1002
}
  0
DIMENSION
  5
DF7
  8
KOTY-UPLNE
  2
*D2
 10
605.46215305466808
 20
1448.206902556906
 30
0.0
 11
725.39247727348186
 21
1454.456902556906
 31
0.0
 12
-99.999999625974624
 22
-664.25902088068756
 32
0.0
 70
     0
 13
645.32280149229587
 23
1381.7920588298221
 33
0.0
 14
605.46215305466808
 24
1409.919525978615
 34
0.0
1001
ACAD
1000
DSTYLE
1002
{
1070
    40
1040
5.0
1070
   147
1040
0.5
1070
    44
1040
0.5
1070
   178
1070
     1
1070
   177
1070
   256
1070
   176
1070
   256
1002
}
  0
DIMENSION
  5
DF8
  8
KOTY-UPLNE
  2
*D0
 10
672.84144414286061
 20
1405.7920588298221
 30
0.0
 11
766.59144414286061
 21
1390.0420588298221
 31
0.0
 12
-99.999999625974624
 22
-664.25902088068756
 32
0.0
 70
     0
 13
639.23704450833361
 23
1374.2920588298221
 33
0.0
 14
599.63704450833268
 24
1405.7920588298221
 34
0.0
 50
90.0
1001
ACAD
1000
DSTYLE
1002
{
1070
    40
1040
5.0
1070
   147
1040
0.5
1070
    44
1040
0.5
1070
   178
1070
     1
1070
   177
1070
   256
1070
   176
1070
   256
1002
}
  0
DIMENSION
  5
DF9
  8
KOTY-UPLNE
  2
*D3
 10
620.08675885874766
 20
1426.170390798228
 30
0.0
 11
612.77445595670792
 21
1432.5266927141561
 31
0.0
 12
-99.999999625974624
 22
-664.25902088068756
 32
0.0
 70
   128
 13
605.46215305466808
 23
1404.919525978615
 33
0.0
 14
620.08675885874766
 24
1385.654207824361
 34
0.0
1001
ACAD
1000
DSTYLE
1002
{
1070
    40
1040
5.0
1070
   147
1040
0.5
1070
    44
1040
0.5
1070
   178
1070
     1
1070
   177
1070
   256
1070
   176
1070
   256
1002
}
  0
DIMENSION
  5
E61
  8
KOTY-UPLNE
  2
*D4
 10
672.84144414286061
 20
1405.7920588298221
 30
0.0
 11
666.59144414286061
 21
1420.3111988167659
 31
0.0
 70
     0
 13
442.94444874757949
 23
1434.8303388037109
 33
0.0
 14
620.08675885874766
 24
1405.7920588298221
 34
0.0
 50
90.0
1001
ACAD
1000
DSTYLE
1002
{
1070
    40
1040
5.0
1070
   147
1040
0.5
1070
    44
1040
0.5
1070
   178
1070
     1
1070
   177
1070
   256
1070
   176
1070
   256
1002
}
  0
DIMENSION
  5
E6E
  8
KOTY-UPLNE
  2
*D5
 10
570.69000438698777
 20
1448.206902556906
 30
0.0
 11
505.90904481770929
 21
1454.456902556906
 31
0.0
 70
     0
 13
441.12808524843092
 23
1434.335614176581
 33
0.0
 14
570.69000438698777
 24
1405.7920588298221
 34
0.0
1001
ACAD
1000
DSTYLE
1002
{
1070
    40
1040
5.0
1070
   147
1040
0.5
1070
    44
1040
0.5
1070
   178
1070
     1
1070
   177
1070
   256
1070
   176
1070
   256
1002
}
  0
DIMENSION
  5
14AB
  8
KOTY-UPLNE
  2
*D6
 10
405.39967327997988
 20
1466.008493470966
 30
0.0
 11
505.43091316732398
 21
1472.2584934709671
 31
0.0
 70
     0
 13
605.46215305466808
 23
1432.721116892676
 33
0.0
 14
405.39967327997988
 24
1427.7211168926749
 34
0.0
1001
ACAD
1000
DSTYLE
1002
{
1070
    40
1040
5.0
1070
   147
1040
0.5
1070
    44
1040
0.5
1070
   178
1070
     1
1070
   177
1070
   256
1070
   176
1070
   256
1002
}
  0
DIMENSION
  5
14AC
  8
KOTY-UPLNE
  2
*D13
 10
405.39967327997988
 20
1343.3753234576909
 30
0.0
 11
540.43091316732387
 21
1349.625323457692
 31
0.0
 70
     0
 13
675.46215305466797
 23
1310.087946879401
 33
0.0
 14
405.39967327997988
 24
1305.0879468794001
 34
0.0
1001
ACAD
1000
DSTYLE
1002
{
1070
    40
1040
5.0
1070
   147
1040
0.5
1070
    44
1040
0.5
1070
   178
1070
     1
1070
   177
1070
   256
1070
   176
1070
   256
1002
}
  0
DIMENSION
  5
14AD
  8
KOTY-UPLNE
  2
*D11
 10
742.84144414286061
 20
1283.158888816547
 30
0.0
 11
736.59144414286061
 21
1297.6780288034911
 31
0.0
 70
     0
 13
442.94444874757949
 23
1312.1971687904361
 33
0.0
 14
690.08675885874754
 24
1283.158888816547
 34
0.0
 50
90.0
1001
ACAD
1000
DSTYLE
1002
{
1070
    40
1040
5.0
1070
   147
1040
0.5
1070
    44
1040
0.5
1070
   178
1070
     1
1070
   177
1070
   256
1070
   176
1070
   256
1002
}
  0
POLYLINE
  5
14AE
  8
LAMELA-VELKA
 66
     1
 10
0.0
 20
0.0
 30
0.0
 40
2.0
 41
2.0
  0
VERTEX
  5
1718
  8
LAMELA-VELKA
 10
412.33313951408047
 20
1253.8356110629229
 30
0.0
 42
0.2878766142580728
  0
VERTEX
  5
1719
  8
LAMELA-VELKA
 10
420.51703117579189
 20
1264.9767768241909
 30
0.0
 42
0.4137770144300034
  0
VERTEX
  5
171A
  8
LAMELA-VELKA
 10
408.51704486907659
 20
1276.958888816547
 30
0.0
 42
-0.9999998645872132
  0
VERTEX
  5
171B
  8
LAMELA-VELKA
 10
408.51704496226893
 20
1283.158888816547
 30
0.0
  0
VERTEX
  5
171C
  8
LAMELA-VELKA
 10
441.44575998180312
 20
1283.158888816547
 30
0.0
 42
0.4634545778523476
  0
VERTEX
  5
171D
  8
LAMELA-VELKA
 10
444.4049417532994
 20
1286.6520857784631
 30
0.0
  0
VERTEX
  5
171E
  8
LAMELA-VELKA
 10
440.52722664862148
 20
1309.918376406531
 30
0.0
 42
-0.533398701840854
  0
VERTEX
  5
171F
  8
LAMELA-VELKA
 10
442.94444874757949
 20
1312.1971687904361
 30
0.0
  0
VERTEX
  5
1720
  8
LAMELA-VELKA
 10
570.02335301004655
 20
1283.2338972026059
 30
0.0
 42
0.0560806475051206
  0
VERTEX
  5
1721
  8
LAMELA-VELKA
 10
570.69000438698708
 20
1283.158888816547
 30
0.0
  0
VERTEX
  5
1722
  8
LAMELA-VELKA
 10
669.63704450833325
 20
1283.158888816547
 30
0.0
 42
-0.3027750024983844
  0
VERTEX
  5
1723
  8
LAMELA-VELKA
 10
674.25242464762789
 20
1280.0819764822049
 30
0.0
  0
VERTEX
  5
1724
  8
LAMELA-VELKA
 10
675.44766923064458
 20
1277.2134082892051
 30
0.0
 42
0.21471862628893
  0
VERTEX
  5
1725
  8
LAMELA-VELKA
 10
677.84816058285901
 20
1274.972230893437
 30
0.0
  0
VERTEX
  5
1726
  8
LAMELA-VELKA
 10
683.45804751874653
 20
1273.06276527964
 30
0.0
 42
-0.8319080936433575
  0
VERTEX
  5
1727
  8
LAMELA-VELKA
 10
680.23704450833225
 20
1255.658888816547
 30
0.0
  0
VERTEX
  5
1728
  8
LAMELA-VELKA
 10
679.73704450833327
 20
1255.658888816547
 30
0.0
 42
0.9999999999999998
  0
VERTEX
  5
1729
  8
LAMELA-VELKA
 10
679.73704450833327
 20
1251.658888816547
 30
0.0
  0
VERTEX
  5
172A
  8
LAMELA-VELKA
 10
709.23704450833327
 20
1251.658888816547
 30
0.0
 42
0.200072562538303
  0
VERTEX
  5
172B
  8
LAMELA-VELKA
 10
712.76470614417406
 20
1254.158888816547
 30
0.0
  0
VERTEX
  5
172C
  8
LAMELA-VELKA
 10
715.32280149229587
 20
1259.158888816547
 30
0.0
  0
SEQEND
  5
172D
  8
LAMELA-VELKA
  0
DIMENSION
  5
14AF
  8
KOTY-UPLNE
  2
*D7
 10
420.51703117579223
 20
1303.537220784953
 30
0.0
 11
412.958352227886
 21
1309.787220784953
 31
0.0
 12
0.0
 22
-122.63317001327501
 32
0.0
 70
     0
 13
405.39967327997988
 23
1282.286355965339
 33
0.0
 14
420.51703117579223
 24
1264.976776824192
 34
0.0
1001
ACAD
1000
DSTYLE
1002
{
1070
    40
1040
5.0
1070
   147
1040
0.5
1070
    44
1040
0.5
1070
   178
1070
     1
1070
   177
1070
   256
1070
   176
1070
   256
1002
}
  0
DIMENSION
  5
14B0
  8
KOTY-UPLNE
  2
*D12
 10
570.69000438698777
 20
1325.573732543631
 30
0.0
 11
505.90904481770929
 21
1331.823732543631
 31
0.0
 12
0.0
 22
-122.63317001327501
 32
0.0
 70
     0
 13
441.12808524843092
 23
1311.7024441633059
 33
0.0
 14
570.69000438698777
 24
1283.158888816547
 34
0.0
1001
ACAD
1000
DSTYLE
1002
{
1070
    40
1040
5.0
1070
   147
1040
0.5
1070
    44
1040
0.5
1070
   178
1070
     1
1070
   177
1070
   256
1070
   176
1070
   256
1002
}
  0
DIMENSION
  5
14B1
  8
KOTY-UPLNE
  2
*D10
 10
690.08675885874754
 20
1303.537220784953
 30
0.0
 11
682.77445595670792
 21
1309.893522700881
 31
0.0
 12
-30.0
 22
-122.63317001327501
 32
0.0
 70
   128
 13
675.46215305466797
 23
1282.2863559653399
 33
0.0
 14
690.08675885874754
 24
1263.021037811086
 34
0.0
1001
ACAD
1000
DSTYLE
1002
{
1070
    40
1040
5.0
1070
   147
1040
0.5
1070
    44
1040
0.5
1070
   178
1070
     1
1070
   177
1070
   256
1070
   176
1070
   256
1002
}
  0
DIMENSION
  5
14B2
  8
KOTY-UPLNE
  2
*D9
 10
742.84144414286061
 20
1283.158888816547
 30
0.0
 11
766.59144414286061
 21
1267.408888816547
 31
0.0
 12
-30.0
 22
-122.63317001327501
 32
0.0
 70
     0
 13
709.23704450833372
 23
1251.658888816547
 33
0.0
 14
669.63704450833256
 24
1283.158888816547
 34
0.0
 50
90.0
1001
ACAD
1000
DSTYLE
1002
{
1070
    40
1040
5.0
1070
   147
1040
0.5
1070
    44
1040
0.5
1070
   178
1070
     1
1070
   177
1070
   256
1070
   176
1070
   256
1002
}
  0
DIMENSION
  5
14B3
  8
KOTY-UPLNE
  2
*D8
 10
675.46215305466797
 20
1325.573732543631
 30
0.0
 11
725.39247727348186
 21
1331.823732543631
 31
0.0
 12
-30.0
 22
-122.63317001327501
 32
0.0
 70
     0
 13
715.32280149229587
 23
1259.158888816547
 33
0.0
 14
675.46215305466797
 24
1287.2863559653399
 34
0.0
1001
ACAD
1000
DSTYLE
1002
{
1070
    40
1040
5.0
1070
   147
1040
0.5
1070
    44
1040
0.5
1070
   178
1070
     1
1070
   177
1070
   256
1070
   176
1070
   256
1002
}
  0
POLYLINE
  5
150D
  8
LAMELA-VELKA
 66
     1
 10
0.0
 20
0.0
 30
0.0
 40
2.0
 41
2.0
  0
VERTEX
  5
172E
  8
LAMELA-VELKA
 10
412.33313951408047
 20
1131.2024410496481
 30
0.0
 42
0.2878766142580728
  0
VERTEX
  5
172F
  8
LAMELA-VELKA
 10
420.51703117579189
 20
1142.3436068109161
 30
0.0
 42
0.4137770144300034
  0
VERTEX
  5
1730
  8
LAMELA-VELKA
 10
408.51704486907659
 20
1154.3257188032719
 30
0.0
 42
-0.9999998645872132
  0
VERTEX
  5
1731
  8
LAMELA-VELKA
 10
408.51704496226893
 20
1160.525718803272
 30
0.0
  0
VERTEX
  5
1732
  8
LAMELA-VELKA
 10
441.44575998180312
 20
1160.525718803272
 30
0.0
 42
0.4634545778523476
  0
VERTEX
  5
1733
  8
LAMELA-VELKA
 10
444.4049417532994
 20
1164.018915765188
 30
0.0
  0
VERTEX
  5
1734
  8
LAMELA-VELKA
 10
440.52722664862148
 20
1187.285206393256
 30
0.0
 42
-0.533398701840854
  0
VERTEX
  5
1735
  8
LAMELA-VELKA
 10
442.94444874757949
 20
1189.563998777161
 30
0.0
  0
VERTEX
  5
1736
  8
LAMELA-VELKA
 10
570.02335301004655
 20
1160.6007271893311
 30
0.0
 42
0.0560806475051206
  0
VERTEX
  5
1737
  8
LAMELA-VELKA
 10
570.69000438698708
 20
1160.525718803272
 30
0.0
  0
VERTEX
  5
1738
  8
LAMELA-VELKA
 10
699.63704450833325
 20
1160.525718803272
 30
0.0
 42
-0.3027750024983844
  0
VERTEX
  5
1739
  8
LAMELA-VELKA
 10
704.252424647628
 20
1157.4488064689299
 30
0.0
  0
VERTEX
  5
173A
  8
LAMELA-VELKA
 10
705.44766923064458
 20
1154.58023827593
 30
0.0
 42
0.21471862628893
  0
VERTEX
  5
173B
  8
LAMELA-VELKA
 10
707.8481605828589
 20
1152.3390608801619
 30
0.0
  0
VERTEX
  5
173C
  8
LAMELA-VELKA
 10
713.45804751874653
 20
1150.429595266364
 30
0.0
 42
-0.8319080936433575
  0
VERTEX
  5
173D
  8
LAMELA-VELKA
 10
710.23704450833225
 20
1133.025718803272
 30
0.0
  0
VERTEX
  5
173E
  8
LAMELA-VELKA
 10
709.73704450833338
 20
1133.025718803272
 30
0.0
 42
0.9999999999999998
  0
VERTEX
  5
173F
  8
LAMELA-VELKA
 10
709.73704450833338
 20
1129.025718803272
 30
0.0
  0
VERTEX
  5
1740
  8
LAMELA-VELKA
 10
739.23704450833338
 20
1129.025718803272
 30
0.0
 42
0.200072562538303
  0
VERTEX
  5
1741
  8
LAMELA-VELKA
 10
742.76470614417406
 20
1131.525718803272
 30
0.0
  0
VERTEX
  5
1742
  8
LAMELA-VELKA
 10
745.32280149229587
 20
1136.525718803272
 30
0.0
  0
SEQEND
  5
1743
  8
LAMELA-VELKA
  0
DIMENSION
  5
150E
  8
KOTY-UPLNE
  2
*D15
 10
772.84144414286061
 20
1160.525718803272
 30
0.0
 11
766.59144414286061
 21
1175.044858790216
 31
0.0
 12
0.0
 22
-122.63317001327501
 32
0.0
 70
     0
 13
442.94444874757949
 23
1189.563998777161
 33
0.0
 14
720.08675885874766
 24
1160.525718803272
 34
0.0
 50
90.0
1001
ACAD
1000
DSTYLE
1002
{
1070
    40
1040
5.0
1070
   147
1040
0.5
1070
    44
1040
0.5
1070
   178
1070
     1
1070
   177
1070
   256
1070
   176
1070
   256
1002
}
  0
DIMENSION
  5
150F
  8
KOTY-UPLNE
  2
*D14
 10
405.39967327997988
 20
1220.7421534444161
 30
0.0
 11
555.43091316732398
 21
1226.9921534444161
 31
0.0
 12
0.0
 22
-122.63317001327501
 32
0.0
 70
     0
 13
705.46215305466808
 23
1187.4547768661259
 33
0.0
 14
405.39967327997988
 24
1182.454776866125
 34
0.0
1001
ACAD
1000
DSTYLE
1002
{
1070
    40
1040
5.0
1070
   147
1040
0.5
1070
    44
1040
0.5
1070
   178
1070
     1
1070
   177
1070
   256
1070
   176
1070
   256
1002
}
  0
DIMENSION
  5
1510
  8
KOTY-UPLNE
  2
*D16
 10
420.51703117579223
 20
1180.9040507716779
 30
0.0
 11
412.958352227886
 21
1187.1540507716779
 31
0.0
 12
0.0
 22
-122.63317001327501
 32
0.0
 70
     0
 13
405.39967327997988
 23
1159.653185952064
 33
0.0
 14
420.51703117579223
 24
1142.343606810917
 34
0.0
1001
ACAD
1000
DSTYLE
1002
{
1070
    40
1040
5.0
1070
   147
1040
0.5
1070
    44
1040
0.5
1070
   178
1070
     1
1070
   177
1070
   256
1070
   176
1070
   256
1002
}
  0
DIMENSION
  5
1511
  8
KOTY-UPLNE
  2
*D17
 10
570.69000438698777
 20
1202.9405625303559
 30
0.0
 11
505.90904481770929
 21
1209.1905625303559
 31
0.0
 12
0.0
 22
-122.63317001327501
 32
0.0
 70
     0
 13
441.12808524843092
 23
1189.0692741500311
 33
0.0
 14
570.69000438698777
 24
1160.525718803272
 34
0.0
1001
ACAD
1000
DSTYLE
1002
{
1070
    40
1040
5.0
1070
   147
1040
0.5
1070
    44
1040
0.5
1070
   178
1070
     1
1070
   177
1070
   256
1070
   176
1070
   256
1002
}
  0
DIMENSION
  5
1512
  8
KOTY-UPLNE
  2
*D18
 10
720.08675885874766
 20
1180.9040507716779
 30
0.0
 11
712.77445595670792
 21
1187.260352687606
 31
0.0
 12
0.0
 22
-122.63317001327501
 32
0.0
 70
   128
 13
705.46215305466808
 23
1159.6531859520651
 33
0.0
 14
720.08675885874766
 24
1140.3878677978109
 34
0.0
1001
ACAD
1000
DSTYLE
1002
{
1070
    40
1040
5.0
1070
   147
1040
0.5
1070
    44
1040
0.5
1070
   178
1070
     1
1070
   177
1070
   256
1070
   176
1070
   256
1002
}
  0
DIMENSION
  5
1513
  8
KOTY-UPLNE
  2
*D20
 10
705.46215305466808
 20
1202.9405625303559
 30
0.0
 11
725.39247727348186
 21
1209.1905625303559
 31
0.0
 12
0.0
 22
-122.63317001327501
 32
0.0
 70
     0
 13
745.32280149229587
 23
1136.525718803272
 33
0.0
 14
705.46215305466808
 24
1164.6531859520651
 34
0.0
1001
ACAD
1000
DSTYLE
1002
{
1070
    40
1040
5.0
1070
   147
1040
0.5
1070
    44
1040
0.5
1070
   178
1070
     1
1070
   177
1070
   256
1070
   176
1070
   256
1002
}
  0
DIMENSION
  5
1514
  8
KOTY-UPLNE
  2
*D19
 10
772.84144414286061
 20
1160.525718803272
 30
0.0
 11
766.59144414286061
 21
1144.775718803272
 31
0.0
 12
0.0
 22
-122.63317001327501
 32
0.0
 70
     0
 13
739.23704450833361
 23
1129.025718803272
 33
0.0
 14
699.63704450833268
 24
1160.525718803272
 34
0.0
 50
90.0
1001
ACAD
1000
DSTYLE
1002
{
1070
    40
1040
5.0
1070
   147
1040
0.5
1070
    44
1040
0.5
1070
   178
1070
     1
1070
   177
1070
   256
1070
   176
1070
   256
1002
}
  0
DIMENSION
  5
156E
  8
KOTY-UPLNE
  2
*D22
 10
405.39967327997988
 20
1098.108983431141
 30
0.0
 11
580.43091316732398
 21
1104.358983431141
 31
0.0
 70
     0
 13
755.46215305466808
 23
1064.8216068528509
 33
0.0
 14
405.39967327997988
 24
1059.82160685285
 34
0.0
1001
ACAD
1000
DSTYLE
1002
{
1070
    40
1040
5.0
1070
   147
1040
0.5
1070
    44
1040
0.5
1070
   178
1070
     1
1070
   177
1070
   256
1070
   176
1070
   256
1002
}
  0
DIMENSION
  5
156F
  8
KOTY-UPLNE
  2
*D21
 10
822.84144414286061
 20
1037.8925487899969
 30
0.0
 11
816.59144414286061
 21
1052.411688776941
 31
0.0
 70
     0
 13
442.94444874757949
 23
1066.9308287638851
 33
0.0
 14
770.08675885874766
 24
1037.8925487899969
 34
0.0
 50
90.0
1001
ACAD
1000
DSTYLE
1002
{
1070
    40
1040
5.0
1070
   147
1040
0.5
1070
    44
1040
0.5
1070
   178
1070
     1
1070
   177
1070
   256
1070
   176
1070
   256
1002
}
  0
POLYLINE
  5
1570
  8
LAMELA-VELKA
 66
     1
 10
0.0
 20
0.0
 30
0.0
 40
2.0
 41
2.0
  0
VERTEX
  5
1744
  8
LAMELA-VELKA
 10
412.33313951408047
 20
1008.569271036373
 30
0.0
 42
0.2878766142580728
  0
VERTEX
  5
1745
  8
LAMELA-VELKA
 10
420.51703117579189
 20
1019.710436797641
 30
0.0
 42
0.4137770144300034
  0
VERTEX
  5
1746
  8
LAMELA-VELKA
 10
408.51704486907659
 20
1031.6925487899971
 30
0.0
 42
-0.9999998645872132
  0
VERTEX
  5
1747
  8
LAMELA-VELKA
 10
408.51704496226893
 20
1037.8925487899969
 30
0.0
  0
VERTEX
  5
1748
  8
LAMELA-VELKA
 10
441.44575998180312
 20
1037.8925487899969
 30
0.0
 42
0.4634545778523476
  0
VERTEX
  5
1749
  8
LAMELA-VELKA
 10
444.4049417532994
 20
1041.385745751913
 30
0.0
  0
VERTEX
  5
174A
  8
LAMELA-VELKA
 10
440.52722664862148
 20
1064.6520363799809
 30
0.0
 42
-0.533398701840854
  0
VERTEX
  5
174B
  8
LAMELA-VELKA
 10
442.94444874757949
 20
1066.9308287638851
 30
0.0
  0
VERTEX
  5
174C
  8
LAMELA-VELKA
 10
570.02335301004655
 20
1037.9675571760561
 30
0.0
 42
0.0560806475051206
  0
VERTEX
  5
174D
  8
LAMELA-VELKA
 10
570.69000438698708
 20
1037.8925487899969
 30
0.0
  0
VERTEX
  5
174E
  8
LAMELA-VELKA
 10
749.63704450833325
 20
1037.8925487899969
 30
0.0
 42
-0.3027750024983844
  0
VERTEX
  5
174F
  8
LAMELA-VELKA
 10
754.252424647628
 20
1034.8156364556539
 30
0.0
  0
VERTEX
  5
1750
  8
LAMELA-VELKA
 10
755.44766923064458
 20
1031.947068262655
 30
0.0
 42
0.21471862628893
  0
VERTEX
  5
1751
  8
LAMELA-VELKA
 10
757.8481605828589
 20
1029.7058908668871
 30
0.0
  0
VERTEX
  5
1752
  8
LAMELA-VELKA
 10
763.45804751874653
 20
1027.796425253089
 30
0.0
 42
-0.8319080936433575
  0
VERTEX
  5
1753
  8
LAMELA-VELKA
 10
760.23704450833225
 20
1010.392548789997
 30
0.0
  0
VERTEX
  5
1754
  8
LAMELA-VELKA
 10
759.73704450833338
 20
1010.392548789997
 30
0.0
 42
0.9999999999999998
  0
VERTEX
  5
1755
  8
LAMELA-VELKA
 10
759.73704450833338
 20
1006.392548789997
 30
0.0
  0
VERTEX
  5
1756
  8
LAMELA-VELKA
 10
789.23704450833338
 20
1006.392548789997
 30
0.0
 42
0.200072562538303
  0
VERTEX
  5
1757
  8
LAMELA-VELKA
 10
792.76470614417406
 20
1008.892548789997
 30
0.0
  0
VERTEX
  5
1758
  8
LAMELA-VELKA
 10
795.32280149229587
 20
1013.892548789997
 30
0.0
  0
SEQEND
  5
1759
  8
LAMELA-VELKA
  0
DIMENSION
  5
1571
  8
KOTY-UPLNE
  2
*D23
 10
420.51703117579223
 20
1058.2708807584031
 30
0.0
 11
412.958352227886
 21
1064.5208807584031
 31
0.0
 12
0.0
 22
-122.63317001327501
 32
0.0
 70
     0
 13
405.39967327997988
 23
1037.0200159387889
 33
0.0
 14
420.51703117579223
 24
1019.710436797642
 34
0.0
1001
ACAD
1000
DSTYLE
1002
{
1070
    40
1040
5.0
1070
   147
1040
0.5
1070
    44
1040
0.5
1070
   178
1070
     1
1070
   177
1070
   256
1070
   176
1070
   256
1002
}
  0
DIMENSION
  5
1572
  8
KOTY-UPLNE
  2
*D24
 10
570.69000438698777
 20
1080.3073925170811
 30
0.0
 11
505.90904481770929
 21
1086.5573925170811
 31
0.0
 12
0.0
 22
-122.63317001327501
 32
0.0
 70
     0
 13
441.12808524843092
 23
1066.4361041367561
 33
0.0
 14
570.69000438698777
 24
1037.8925487899969
 34
0.0
1001
ACAD
1000
DSTYLE
1002
{
1070
    40
1040
5.0
1070
   147
1040
0.5
1070
    44
1040
0.5
1070
   178
1070
     1
1070
   177
1070
   256
1070
   176
1070
   256
1002
}
  0
DIMENSION
  5
1573
  8
KOTY-UPLNE
  2
*D25
 10
770.08675885874766
 20
1058.2708807584031
 30
0.0
 11
762.77445595670792
 21
1064.6271826743309
 31
0.0
 12
50.0
 22
-122.63317001327501
 32
0.0
 70
   128
 13
755.46215305466808
 23
1037.02001593879
 33
0.0
 14
770.08675885874766
 24
1017.754697784536
 34
0.0
1001
ACAD
1000
DSTYLE
1002
{
1070
    40
1040
5.0
1070
   147
1040
0.5
1070
    44
1040
0.5
1070
   178
1070
     1
1070
   177
1070
   256
1070
   176
1070
   256
1002
}
  0
DIMENSION
  5
1574
  8
KOTY-UPLNE
  2
*D27
 10
822.84144414286061
 20
1037.8925487899969
 30
0.0
 11
766.59144414286061
 21
1022.142548789997
 31
0.0
 12
50.0
 22
-122.63317001327501
 32
0.0
 70
     0
 13
789.23704450833372
 23
1006.392548789997
 33
0.0
 14
749.63704450833268
 24
1037.8925487899969
 34
0.0
 50
90.0
1001
ACAD
1000
DSTYLE
1002
{
1070
    40
1040
5.0
1070
   147
1040
0.5
1070
    44
1040
0.5
1070
   178
1070
     1
1070
   177
1070
   256
1070
   176
1070
   256
1002
}
  0
DIMENSION
  5
1575
  8
KOTY-UPLNE
  2
*D26
 10
755.46215305466808
 20
1080.3073925170811
 30
0.0
 11
725.39247727348186
 21
1086.5573925170811
 31
0.0
 12
50.0
 22
-122.63317001327501
 32
0.0
 70
     0
 13
795.32280149229587
 23
1013.892548789997
 33
0.0
 14
755.46215305466808
 24
1042.02001593879
 34
0.0
1001
ACAD
1000
DSTYLE
1002
{
1070
    40
1040
5.0
1070
   147
1040
0.5
1070
    44
1040
0.5
1070
   178
1070
     1
1070
   177
1070
   256
1070
   176
1070
   256
1002
}
  0
POLYLINE
  5
15CF
  8
LAMELA-VELKA
 66
     1
 10
0.0
 20
0.0
 30
0.0
 40
2.0
 41
2.0
  0
VERTEX
  5
175A
  8
LAMELA-VELKA
 10
412.33313951408047
 20
885.93610102309867
 30
0.0
 42
0.2878766142580728
  0
VERTEX
  5
175B
  8
LAMELA-VELKA
 10
420.51703117579189
 20
897.07726678436666
 30
0.0
 42
0.4137770144300034
  0
VERTEX
  5
175C
  8
LAMELA-VELKA
 10
408.51704486907659
 20
909.05937877672216
 30
0.0
 42
-0.9999998645872132
  0
VERTEX
  5
175D
  8
LAMELA-VELKA
 10
408.51704496226893
 20
915.25937877672231
 30
0.0
  0
VERTEX
  5
175E
  8
LAMELA-VELKA
 10
441.44575998180312
 20
915.25937877672231
 30
0.0
 42
0.4634545778523476
  0
VERTEX
  5
175F
  8
LAMELA-VELKA
 10
444.4049417532994
 20
918.75257573863826
 30
0.0
  0
VERTEX
  5
1760
  8
LAMELA-VELKA
 10
440.52722664862148
 20
942.01886636670633
 30
0.0
 42
-0.533398701840854
  0
VERTEX
  5
1761
  8
LAMELA-VELKA
 10
442.94444874757949
 20
944.29765875061094
 30
0.0
  0
VERTEX
  5
1762
  8
LAMELA-VELKA
 10
570.02335301004655
 20
915.33438716278158
 30
0.0
 42
0.0560806475051206
  0
VERTEX
  5
1763
  8
LAMELA-VELKA
 10
570.69000438698708
 20
915.25937877672231
 30
0.0
  0
VERTEX
  5
1764
  8
LAMELA-VELKA
 10
799.63704450833325
 20
915.25937877672231
 30
0.0
 42
-0.3027750024983844
  0
VERTEX
  5
1765
  8
LAMELA-VELKA
 10
804.25242464762789
 20
912.18246644237968
 30
0.0
  0
VERTEX
  5
1766
  8
LAMELA-VELKA
 10
805.44766923064458
 20
909.3138982493806
 30
0.0
 42
0.21471862628893
  0
VERTEX
  5
1767
  8
LAMELA-VELKA
 10
807.84816058285901
 20
907.07272085361228
 30
0.0
  0
VERTEX
  5
1768
  8
LAMELA-VELKA
 10
813.45804751874653
 20
905.16325523981459
 30
0.0
 42
-0.8319080936433575
  0
VERTEX
  5
1769
  8
LAMELA-VELKA
 10
810.23704450833213
 20
887.75937877672231
 30
0.0
  0
VERTEX
  5
176A
  8
LAMELA-VELKA
 10
809.73704450833327
 20
887.75937877672231
 30
0.0
 42
0.9999999999999998
  0
VERTEX
  5
176B
  8
LAMELA-VELKA
 10
809.73704450833327
 20
883.75937877672231
 30
0.0
  0
VERTEX
  5
176C
  8
LAMELA-VELKA
 10
839.23704450833327
 20
883.75937877672231
 30
0.0
 42
0.200072562538303
  0
VERTEX
  5
176D
  8
LAMELA-VELKA
 10
842.76470614417417
 20
886.2593787767222
 30
0.0
  0
VERTEX
  5
176E
  8
LAMELA-VELKA
 10
845.32280149229575
 20
891.25937877672231
 30
0.0
  0
SEQEND
  5
176F
  8
LAMELA-VELKA
  0
DIMENSION
  5
15D0
  8
KOTY-UPLNE
  2
*D29
 10
872.84144414286061
 20
915.25937877672209
 30
0.0
 11
866.59144414286084
 21
929.7785187636664
 31
0.0
 70
     0
 13
442.94444874757949
 23
944.29765875061094
 33
0.0
 14
820.08675885874754
 24
915.25937877672209
 34
0.0
 50
90.0
1001
ACAD
1000
DSTYLE
1002
{
1070
    40
1040
5.0
1070
   147
1040
0.5
1070
    44
1040
0.5
1070
   178
1070
     1
1070
   177
1070
   256
1070
   176
1070
   256
1002
}
  0
DIMENSION
  5
15D1
  8
KOTY-UPLNE
  2
*D28
 10
405.39967327997988
 20
975.47581341786668
 30
0.0
 11
605.43091316732398
 21
981.72581341786668
 31
0.0
 70
     0
 13
805.46215305466808
 23
942.18843683957596
 33
0.0
 14
405.39967327997988
 24
937.18843683957516
 34
0.0
1001
ACAD
1000
DSTYLE
1002
{
1070
    40
1040
5.0
1070
   147
1040
0.5
1070
    44
1040
0.5
1070
   178
1070
     1
1070
   177
1070
   256
1070
   176
1070
   256
1002
}
  0
DIMENSION
  5
15D2
  8
KOTY-UPLNE
  2
*D31
 10
570.69000438698777
 20
957.67422250380616
 30
0.0
 11
505.90904481770929
 21
963.92422250380616
 31
0.0
 12
0.0
 22
-122.63317001327501
 32
0.0
 70
     0
 13
441.12808524843092
 23
943.8029341234809
 33
0.0
 14
570.69000438698777
 24
915.25937877672231
 34
0.0
1001
ACAD
1000
DSTYLE
1002
{
1070
    40
1040
5.0
1070
   147
1040
0.5
1070
    44
1040
0.5
1070
   178
1070
     1
1070
   177
1070
   256
1070
   176
1070
   256
1002
}
  0
DIMENSION
  5
15D3
  8
KOTY-UPLNE
  2
*D30
 10
420.51703117579223
 20
935.63771074512829
 30
0.0
 11
412.958352227886
 21
941.88771074512829
 31
0.0
 12
0.0
 22
-122.63317001327501
 32
0.0
 70
     0
 13
405.39967327997988
 23
914.38684592551465
 33
0.0
 14
420.51703117579223
 24
897.07726678436677
 34
0.0
1001
ACAD
1000
DSTYLE
1002
{
1070
    40
1040
5.0
1070
   147
1040
0.5
1070
    44
1040
0.5
1070
   178
1070
     1
1070
   177
1070
   256
1070
   176
1070
   256
1002
}
  0
DIMENSION
  5
15D4
  8
KOTY-UPLNE
  2
*D34
 10
805.46215305466808
 20
957.67422250380616
 30
0.0
 11
725.39247727348186
 21
963.92422250380616
 31
0.0
 12
100.0
 22
-122.63317001327501
 32
0.0
 70
     0
 13
845.32280149229575
 23
891.25937877672209
 33
0.0
 14
805.46215305466808
 24
919.38684592551556
 34
0.0
1001
ACAD
1000
DSTYLE
1002
{
1070
    40
1040
5.0
1070
   147
1040
0.5
1070
    44
1040
0.5
1070
   178
1070
     1
1070
   177
1070
   256
1070
   176
1070
   256
1002
}
  0
DIMENSION
  5
15D5
  8
KOTY-UPLNE
  2
*D32
 10
820.08675885874754
 20
935.63771074512829
 30
0.0
 11
812.77445595670781
 21
941.99401266105656
 31
0.0
 12
100.0
 22
-122.63317001327501
 32
0.0
 70
   128
 13
805.46215305466808
 23
914.38684592551567
 33
0.0
 14
820.08675885874754
 24
895.12152777126153
 34
0.0
1001
ACAD
1000
DSTYLE
1002
{
1070
    40
1040
5.0
1070
   147
1040
0.5
1070
    44
1040
0.5
1070
   178
1070
     1
1070
   177
1070
   256
1070
   176
1070
   256
1002
}
  0
DIMENSION
  5
15D6
  8
KOTY-UPLNE
  2
*D33
 10
872.84144414286061
 20
915.25937877672209
 30
0.0
 11
766.59144414286061
 21
899.50937877672209
 31
0.0
 12
100.0
 22
-122.63317001327501
 32
0.0
 70
     0
 13
839.23704450833361
 23
883.75937877672197
 33
0.0
 14
799.63704450833268
 24
915.25937877672209
 34
0.0
 50
90.0
1001
ACAD
1000
DSTYLE
1002
{
1070
    40
1040
5.0
1070
   147
1040
0.5
1070
    44
1040
0.5
1070
   178
1070
     1
1070
   177
1070
   256
1070
   176
1070
   256
1002
}
  0
ENDSEC
  0
EOF
