  0
SECTION
  2
HEADER
  9
$ACADVER
  1
AC1014
  9
$ACADMAINTVER
 70
     0
  9
$DWGCODEPAGE
  3
ANSI_1250
  9
$INSBASE
 10
0.0
 20
0.0
 30
0.0
  9
$EXTMIN
 10
375.399673
 20
188.152433
 30
0.0
  9
$EXTMAX
 10
775.341444
 20
2132.465923
 30
0.0
  9
$LIMMIN
 10
0.0
 20
0.0
  9
$LIMMAX
 10
1200.0
 20
880.0
  9
$ORTHOMODE
 70
     1
  9
$REGENMODE
 70
     1
  9
$FILLMODE
 70
     1
  9
$QTEXTMODE
 70
     0
  9
$MIRRTEXT
 70
     0
  9
$DRAGMODE
 70
     2
  9
$LTSCALE
 40
5.0
  9
$OSMODE
 70
   171
  9
$ATTMODE
 70
     1
  9
$TEXTSIZE
 40
100.0
  9
$TRACEWID
 40
1.0
  9
$TEXTSTYLE
  7
TOM
  9
$CLAYER
  8
KOTY-UPLNE
  9
$CELTYPE
  6
BYLAYER
  9
$CECOLOR
 62
   256
  9
$CELTSCALE
 40
1.0
  9
$DELOBJ
 70
     1
  9
$DISPSILH
 70
     0
  9
$DIMSCALE
 40
5.0
  9
$DIMASZ
 40
1.5
  9
$DIMEXO
 40
1.0
  9
$DIMDLI
 40
10.0
  9
$DIMRND
 40
1.0
  9
$DIMDLE
 40
1.0
  9
$DIMEXE
 40
0.5
  9
$DIMTP
 40
0.0
  9
$DIMTM
 40
0.0
  9
$DIMTXT
 40
1.5
  9
$DIMCEN
 40
2.0
  9
$DIMTSZ
 40
0.0
  9
$DIMTOL
 70
     0
  9
$DIMLIM
 70
     0
  9
$DIMTIH
 70
     0
  9
$DIMTOH
 70
     0
  9
$DIMSE1
 70
     0
  9
$DIMSE2
 70
     0
  9
$DIMTAD
 70
     1
  9
$DIMZIN
 70
     9
  9
$DIMBLK
  1

  9
$DIMASO
 70
     1
  9
$DIMSHO
 70
     1
  9
$DIMPOST
  1

  9
$DIMAPOST
  1

  9
$DIMALT
 70
     0
  9
$DIMALTD
 70
     2
  9
$DIMALTF
 40
25.4
  9
$DIMLFAC
 40
1.0
  9
$DIMTOFL
 70
     1
  9
$DIMTVP
 40
0.0
  9
$DIMTIX
 70
     0
  9
$DIMSOXD
 70
     0
  9
$DIMSAH
 70
     0
  9
$DIMBLK1
  1

  9
$DIMBLK2
  1

  9
$DIMSTYLE
  2
KOTY-VELKE
  9
$DIMCLRD
 70
   256
  9
$DIMCLRE
 70
   256
  9
$DIMCLRT
 70
     1
  9
$DIMTFAC
 40
1.0
  9
$DIMGAP
 40
0.5
  9
$DIMJUST
 70
     0
  9
$DIMSD1
 70
     0
  9
$DIMSD2
 70
     0
  9
$DIMTOLJ
 70
     1
  9
$DIMTZIN
 70
     8
  9
$DIMALTZ
 70
     8
  9
$DIMALTTZ
 70
     8
  9
$DIMFIT
 70
     5
  9
$DIMUPT
 70
     0
  9
$DIMUNIT
 70
     2
  9
$DIMDEC
 70
     0
  9
$DIMTDEC
 70
     0
  9
$DIMALTU
 70
     2
  9
$DIMALTTD
 70
     2
  9
$DIMTXSTY
  7
TOM
  9
$DIMAUNIT
 70
     0
  9
$LUNITS
 70
     2
  9
$LUPREC
 70
     2
  9
$SKETCHINC
 40
1.0
  9
$FILLETRAD
 40
3.0
  9
$AUNITS
 70
     0
  9
$AUPREC
 70
     4
  9
$MENU
  1
acad
  9
$ELEVATION
 40
0.0
  9
$PELEVATION
 40
0.0
  9
$THICKNESS
 40
0.0
  9
$LIMCHECK
 70
     0
  9
$BLIPMODE
 70
     0
  9
$CHAMFERA
 40
0.0
  9
$CHAMFERB
 40
0.0
  9
$CHAMFERC
 40
0.0
  9
$CHAMFERD
 40
0.0
  9
$SKPOLY
 70
     0
  9
$TDCREATE
 40
2450098.461194791
  9
$TDUPDATE
 40
2452896.055282060
  9
$TDINDWG
 40
0.4596982639
  9
$TDUSRTIMER
 40
0.4596982639
  9
$USRTIMER
 70
     1
  9
$ANGBASE
 50
0.0
  9
$ANGDIR
 70
     0
  9
$PDMODE
 70
     0
  9
$PDSIZE
 40
0.0
  9
$PLINEWID
 40
0.0
  9
$COORDS
 70
     2
  9
$SPLFRAME
 70
     0
  9
$SPLINETYPE
 70
     6
  9
$SPLINESEGS
 70
     8
  9
$ATTDIA
 70
     0
  9
$ATTREQ
 70
     1
  9
$HANDLING
 70
     1
  9
$HANDSEED
  5
1511
  9
$SURFTAB1
 70
     6
  9
$SURFTAB2
 70
     6
  9
$SURFTYPE
 70
     6
  9
$SURFU
 70
     6
  9
$SURFV
 70
     6
  9
$UCSNAME
  2

  9
$UCSORG
 10
0.0
 20
0.0
 30
0.0
  9
$UCSXDIR
 10
1.0
 20
0.0
 30
0.0
  9
$UCSYDIR
 10
0.0
 20
1.0
 30
0.0
  9
$PUCSNAME
  2

  9
$PUCSORG
 10
0.0
 20
0.0
 30
0.0
  9
$PUCSXDIR
 10
1.0
 20
0.0
 30
0.0
  9
$PUCSYDIR
 10
0.0
 20
1.0
 30
0.0
  9
$USERI1
 70
     0
  9
$USERI2
 70
     0
  9
$USERI3
 70
     0
  9
$USERI4
 70
     0
  9
$USERI5
 70
     0
  9
$USERR1
 40
0.0
  9
$USERR2
 40
0.0
  9
$USERR3
 40
0.0
  9
$USERR4
 40
0.0
  9
$USERR5
 40
0.0
  9
$WORLDVIEW
 70
     1
  9
$SHADEDGE
 70
     3
  9
$SHADEDIF
 70
    70
  9
$TILEMODE
 70
     1
  9
$MAXACTVP
 70
    16
  9
$PINSBASE
 10
0.0
 20
0.0
 30
0.0
  9
$PLIMCHECK
 70
     0
  9
$PEXTMIN
 10
27.943527
 20
19.928417
 30
0.0
  9
$PEXTMAX
 10
251.491745
 20
179.355751
 30
0.0
  9
$PLIMMIN
 10
-3.96875
 20
-7.14375
  9
$PLIMMAX
 10
292.929016
 20
202.900135
  9
$UNITMODE
 70
     0
  9
$VISRETAIN
 70
     0
  9
$PLINEGEN
 70
     0
  9
$PSLTSCALE
 70
     1
  9
$TREEDEPTH
 70
  3020
  9
$PICKSTYLE
 70
     3
  9
$CMLSTYLE
  2
STANDARD
  9
$CMLJUST
 70
     0
  9
$CMLSCALE
 40
1.0
  9
$PROXYGRAPHICS
 70
     1
  9
$MEASUREMENT
 70
     0
  0
ENDSEC
  0
SECTION
  2
CLASSES
  0
CLASS
  1
DICTIONARYVAR
  2
AcDbDictionaryVar
  3
"AutoCAD"
 90
        0
280
     0
281
     0
  0
CLASS
  1
LWPOLYLINE
  2
AcDbPolyline
  3
"AutoCAD"
 90
        0
280
     0
281
     1
  0
CLASS
  1
ACDBDICTIONARYWDFLT
  2
AcDbDictionaryWithDefault
  3
AutoCAD 2000
 90
        0
280
     0
281
     0
  0
CLASS
  1
ACDBPLACEHOLDER
  2
AcDbPlaceHolder
  3
AutoCAD 2000
 90
        0
280
     0
281
     0
  0
CLASS
  1
LAYOUT
  2
AcDbLayout
  3
AutoCAD 2000
 90
        0
280
     0
281
     0
  0
CLASS
  1
LONG_TRANSACTION
  2
AcDbLongTransaction
  3
AutoCAD 2000
 90
        0
280
     0
281
     0
  0
CLASS
  1
LWPOLYLINE
  2
AcDbPolyline
  3
"AutoCAD"
 90
        0
280
     0
281
     1
  0
CLASS
  1
HATCH
  2
AcDbHatch
  3
"ACAD_SEDONA"
 90
        0
280
     0
281
     1
  0
CLASS
  1
XRECORD
  2
AcDbXrecord
  3
"<Built In>"
 90
        0
280
     0
281
     0
  0
ENDSEC
  0
SECTION
  2
TABLES
  0
TABLE
  2
VPORT
  5
19
100
AcDbSymbolTable
 70
     3
  0
VPORT
  5
1510
100
AcDbSymbolTableRecord
100
AcDbViewportTableRecord
  2
*ACTIVE
 70
     0
 10
0.0
 20
0.0
 11
1.0
 21
1.0
 12
628.858449
 22
1827.188756
 13
0.0
 23
0.0
 14
1.0
 24
1.0
 15
1000.0
 25
1000.0
 16
0.0
 26
0.0
 36
1.0
 17
0.0
 27
0.0
 37
0.0
 40
346.510282
 41
2.059548
 42
50.0
 43
0.0
 44
0.0
 50
0.0
 51
0.0
 71
     0
 72
 20000
 73
     1
 74
     1
 75
     0
 76
     0
 77
     0
 78
     0
  0
ENDTAB
  0
TABLE
  2
LTYPE
  5
14
100
AcDbSymbolTable
 70
     2
  0
LTYPE
  5
15
100
AcDbSymbolTableRecord
100
AcDbLinetypeTableRecord
  2
BYBLOCK
 70
     0
  3

 72
    65
 73
     0
 40
0.0
  0
LTYPE
  5
16
100
AcDbSymbolTableRecord
100
AcDbLinetypeTableRecord
  2
BYLAYER
 70
     0
  3

 72
    65
 73
     0
 40
0.0
  0
LTYPE
  5
8
100
AcDbSymbolTableRecord
100
AcDbLinetypeTableRecord
  2
AUSGEZOGEN
 70
     0
  3
Ausgezogene Linie
 72
    65
 73
     0
 40
0.0
  0
LTYPE
  5
3D1
100
AcDbSymbolTableRecord
100
AcDbLinetypeTableRecord
  2
CONTINUOUS
 70
     0
  3
Solid line
 72
    65
 73
     0
 40
0.0
  0
ENDTAB
  0
TABLE
  2
LAYER
  5
10
100
AcDbSymbolTable
 70
     6
  0
LAYER
  5
4
100
AcDbSymbolTableRecord
100
AcDbLayerTableRecord
  2
0
 70
     0
 62
     7
  6
AUSGEZOGEN
  0
LAYER
  5
31
102
{ACAD_XDICTIONARY
360
147
102
}
100
AcDbSymbolTableRecord
100
AcDbLayerTableRecord
  2
DEFPOINTS
 70
     0
 62
     7
  6
AUSGEZOGEN
  0
LAYER
  5
ABF
100
AcDbSymbolTableRecord
100
AcDbLayerTableRecord
  2
KOTY-UPLNE
 70
     0
 62
     5
  6
CONTINUOUS
  0
LAYER
  5
AC0
100
AcDbSymbolTableRecord
100
AcDbLayerTableRecord
  2
LAMELA-VELKA
 70
     0
 62
     7
  6
CONTINUOUS
  0
ENDTAB
  0
TABLE
  2
STYLE
  5
11
100
AcDbSymbolTable
 70
     3
  0
STYLE
  5
12
100
AcDbSymbolTableRecord
100
AcDbTextStyleTableRecord
  2
STANDARD
 70
     0
 40
0.0
 41
1.0
 50
0.0
 71
     0
 42
2.0
  3
txt8.shx
  4

  0
STYLE
  5
1F
100
AcDbSymbolTableRecord
100
AcDbTextStyleTableRecord
  2
SIMPLEX8
 70
     0
 40
0.0
 41
1.0
 50
0.0
 71
     0
 42
100.0
  3
simplex8.shx
  4

  0
STYLE
  5
26
102
{ACAD_XDICTIONARY
360
117
102
}
100
AcDbSymbolTableRecord
100
AcDbTextStyleTableRecord
  2
TOM
 70
     0
 40
0.0
 41
0.9
 50
0.0
 71
     0
 42
100.0
  3
simplex.shx
  4

  0
ENDTAB
  0
TABLE
  2
VIEW
  5
17
100
AcDbSymbolTable
 70
     0
  0
ENDTAB
  0
TABLE
  2
UCS
  5
18
100
AcDbSymbolTable
 70
     0
  0
ENDTAB
  0
TABLE
  2
APPID
  5
1B
100
AcDbSymbolTable
 70
     2
  0
APPID
  5
1C
100
AcDbSymbolTableRecord
100
AcDbRegAppTableRecord
  2
ACAD
 70
     0
  0
APPID
  5
3DA
100
AcDbSymbolTableRecord
100
AcDbRegAppTableRecord
  2
DCO15
 70
     0
  0
ENDTAB
  0
TABLE
  2
DIMSTYLE
  5
1D
100
AcDbSymbolTable
 70
     4
  0
DIMSTYLE
105
20
102
{ACAD_XDICTIONARY
360
145
102
}
100
AcDbSymbolTableRecord
100
AcDbDimStyleTableRecord
  2
PFLAUM2-35
 70
     0
  3

  4

  5

  6

  7

 40
2.0
 41
0.0
 42
1.0
 43
7.0
 44
1.0
 45
1.0
 46
1.0
 47
0.0
 48
0.0
140
3.5
141
2.0
142
1.0
143
25.4
144
1.0
145
0.0
146
1.0
147
0.0
 71
     0
 72
     0
 73
     0
 74
     0
 75
     0
 76
     0
 77
     1
 78
     8
170
     0
171
     2
172
     1
173
     0
174
     0
175
     0
176
     7
177
     7
178
    30
270
     2
271
     2
272
     2
273
     2
274
     2
340
1F
275
     0
280
     0
281
     0
282
     0
283
     1
284
     8
285
     8
286
     8
287
     5
288
     0
  0
DIMSTYLE
105
3D9
100
AcDbSymbolTableRecord
100
AcDbDimStyleTableRecord
  2
STANDARD
 70
     0
  3

  4

  5

  6

  7

 40
1.0
 41
0.18
 42
0.0625
 43
0.38
 44
0.18
 45
0.0
 46
0.0
 47
0.0
 48
0.0
140
0.18
141
0.09
142
0.0
143
25.4
144
1.0
145
0.0
146
1.0
147
0.09
 71
     0
 72
     0
 73
     1
 74
     1
 75
     0
 76
     0
 77
     0
 78
     0
170
     0
171
     2
172
     0
173
     0
174
     0
175
     0
176
     0
177
     0
178
     0
270
     2
271
     4
272
     4
273
     2
274
     2
340
12
275
     0
280
     0
281
     0
282
     0
283
     1
284
     0
285
     0
286
     0
287
     3
288
     0
  0
DIMSTYLE
105
ACF
102
{ACAD_REACTORS
330
D53
330
D4F
330
D51
330
D52
330
14A0
330
14A3
330
14A2
330
14A4
330
14F3
102
}
100
AcDbSymbolTableRecord
100
AcDbDimStyleTableRecord
  2
KOTY-VELKE
 70
     0
  3

  4

  5

  6

  7

 40
3.0
 41
1.5
 42
1.0
 43
10.0
 44
0.0
 45
1.0
 46
1.0
 47
0.0
 48
0.0
140
1.5
141
2.0
142
0.0
143
25.4
144
1.0
145
0.0
146
1.0
147
1.5
 71
     0
 72
     0
 73
     0
 74
     0
 75
     0
 76
     0
 77
     1
 78
     9
170
     0
171
     2
172
     1
173
     0
174
     0
175
     0
176
   170
177
   170
178
    50
270
     2
271
     0
272
     0
273
     2
274
     2
340
26
275
     0
280
     0
281
     0
282
     0
283
     1
284
     8
285
     8
286
     8
287
     5
288
     0
  0
ENDTAB
  0
TABLE
  2
BLOCK_RECORD
  5
1
100
AcDbSymbolTable
 70
    26
  0
BLOCK_RECORD
  5
2
102
{ACAD_XDICTIONARY
360
13E
102
}
100
AcDbSymbolTableRecord
100
AcDbBlockTableRecord
  2
*MODEL_SPACE
  0
BLOCK_RECORD
  5
C
102
{ACAD_XDICTIONARY
360
111
102
}
100
AcDbSymbolTableRecord
100
AcDbBlockTableRecord
  2
*PAPER_SPACE
  0
BLOCK_RECORD
  5
D60
100
AcDbSymbolTableRecord
100
AcDbBlockTableRecord
  2
*D14
  0
BLOCK_RECORD
  5
D6C
100
AcDbSymbolTableRecord
100
AcDbBlockTableRecord
  2
*D15
  0
BLOCK_RECORD
  5
D7A
100
AcDbSymbolTableRecord
100
AcDbBlockTableRecord
  2
*D16
  0
BLOCK_RECORD
  5
D86
100
AcDbSymbolTableRecord
100
AcDbBlockTableRecord
  2
*D17
  0
BLOCK_RECORD
  5
14A6
100
AcDbSymbolTableRecord
100
AcDbBlockTableRecord
  2
*D19
  0
BLOCK_RECORD
  5
14C0
100
AcDbSymbolTableRecord
100
AcDbBlockTableRecord
  2
*D21
  0
BLOCK_RECORD
  5
14CC
100
AcDbSymbolTableRecord
100
AcDbBlockTableRecord
  2
*D22
  0
BLOCK_RECORD
  5
14DB
100
AcDbSymbolTableRecord
100
AcDbBlockTableRecord
  2
*D23
  0
BLOCK_RECORD
  5
14E7
100
AcDbSymbolTableRecord
100
AcDbBlockTableRecord
  2
*D24
  0
BLOCK_RECORD
  5
14F5
100
AcDbSymbolTableRecord
100
AcDbBlockTableRecord
  2
*D25
  0
ENDTAB
  0
ENDSEC
  0
SECTION
  2
BLOCKS
  0
BLOCK
  5
3
100
AcDbEntity
  8
0
100
AcDbBlockBegin
  2
*MODEL_SPACE
 70
     0
 10
0.0
 20
0.0
 30
0.0
  3
*MODEL_SPACE
  1

  0
ENDBLK
  5
9
100
AcDbEntity
  8
0
100
AcDbBlockEnd
  0
BLOCK
  5
D
100
AcDbEntity
 67
     1
  8
0
100
AcDbBlockBegin
  2
*PAPER_SPACE
 70
     0
 10
0.0
 20
0.0
 30
0.0
  3
*PAPER_SPACE
  1

  0
ENDBLK
  5
E
100
AcDbEntity
 67
     1
  8
0
100
AcDbBlockEnd
  0
BLOCK
  5
D61
100
AcDbEntity
  8
0
100
AcDbBlockBegin
  2
*D14
 70
     1
 10
0.0
 20
0.0
 30
0.0
  3
*D14
  1

  0
LINE
  5
D62
100
AcDbEntity
  8
0
  6
BYBLOCK
100
AcDbLine
 10
744.237044
 20
2038.55108
 30
0.0
 11
775.341444
 21
2038.55108
 31
0.0
  0
LINE
  5
D63
100
AcDbEntity
  8
0
  6
BYBLOCK
100
AcDbLine
 10
704.637044
 20
2070.05108
 30
0.0
 11
775.341444
 21
2070.05108
 31
0.0
  0
LINE
  5
D64
100
AcDbEntity
  8
0
  6
BYBLOCK
100
AcDbLine
 10
772.841444
 20
2046.05108
 30
0.0
 11
772.841444
 21
2062.55108
 31
0.0
  0
SOLID
  5
D65
100
AcDbEntity
  8
0
  6
BYBLOCK
100
AcDbTrace
 10
771.591444
 20
2046.05108
 30
0.0
 11
774.091444
 21
2046.05108
 31
0.0
 12
772.841444
 22
2038.55108
 32
0.0
 13
772.841444
 23
2038.55108
 33
0.0
  0
SOLID
  5
D66
100
AcDbEntity
  8
0
  6
BYBLOCK
100
AcDbTrace
 10
771.591444
 20
2062.55108
 30
0.0
 11
774.091444
 21
2062.55108
 31
0.0
 12
772.841444
 22
2070.05108
 32
0.0
 13
772.841444
 23
2070.05108
 33
0.0
  0
MTEXT
  5
D67
100
AcDbEntity
  8
0
  6
BYBLOCK
 62
     1
100
AcDbMText
 10
766.591444
 20
2054.30108
 30
0.0
 40
7.5
 41
0.0
 71
     5
 72
     1
  1
\A1;32
  7
TOM
 11
0.0
 21
1.0
 31
0.0
  0
POINT
  5
D68
100
AcDbEntity
  8
DEFPOINTS
  6
BYBLOCK
 62
     0
100
AcDbPoint
 10
739.237044
 20
2038.55108
 30
0.0
  0
POINT
  5
D69
100
AcDbEntity
  8
DEFPOINTS
  6
BYBLOCK
 62
     0
100
AcDbPoint
 10
699.637044
 20
2070.05108
 30
0.0
  0
POINT
  5
D6A
100
AcDbEntity
  8
DEFPOINTS
  6
BYBLOCK
 62
     0
100
AcDbPoint
 10
772.841444
 20
2070.05108
 30
0.0
  0
ENDBLK
  5
D6B
100
AcDbEntity
  8
0
100
AcDbBlockEnd
  0
BLOCK
  5
D6D
100
AcDbEntity
  8
0
100
AcDbBlockBegin
  2
*D15
 70
     1
 10
0.0
 20
0.0
 30
0.0
  3
*D15
  1

  0
LINE
  5
D6E
100
AcDbEntity
  8
0
  6
BYBLOCK
100
AcDbLine
 10
405.399673
 20
2074.178547
 30
0.0
 11
405.399673
 21
2092.929412
 31
0.0
  0
LINE
  5
D6F
100
AcDbEntity
  8
0
  6
BYBLOCK
100
AcDbLine
 10
420.517031
 20
2056.868968
 30
0.0
 11
420.517031
 21
2092.929412
 31
0.0
  0
LINE
  5
D70
100
AcDbEntity
  8
0
  6
BYBLOCK
100
AcDbLine
 10
397.899673
 20
2090.429412
 30
0.0
 11
390.399673
 21
2090.429412
 31
0.0
  0
LINE
  5
D71
100
AcDbEntity
  8
0
  6
BYBLOCK
100
AcDbLine
 10
428.017031
 20
2090.429412
 30
0.0
 11
435.517031
 21
2090.429412
 31
0.0
  0
LINE
  5
D72
100
AcDbEntity
  8
0
  6
BYBLOCK
100
AcDbLine
 10
405.399673
 20
2090.429412
 30
0.0
 11
420.517031
 21
2090.429412
 31
0.0
  0
SOLID
  5
D73
100
AcDbEntity
  8
0
  6
BYBLOCK
100
AcDbTrace
 10
397.899673
 20
2091.679412
 30
0.0
 11
397.899673
 21
2089.179412
 31
0.0
 12
405.399673
 22
2090.429412
 32
0.0
 13
405.399673
 23
2090.429412
 33
0.0
  0
SOLID
  5
D74
100
AcDbEntity
  8
0
  6
BYBLOCK
100
AcDbTrace
 10
428.017031
 20
2091.679412
 30
0.0
 11
428.017031
 21
2089.179412
 31
0.0
 12
420.517031
 22
2090.429412
 32
0.0
 13
420.517031
 23
2090.429412
 33
0.0
  0
MTEXT
  5
D75
100
AcDbEntity
  8
0
  6
BYBLOCK
 62
     1
100
AcDbMText
 10
412.958352
 20
2096.679412
 30
0.0
 40
7.5
 41
0.0
 71
     5
 72
     1
  1
\A1;15
  7
TOM
  0
POINT
  5
D76
100
AcDbEntity
  8
DEFPOINTS
  6
BYBLOCK
 62
     0
100
AcDbPoint
 10
405.399673
 20
2069.178547
 30
0.0
  0
POINT
  5
D77
100
AcDbEntity
  8
DEFPOINTS
  6
BYBLOCK
 62
     0
100
AcDbPoint
 10
420.517031
 20
2051.868968
 30
0.0
  0
POINT
  5
D78
100
AcDbEntity
  8
DEFPOINTS
  6
BYBLOCK
 62
     0
100
AcDbPoint
 10
420.517031
 20
2090.429412
 30
0.0
  0
ENDBLK
  5
D79
100
AcDbEntity
  8
0
100
AcDbBlockEnd
  0
BLOCK
  5
D7B
100
AcDbEntity
  8
0
100
AcDbBlockBegin
  2
*D16
 70
     1
 10
0.0
 20
0.0
 30
0.0
  3
*D16
  1

  0
LINE
  5
D7C
100
AcDbEntity
  8
0
  6
BYBLOCK
100
AcDbLine
 10
745.322801
 20
2051.05108
 30
0.0
 11
745.322801
 21
2114.965923
 31
0.0
  0
LINE
  5
D7D
100
AcDbEntity
  8
0
  6
BYBLOCK
100
AcDbLine
 10
705.462153
 20
2079.178547
 30
0.0
 11
705.462153
 21
2114.965923
 31
0.0
  0
LINE
  5
D7E
100
AcDbEntity
  8
0
  6
BYBLOCK
100
AcDbLine
 10
737.822801
 20
2112.465923
 30
0.0
 11
712.962153
 21
2112.465923
 31
0.0
  0
SOLID
  5
D7F
100
AcDbEntity
  8
0
  6
BYBLOCK
100
AcDbTrace
 10
737.822801
 20
2113.715923
 30
0.0
 11
737.822801
 21
2111.215923
 31
0.0
 12
745.322801
 22
2112.465923
 32
0.0
 13
745.322801
 23
2112.465923
 33
0.0
  0
SOLID
  5
D80
100
AcDbEntity
  8
0
  6
BYBLOCK
100
AcDbTrace
 10
712.962153
 20
2113.715923
 30
0.0
 11
712.962153
 21
2111.215923
 31
0.0
 12
705.462153
 22
2112.465923
 32
0.0
 13
705.462153
 23
2112.465923
 33
0.0
  0
MTEXT
  5
D81
100
AcDbEntity
  8
0
  6
BYBLOCK
 62
     1
100
AcDbMText
 10
725.392477
 20
2118.715923
 30
0.0
 40
7.5
 41
0.0
 71
     5
 72
     1
  1
\A1;40
  7
TOM
  0
POINT
  5
D82
100
AcDbEntity
  8
DEFPOINTS
  6
BYBLOCK
 62
     0
100
AcDbPoint
 10
745.322801
 20
2046.05108
 30
0.0
  0
POINT
  5
D83
100
AcDbEntity
  8
DEFPOINTS
  6
BYBLOCK
 62
     0
100
AcDbPoint
 10
705.462153
 20
2074.178547
 30
0.0
  0
POINT
  5
D84
100
AcDbEntity
  8
DEFPOINTS
  6
BYBLOCK
 62
     0
100
AcDbPoint
 10
705.462153
 20
2112.465923
 30
0.0
  0
ENDBLK
  5
D85
100
AcDbEntity
  8
0
100
AcDbBlockEnd
  0
BLOCK
  5
D87
100
AcDbEntity
  8
0
100
AcDbBlockBegin
  2
*D17
 70
     1
 10
0.0
 20
0.0
 30
0.0
  3
*D17
  1

  0
LINE
  5
D88
100
AcDbEntity
  8
0
  6
BYBLOCK
100
AcDbLine
 10
705.462153
 20
2074.178547
 30
0.0
 11
705.462153
 21
2092.929412
 31
0.0
  0
LINE
  5
D89
100
AcDbEntity
  8
0
  6
BYBLOCK
100
AcDbLine
 10
720.086758
 20
2054.913229
 30
0.0
 11
720.086758
 21
2092.929412
 31
0.0
  0
LINE
  5
D8A
100
AcDbEntity
  8
0
  6
BYBLOCK
100
AcDbLine
 10
697.962153
 20
2090.429412
 30
0.0
 11
690.462153
 21
2090.429412
 31
0.0
  0
LINE
  5
D8B
100
AcDbEntity
  8
0
  6
BYBLOCK
100
AcDbLine
 10
727.586758
 20
2090.429412
 30
0.0
 11
735.086758
 21
2090.429412
 31
0.0
  0
MTEXT
  5
D8C
100
AcDbEntity
  8
0
  6
BYBLOCK
 62
     1
100
AcDbMText
 10
712.774456
 20
2096.785714
 30
0.0
 40
7.5
 41
0.0
 71
     5
 72
     1
  1
\A1;15
  7
TOM
  0
LINE
  5
D8D
100
AcDbEntity
  8
0
  6
BYBLOCK
100
AcDbLine
 10
705.462153
 20
2090.429412
 30
0.0
 11
720.086758
 21
2090.429412
 31
0.0
  0
LINE
  5
D8E
100
AcDbEntity
  8
0
  6
BYBLOCK
100
AcDbLine
 10
705.462153
 20
2090.429412
 30
0.0
 11
720.086758
 21
2090.429412
 31
0.0
  0
SOLID
  5
D8F
100
AcDbEntity
  8
0
  6
BYBLOCK
100
AcDbTrace
 10
697.962153
 20
2091.679412
 30
0.0
 11
697.962153
 21
2089.179412
 31
0.0
 12
705.462153
 22
2090.429412
 32
0.0
 13
705.462153
 23
2090.429412
 33
0.0
  0
SOLID
  5
D90
100
AcDbEntity
  8
0
  6
BYBLOCK
100
AcDbTrace
 10
727.586758
 20
2091.679412
 30
0.0
 11
727.586758
 21
2089.179412
 31
0.0
 12
720.086758
 22
2090.429412
 32
0.0
 13
720.086758
 23
2090.429412
 33
0.0
  0
POINT
  5
D91
100
AcDbEntity
  8
DEFPOINTS
  6
BYBLOCK
 62
     0
100
AcDbPoint
 10
705.462153
 20
2069.178547
 30
0.0
  0
POINT
  5
D92
100
AcDbEntity
  8
DEFPOINTS
  6
BYBLOCK
 62
     0
100
AcDbPoint
 10
720.086758
 20
2049.913229
 30
0.0
  0
POINT
  5
D93
100
AcDbEntity
  8
DEFPOINTS
  6
BYBLOCK
 62
     0
100
AcDbPoint
 10
720.086758
 20
2090.429412
 30
0.0
  0
ENDBLK
  5
D94
100
AcDbEntity
  8
0
100
AcDbBlockEnd
  0
BLOCK
  5
14A7
100
AcDbEntity
  8
0
100
AcDbBlockBegin
  2
*D19
 70
     1
 10
0.0
 20
0.0
 30
0.0
  3
*D19
  1

  0
LINE
  5
14A8
100
AcDbEntity
  8
0
  6
BYBLOCK
100
AcDbLine
 10
405.399673
 20
1854.567154
 30
0.0
 11
405.399673
 21
1873.318019
 31
0.0
  0
LINE
  5
14A9
100
AcDbEntity
  8
0
  6
BYBLOCK
100
AcDbLine
 10
420.517031
 20
1837.257575
 30
0.0
 11
420.517031
 21
1873.318019
 31
0.0
  0
LINE
  5
14AA
100
AcDbEntity
  8
0
  6
BYBLOCK
100
AcDbLine
 10
397.899673
 20
1870.818019
 30
0.0
 11
390.399673
 21
1870.818019
 31
0.0
  0
LINE
  5
14AB
100
AcDbEntity
  8
0
  6
BYBLOCK
100
AcDbLine
 10
428.017031
 20
1870.818019
 30
0.0
 11
435.517031
 21
1870.818019
 31
0.0
  0
LINE
  5
14AC
100
AcDbEntity
  8
0
  6
BYBLOCK
100
AcDbLine
 10
405.399673
 20
1870.818019
 30
0.0
 11
420.517031
 21
1870.818019
 31
0.0
  0
SOLID
  5
14AD
100
AcDbEntity
  8
0
  6
BYBLOCK
100
AcDbTrace
 10
397.899673
 20
1872.068019
 30
0.0
 11
397.899673
 21
1869.568019
 31
0.0
 12
405.399673
 22
1870.818019
 32
0.0
 13
405.399673
 23
1870.818019
 33
0.0
  0
SOLID
  5
14AE
100
AcDbEntity
  8
0
  6
BYBLOCK
100
AcDbTrace
 10
428.017031
 20
1872.068019
 30
0.0
 11
428.017031
 21
1869.568019
 31
0.0
 12
420.517031
 22
1870.818019
 32
0.0
 13
420.517031
 23
1870.818019
 33
0.0
  0
MTEXT
  5
14AF
100
AcDbEntity
  8
0
  6
BYBLOCK
 62
     1
100
AcDbMText
 10
412.958352
 20
1877.068019
 30
0.0
 40
7.5
 41
0.0
 71
     5
 72
     1
  1
\A1;15
  7
TOM
  0
POINT
  5
14B0
100
AcDbEntity
  8
DEFPOINTS
  6
BYBLOCK
 62
     0
100
AcDbPoint
 10
405.399673
 20
1849.567154
 30
0.0
  0
POINT
  5
14B1
100
AcDbEntity
  8
DEFPOINTS
  6
BYBLOCK
 62
     0
100
AcDbPoint
 10
420.517031
 20
1832.257575
 30
0.0
  0
POINT
  5
14B2
100
AcDbEntity
  8
DEFPOINTS
  6
BYBLOCK
 62
     0
100
AcDbPoint
 10
420.517031
 20
1870.818019
 30
0.0
  0
ENDBLK
  5
14B3
100
AcDbEntity
  8
0
100
AcDbBlockEnd
  0
BLOCK
  5
14C1
100
AcDbEntity
  8
0
100
AcDbBlockBegin
  2
*D21
 70
     1
 10
0.0
 20
0.0
 30
0.0
  3
*D21
  1

  0
LINE
  5
14C2
100
AcDbEntity
  8
0
  6
BYBLOCK
100
AcDbLine
 10
745.322801
 20
1831.439687
 30
0.0
 11
745.322801
 21
1895.354531
 31
0.0
  0
LINE
  5
14C3
100
AcDbEntity
  8
0
  6
BYBLOCK
100
AcDbLine
 10
705.462153
 20
1859.567154
 30
0.0
 11
705.462153
 21
1895.354531
 31
0.0
  0
LINE
  5
14C4
100
AcDbEntity
  8
0
  6
BYBLOCK
100
AcDbLine
 10
737.822801
 20
1892.854531
 30
0.0
 11
712.962153
 21
1892.854531
 31
0.0
  0
SOLID
  5
14C5
100
AcDbEntity
  8
0
  6
BYBLOCK
100
AcDbTrace
 10
737.822801
 20
1894.104531
 30
0.0
 11
737.822801
 21
1891.604531
 31
0.0
 12
745.322801
 22
1892.854531
 32
0.0
 13
745.322801
 23
1892.854531
 33
0.0
  0
SOLID
  5
14C6
100
AcDbEntity
  8
0
  6
BYBLOCK
100
AcDbTrace
 10
712.962153
 20
1894.104531
 30
0.0
 11
712.962153
 21
1891.604531
 31
0.0
 12
705.462153
 22
1892.854531
 32
0.0
 13
705.462153
 23
1892.854531
 33
0.0
  0
MTEXT
  5
14C7
100
AcDbEntity
  8
0
  6
BYBLOCK
 62
     1
100
AcDbMText
 10
725.392477
 20
1899.104531
 30
0.0
 40
7.5
 41
0.0
 71
     5
 72
     1
  1
\A1;40
  7
TOM
  0
POINT
  5
14C8
100
AcDbEntity
  8
DEFPOINTS
  6
BYBLOCK
 62
     0
100
AcDbPoint
 10
745.322801
 20
1826.439687
 30
0.0
  0
POINT
  5
14C9
100
AcDbEntity
  8
DEFPOINTS
  6
BYBLOCK
 62
     0
100
AcDbPoint
 10
705.462153
 20
1854.567154
 30
0.0
  0
POINT
  5
14CA
100
AcDbEntity
  8
DEFPOINTS
  6
BYBLOCK
 62
     0
100
AcDbPoint
 10
705.462153
 20
1892.854531
 30
0.0
  0
ENDBLK
  5
14CB
100
AcDbEntity
  8
0
100
AcDbBlockEnd
  0
BLOCK
  5
14CD
100
AcDbEntity
  8
0
100
AcDbBlockBegin
  2
*D22
 70
     1
 10
0.0
 20
0.0
 30
0.0
  3
*D22
  1

  0
LINE
  5
14CE
100
AcDbEntity
  8
0
  6
BYBLOCK
100
AcDbLine
 10
705.462153
 20
1854.567154
 30
0.0
 11
705.462153
 21
1873.318019
 31
0.0
  0
LINE
  5
14CF
100
AcDbEntity
  8
0
  6
BYBLOCK
100
AcDbLine
 10
720.086758
 20
1835.301836
 30
0.0
 11
720.086758
 21
1873.318019
 31
0.0
  0
LINE
  5
14D0
100
AcDbEntity
  8
0
  6
BYBLOCK
100
AcDbLine
 10
697.962153
 20
1870.818019
 30
0.0
 11
690.462153
 21
1870.818019
 31
0.0
  0
LINE
  5
14D1
100
AcDbEntity
  8
0
  6
BYBLOCK
100
AcDbLine
 10
727.586758
 20
1870.818019
 30
0.0
 11
735.086758
 21
1870.818019
 31
0.0
  0
MTEXT
  5
14D2
100
AcDbEntity
  8
0
  6
BYBLOCK
 62
     1
100
AcDbMText
 10
712.774456
 20
1877.174321
 30
0.0
 40
7.5
 41
0.0
 71
     5
 72
     1
  1
\A1;15
  7
TOM
  0
LINE
  5
14D3
100
AcDbEntity
  8
0
  6
BYBLOCK
100
AcDbLine
 10
705.462153
 20
1870.818019
 30
0.0
 11
720.086758
 21
1870.818019
 31
0.0
  0
LINE
  5
14D4
100
AcDbEntity
  8
0
  6
BYBLOCK
100
AcDbLine
 10
705.462153
 20
1870.818019
 30
0.0
 11
720.086758
 21
1870.818019
 31
0.0
  0
SOLID
  5
14D5
100
AcDbEntity
  8
0
  6
BYBLOCK
100
AcDbTrace
 10
697.962153
 20
1872.068019
 30
0.0
 11
697.962153
 21
1869.568019
 31
0.0
 12
705.462153
 22
1870.818019
 32
0.0
 13
705.462153
 23
1870.818019
 33
0.0
  0
SOLID
  5
14D6
100
AcDbEntity
  8
0
  6
BYBLOCK
100
AcDbTrace
 10
727.586758
 20
1872.068019
 30
0.0
 11
727.586758
 21
1869.568019
 31
0.0
 12
720.086758
 22
1870.818019
 32
0.0
 13
720.086758
 23
1870.818019
 33
0.0
  0
POINT
  5
14D7
100
AcDbEntity
  8
DEFPOINTS
  6
BYBLOCK
 62
     0
100
AcDbPoint
 10
705.462153
 20
1849.567154
 30
0.0
  0
POINT
  5
14D8
100
AcDbEntity
  8
DEFPOINTS
  6
BYBLOCK
 62
     0
100
AcDbPoint
 10
720.086758
 20
1830.301836
 30
0.0
  0
POINT
  5
14D9
100
AcDbEntity
  8
DEFPOINTS
  6
BYBLOCK
 62
     0
100
AcDbPoint
 10
720.086758
 20
1870.818019
 30
0.0
  0
ENDBLK
  5
14DA
100
AcDbEntity
  8
0
100
AcDbBlockEnd
  0
BLOCK
  5
14DC
100
AcDbEntity
  8
0
100
AcDbBlockBegin
  2
*D23
 70
     1
 10
0.0
 20
0.0
 30
0.0
  3
*D23
  1

  0
LINE
  5
14DD
100
AcDbEntity
  8
0
  6
BYBLOCK
100
AcDbLine
 10
744.237044
 20
1818.939687
 30
0.0
 11
775.341444
 21
1818.939687
 31
0.0
  0
LINE
  5
14DE
100
AcDbEntity
  8
0
  6
BYBLOCK
100
AcDbLine
 10
704.637044
 20
1850.439687
 30
0.0
 11
775.341444
 21
1850.439687
 31
0.0
  0
LINE
  5
14DF
100
AcDbEntity
  8
0
  6
BYBLOCK
100
AcDbLine
 10
772.841444
 20
1826.439687
 30
0.0
 11
772.841444
 21
1842.939687
 31
0.0
  0
SOLID
  5
14E0
100
AcDbEntity
  8
0
  6
BYBLOCK
100
AcDbTrace
 10
771.591444
 20
1826.439687
 30
0.0
 11
774.091444
 21
1826.439687
 31
0.0
 12
772.841444
 22
1818.939687
 32
0.0
 13
772.841444
 23
1818.939687
 33
0.0
  0
SOLID
  5
14E1
100
AcDbEntity
  8
0
  6
BYBLOCK
100
AcDbTrace
 10
771.591444
 20
1842.939687
 30
0.0
 11
774.091444
 21
1842.939687
 31
0.0
 12
772.841444
 22
1850.439687
 32
0.0
 13
772.841444
 23
1850.439687
 33
0.0
  0
MTEXT
  5
14E2
100
AcDbEntity
  8
0
  6
BYBLOCK
 62
     1
100
AcDbMText
 10
766.591444
 20
1834.689687
 30
0.0
 40
7.5
 41
0.0
 71
     5
 72
     1
  1
\A1;32
  7
TOM
 11
0.0
 21
1.0
 31
0.0
  0
POINT
  5
14E3
100
AcDbEntity
  8
DEFPOINTS
  6
BYBLOCK
 62
     0
100
AcDbPoint
 10
739.237044
 20
1818.939687
 30
0.0
  0
POINT
  5
14E4
100
AcDbEntity
  8
DEFPOINTS
  6
BYBLOCK
 62
     0
100
AcDbPoint
 10
699.637044
 20
1850.439687
 30
0.0
  0
POINT
  5
14E5
100
AcDbEntity
  8
DEFPOINTS
  6
BYBLOCK
 62
     0
100
AcDbPoint
 10
772.841444
 20
1850.439687
 30
0.0
  0
ENDBLK
  5
14E6
100
AcDbEntity
  8
0
100
AcDbBlockEnd
  0
BLOCK
  5
1504
100
AcDbEntity
  8
0
100
AcDbBlockBegin
  2
*D24
 70
     1
 10
0.0
 20
0.0
 30
0.0
  3
*D24
  1

  0
LINE
  5
1505
100
AcDbEntity
  8
0
  6
BYBLOCK
100
AcDbLine
 10
605.462153
 20
1864.567154
 30
0.0
 11
605.462153
 21
1895.354531
 31
0.0
  0
LINE
  5
1506
100
AcDbEntity
  8
0
  6
BYBLOCK
100
AcDbLine
 10
405.399673
 20
1864.567154
 30
0.0
 11
405.399673
 21
1895.354531
 31
0.0
  0
LINE
  5
1507
100
AcDbEntity
  8
0
  6
BYBLOCK
100
AcDbLine
 10
597.962153
 20
1892.854531
 30
0.0
 11
412.899673
 21
1892.854531
 31
0.0
  0
SOLID
  5
1508
100
AcDbEntity
  8
0
  6
BYBLOCK
100
AcDbTrace
 10
597.962153
 20
1894.104531
 30
0.0
 11
597.962153
 21
1891.604531
 31
0.0
 12
605.462153
 22
1892.854531
 32
0.0
 13
605.462153
 23
1892.854531
 33
0.0
  0
SOLID
  5
1509
100
AcDbEntity
  8
0
  6
BYBLOCK
100
AcDbTrace
 10
412.899673
 20
1894.104531
 30
0.0
 11
412.899673
 21
1891.604531
 31
0.0
 12
405.399673
 22
1892.854531
 32
0.0
 13
405.399673
 23
1892.854531
 33
0.0
  0
MTEXT
  5
150A
100
AcDbEntity
  8
0
  6
BYBLOCK
 62
     1
100
AcDbMText
 10
505.430913
 20
1899.104531
 30
0.0
 40
7.5
 41
0.0
 71
     5
 72
     1
  1
\A1;200
  7
TOM
  0
POINT
  5
150B
100
AcDbEntity
  8
DEFPOINTS
  6
BYBLOCK
 62
     0
100
AcDbPoint
 10
605.462153
 20
1859.567154
 30
0.0
  0
POINT
  5
150C
100
AcDbEntity
  8
DEFPOINTS
  6
BYBLOCK
 62
     0
100
AcDbPoint
 10
405.399673
 20
1859.567154
 30
0.0
  0
POINT
  5
150D
100
AcDbEntity
  8
DEFPOINTS
  6
BYBLOCK
 62
     0
100
AcDbPoint
 10
405.399673
 20
1892.854531
 30
0.0
  0
ENDBLK
  5
150E
100
AcDbEntity
  8
0
100
AcDbBlockEnd
  0
BLOCK
  5
14F6
100
AcDbEntity
  8
0
100
AcDbBlockBegin
  2
*D25
 70
     1
 10
0.0
 20
0.0
 30
0.0
  3
*D25
  1

  0
LINE
  5
14F7
100
AcDbEntity
  8
0
  6
BYBLOCK
100
AcDbLine
 10
705.462153
 20
1864.567154
 30
0.0
 11
705.462153
 21
1895.354531
 31
0.0
  0
LINE
  5
14F8
100
AcDbEntity
  8
0
  6
BYBLOCK
100
AcDbLine
 10
405.399673
 20
1864.567154
 30
0.0
 11
405.399673
 21
1895.354531
 31
0.0
  0
LINE
  5
14F9
100
AcDbEntity
  8
0
  6
BYBLOCK
100
AcDbLine
 10
697.962153
 20
1892.854531
 30
0.0
 11
412.899673
 21
1892.854531
 31
0.0
  0
SOLID
  5
14FA
100
AcDbEntity
  8
0
  6
BYBLOCK
100
AcDbTrace
 10
697.962153
 20
1894.104531
 30
0.0
 11
697.962153
 21
1891.604531
 31
0.0
 12
705.462153
 22
1892.854531
 32
0.0
 13
705.462153
 23
1892.854531
 33
0.0
  0
SOLID
  5
14FB
100
AcDbEntity
  8
0
  6
BYBLOCK
100
AcDbTrace
 10
412.899673
 20
1894.104531
 30
0.0
 11
412.899673
 21
1891.604531
 31
0.0
 12
405.399673
 22
1892.854531
 32
0.0
 13
405.399673
 23
1892.854531
 33
0.0
  0
MTEXT
  5
14FC
100
AcDbEntity
  8
0
  6
BYBLOCK
 62
     1
100
AcDbMText
 10
555.430913
 20
1899.104531
 30
0.0
 40
7.5
 41
0.0
 71
     5
 72
     1
  1
\A1;300
  7
TOM
  0
POINT
  5
14FD
100
AcDbEntity
  8
DEFPOINTS
  6
BYBLOCK
 62
     0
100
AcDbPoint
 10
705.462153
 20
1859.567154
 30
0.0
  0
POINT
  5
14FE
100
AcDbEntity
  8
DEFPOINTS
  6
BYBLOCK
 62
     0
100
AcDbPoint
 10
405.399673
 20
1859.567154
 30
0.0
  0
POINT
  5
14FF
100
AcDbEntity
  8
DEFPOINTS
  6
BYBLOCK
 62
     0
100
AcDbPoint
 10
405.399673
 20
1892.854531
 30
0.0
  0
ENDBLK
  5
1500
100
AcDbEntity
  8
0
100
AcDbBlockEnd
  0
ENDSEC
  0
SECTION
  2
ENTITIES
  0
MTEXT
  5
27C
100
AcDbEntity
  8
0
100
AcDbMText
 10
490.641197
 20
1937.805273
 30
0.0
 40
10.0
 41
160.24
 71
     1
 72
     5
  1
Linear L
  7
TOM
1001
ACAD
1000
MTEXTBEGIN
1070
    73
1070
     1
1070
    44
1040
1.0
1070
    74
1070
     0
1000
MTEXTEND
  0
LWPOLYLINE
  5
AC9
100
AcDbEntity
  8
LAMELA-VELKA
100
AcDbPolyline
 90
        5
 70
     0
 43
2.0
 10
412.333139
 20
1821.116409
 42
0.287877
 10
420.517031
 20
1832.257575
 42
0.413777
 10
408.517044
 20
1844.239687
 42
-1.0
 10
408.517045
 20
1850.439687
 42
0.164435
 10
412.103477
 20
1851.27813
  0
LWPOLYLINE
  5
ACC
100
AcDbEntity
  8
LAMELA-VELKA
100
AcDbPolyline
 90
      458
 70
     0
 43
2.0
 10
412.08849
 20
1851.302269
 10
412.445639
 20
1851.556479
 10
412.802787
 20
1851.78319
 10
413.159936
 20
1851.976819
 10
413.517085
 20
1852.1326
 10
413.874233
 20
1852.246695
 10
414.231382
 20
1852.316295
 10
414.593544
 20
1852.339687
 10
414.955706
 20
1852.316295
 10
415.312855
 20
1852.246695
 10
415.670004
 20
1852.1326
 10
416.027152
 20
1851.976819
 10
416.384301
 20
1851.78319
 10
416.74145
 20
1851.556479
 10
417.098598
 20
1851.302269
 10
417.458163
 20
1851.026819
 10
417.812896
 20
1850.736913
 10
418.170044
 20
1850.439687
 10
418.527193
 20
1850.142462
 10
418.881926
 20
1849.852555
 10
419.24149
 20
1849.577105
 10
419.598639
 20
1849.322895
 10
419.955787
 20
1849.096184
 10
420.312936
 20
1848.902555
 10
420.670085
 20
1848.746775
 10
421.027233
 20
1848.63268
 10
421.384382
 20
1848.563079
 10
421.746544
 20
1848.539687
 10
422.108706
 20
1848.563079
 10
422.465855
 20
1848.63268
 10
422.823004
 20
1848.746775
 10
423.180152
 20
1848.902555
 10
423.537301
 20
1849.096184
 10
423.89445
 20
1849.322895
 10
424.251598
 20
1849.577105
 10
424.611163
 20
1849.852555
 10
424.965896
 20
1850.142462
 10
425.323044
 20
1850.439687
 10
425.680193
 20
1850.736913
 10
426.034926
 20
1851.026819
 10
426.39449
 20
1851.302269
 10
426.751639
 20
1851.556479
 10
427.108787
 20
1851.78319
 10
427.465936
 20
1851.976819
 10
427.823085
 20
1852.1326
 10
428.180233
 20
1852.246695
 10
428.537382
 20
1852.316295
 10
428.899544
 20
1852.339687
 10
429.261706
 20
1852.316295
 10
429.618855
 20
1852.246695
 10
429.976004
 20
1852.1326
 10
430.333152
 20
1851.976819
 10
430.690301
 20
1851.78319
 10
431.04745
 20
1851.556479
 10
431.404598
 20
1851.302269
 10
431.764163
 20
1851.026819
 10
432.118896
 20
1850.736913
 10
432.476044
 20
1850.439687
 10
432.833193
 20
1850.142462
 10
433.187926
 20
1849.852555
 10
433.54749
 20
1849.577105
 10
433.904639
 20
1849.322895
 10
434.261787
 20
1849.096184
 10
434.618936
 20
1848.902555
 10
434.976085
 20
1848.746775
 10
435.333233
 20
1848.63268
 10
435.690382
 20
1848.563079
 10
436.052544
 20
1848.539687
 10
436.414706
 20
1848.563079
 10
436.771855
 20
1848.63268
 10
437.129004
 20
1848.746775
 10
437.486152
 20
1848.902555
 10
437.843301
 20
1849.096184
 10
438.20045
 20
1849.322895
 10
438.557598
 20
1849.577105
 10
438.917163
 20
1849.852555
 10
439.271896
 20
1850.142462
 10
439.629044
 20
1850.439687
 10
439.986193
 20
1850.736913
 10
440.340926
 20
1851.026819
 10
440.70049
 20
1851.302269
 10
441.057639
 20
1851.556479
 10
441.414787
 20
1851.78319
 10
441.771936
 20
1851.976819
 10
442.129085
 20
1852.1326
 10
442.486233
 20
1852.246695
 10
442.843382
 20
1852.316295
 10
443.205544
 20
1852.339687
 10
443.567706
 20
1852.316295
 10
443.924855
 20
1852.246695
 10
444.282004
 20
1852.1326
 10
444.639152
 20
1851.976819
 10
444.996301
 20
1851.78319
 10
445.35345
 20
1851.556479
 10
445.710598
 20
1851.302269
 10
446.070163
 20
1851.026819
 10
446.424896
 20
1850.736913
 10
446.782044
 20
1850.439687
 10
447.139193
 20
1850.142462
 10
447.493926
 20
1849.852555
 10
447.85349
 20
1849.577105
 10
448.210639
 20
1849.322895
 10
448.567787
 20
1849.096184
 10
448.924936
 20
1848.902555
 10
449.282085
 20
1848.746775
 10
449.639233
 20
1848.63268
 10
449.996382
 20
1848.563079
 10
450.358544
 20
1848.539687
 10
450.720706
 20
1848.563079
 10
451.077855
 20
1848.63268
 10
451.435004
 20
1848.746775
 10
451.792152
 20
1848.902555
 10
452.149301
 20
1849.096184
 10
452.50645
 20
1849.322895
 10
452.863598
 20
1849.577105
 10
453.223163
 20
1849.852555
 10
453.577896
 20
1850.142462
 10
453.935044
 20
1850.439687
 10
454.292193
 20
1850.736913
 10
454.646926
 20
1851.026819
 10
455.00649
 20
1851.302269
 10
455.363639
 20
1851.556479
 10
455.720787
 20
1851.78319
 10
456.077936
 20
1851.976819
 10
456.435085
 20
1852.1326
 10
456.792233
 20
1852.246695
 10
457.149382
 20
1852.316295
 10
457.511544
 20
1852.339687
 10
457.873706
 20
1852.316295
 10
458.230855
 20
1852.246695
 10
458.588004
 20
1852.1326
 10
458.945152
 20
1851.976819
 10
459.302301
 20
1851.78319
 10
459.65945
 20
1851.556479
 10
460.016598
 20
1851.302269
 10
460.376163
 20
1851.026819
 10
460.730896
 20
1850.736913
 10
461.088044
 20
1850.439687
 10
461.445193
 20
1850.142462
 10
461.799926
 20
1849.852555
 10
462.15949
 20
1849.577105
 10
462.516639
 20
1849.322895
 10
462.873787
 20
1849.096184
 10
463.230936
 20
1848.902555
 10
463.588085
 20
1848.746775
 10
463.945233
 20
1848.63268
 10
464.302382
 20
1848.563079
 10
464.664544
 20
1848.539687
 10
465.026706
 20
1848.563079
 10
465.383855
 20
1848.63268
 10
465.741004
 20
1848.746775
 10
466.098152
 20
1848.902555
 10
466.455301
 20
1849.096184
 10
466.81245
 20
1849.322895
 10
467.169598
 20
1849.577105
 10
467.529163
 20
1849.852555
 10
467.883896
 20
1850.142462
 10
468.241044
 20
1850.439687
 10
468.598193
 20
1850.736913
 10
468.952926
 20
1851.026819
 10
469.31249
 20
1851.302269
 10
469.669639
 20
1851.556479
 10
470.026787
 20
1851.78319
 10
470.383936
 20
1851.976819
 10
470.741085
 20
1852.1326
 10
471.098233
 20
1852.246695
 10
471.455382
 20
1852.316295
 10
471.817544
 20
1852.339687
 10
472.179706
 20
1852.316295
 10
472.536855
 20
1852.246695
 10
472.894004
 20
1852.1326
 10
473.251152
 20
1851.976819
 10
473.608301
 20
1851.78319
 10
473.96545
 20
1851.556479
 10
474.322598
 20
1851.302269
 10
474.682163
 20
1851.026819
 10
475.036896
 20
1850.736913
 10
475.394044
 20
1850.439687
 10
475.751193
 20
1850.142462
 10
476.105926
 20
1849.852555
 10
476.46549
 20
1849.577105
 10
476.822639
 20
1849.322895
 10
477.179787
 20
1849.096184
 10
477.536936
 20
1848.902555
 10
477.894085
 20
1848.746775
 10
478.251233
 20
1848.63268
 10
478.608382
 20
1848.563079
 10
478.970544
 20
1848.539687
 10
479.332706
 20
1848.563079
 10
479.689855
 20
1848.63268
 10
480.047004
 20
1848.746775
 10
480.404152
 20
1848.902555
 10
480.761301
 20
1849.096184
 10
481.11845
 20
1849.322895
 10
481.475598
 20
1849.577105
 10
481.835163
 20
1849.852555
 10
482.189896
 20
1850.142462
 10
482.547044
 20
1850.439687
 10
482.904193
 20
1850.736913
 10
483.258926
 20
1851.026819
 10
483.61849
 20
1851.302269
 10
483.975639
 20
1851.556479
 10
484.332787
 20
1851.78319
 10
484.689936
 20
1851.976819
 10
485.047085
 20
1852.1326
 10
485.404233
 20
1852.246695
 10
485.761382
 20
1852.316295
 10
486.123544
 20
1852.339687
 10
486.485706
 20
1852.316295
 10
486.842855
 20
1852.246695
 10
487.200004
 20
1852.1326
 10
487.557152
 20
1851.976819
 10
487.914301
 20
1851.78319
 10
488.27145
 20
1851.556479
 10
488.628598
 20
1851.302269
 10
488.988163
 20
1851.026819
 10
489.342896
 20
1850.736913
 10
489.700044
 20
1850.439687
 10
490.057193
 20
1850.142462
 10
490.411926
 20
1849.852555
 10
490.77149
 20
1849.577105
 10
491.128639
 20
1849.322895
 10
491.485787
 20
1849.096184
 10
491.842936
 20
1848.902555
 10
492.200085
 20
1848.746775
 10
492.557233
 20
1848.63268
 10
492.914382
 20
1848.563079
 10
493.276544
 20
1848.539687
 10
493.638706
 20
1848.563079
 10
493.995855
 20
1848.63268
 10
494.353004
 20
1848.746775
 10
494.710152
 20
1848.902555
 10
495.067301
 20
1849.096184
 10
495.42445
 20
1849.322895
 10
495.781598
 20
1849.577105
 10
496.141163
 20
1849.852555
 10
496.495896
 20
1850.142462
 10
496.853044
 20
1850.439687
 10
497.210193
 20
1850.736913
 10
497.564926
 20
1851.026819
 10
497.92449
 20
1851.302269
 10
498.281639
 20
1851.556479
 10
498.638787
 20
1851.78319
 10
498.995936
 20
1851.976819
 10
499.353085
 20
1852.1326
 10
499.710233
 20
1852.246695
 10
500.067382
 20
1852.316295
 10
500.429544
 20
1852.339687
 10
500.791706
 20
1852.316295
 10
501.148855
 20
1852.246695
 10
501.506004
 20
1852.1326
 10
501.863152
 20
1851.976819
 10
502.220301
 20
1851.78319
 10
502.57745
 20
1851.556479
 10
502.934598
 20
1851.302269
 10
503.294163
 20
1851.026819
 10
503.648896
 20
1850.736913
 10
504.006044
 20
1850.439687
 10
504.363193
 20
1850.142462
 10
504.717926
 20
1849.852555
 10
505.07749
 20
1849.577105
 10
505.434639
 20
1849.322895
 10
505.791787
 20
1849.096184
 10
506.148936
 20
1848.902555
 10
506.506085
 20
1848.746775
 10
506.863233
 20
1848.63268
 10
507.220382
 20
1848.563079
 10
507.582544
 20
1848.539687
 10
507.944706
 20
1848.563079
 10
508.301855
 20
1848.63268
 10
508.659004
 20
1848.746775
 10
509.016152
 20
1848.902555
 10
509.373301
 20
1849.096184
 10
509.73045
 20
1849.322895
 10
510.087598
 20
1849.577105
 10
510.447163
 20
1849.852555
 10
510.801896
 20
1850.142462
 10
511.159044
 20
1850.439687
 10
511.516193
 20
1850.736913
 10
511.870926
 20
1851.026819
 10
512.23049
 20
1851.302269
 10
512.587639
 20
1851.556479
 10
512.944787
 20
1851.78319
 10
513.301936
 20
1851.976819
 10
513.659085
 20
1852.1326
 10
514.016233
 20
1852.246695
 10
514.373382
 20
1852.316295
 10
514.735544
 20
1852.339687
 10
515.097706
 20
1852.316295
 10
515.454855
 20
1852.246695
 10
515.812004
 20
1852.1326
 10
516.169152
 20
1851.976819
 10
516.526301
 20
1851.78319
 10
516.88345
 20
1851.556479
 10
517.240598
 20
1851.302269
 10
517.600163
 20
1851.026819
 10
517.954896
 20
1850.736913
 10
518.312044
 20
1850.439687
 10
518.669193
 20
1850.142462
 10
519.023926
 20
1849.852555
 10
519.38349
 20
1849.577105
 10
519.740639
 20
1849.322895
 10
520.097787
 20
1849.096184
 10
520.454936
 20
1848.902555
 10
520.812085
 20
1848.746775
 10
521.169233
 20
1848.63268
 10
521.526382
 20
1848.563079
 10
521.888544
 20
1848.539687
 10
522.250706
 20
1848.563079
 10
522.607855
 20
1848.63268
 10
522.965004
 20
1848.746775
 10
523.322152
 20
1848.902555
 10
523.679301
 20
1849.096184
 10
524.03645
 20
1849.322895
 10
524.393598
 20
1849.577105
 10
524.753163
 20
1849.852555
 10
525.107896
 20
1850.142462
 10
525.465044
 20
1850.439687
 10
525.822193
 20
1850.736913
 10
526.176926
 20
1851.026819
 10
526.53649
 20
1851.302269
 10
526.893639
 20
1851.556479
 10
527.250787
 20
1851.78319
 10
527.607936
 20
1851.976819
 10
527.965085
 20
1852.1326
 10
528.322233
 20
1852.246695
 10
528.679382
 20
1852.316295
 10
529.041544
 20
1852.339687
 10
529.403706
 20
1852.316295
 10
529.760855
 20
1852.246695
 10
530.118004
 20
1852.1326
 10
530.475152
 20
1851.976819
 10
530.832301
 20
1851.78319
 10
531.18945
 20
1851.556479
 10
531.546598
 20
1851.302269
 10
531.906163
 20
1851.026819
 10
532.260896
 20
1850.736913
 10
532.618044
 20
1850.439687
 10
532.975193
 20
1850.142462
 10
533.329926
 20
1849.852555
 10
533.68949
 20
1849.577105
 10
534.046639
 20
1849.322895
 10
534.403787
 20
1849.096184
 10
534.760936
 20
1848.902555
 10
535.118085
 20
1848.746775
 10
535.475233
 20
1848.63268
 10
535.832382
 20
1848.563079
 10
536.194544
 20
1848.539687
 10
536.556706
 20
1848.563079
 10
536.913855
 20
1848.63268
 10
537.271004
 20
1848.746775
 10
537.628152
 20
1848.902555
 10
537.985301
 20
1849.096184
 10
538.34245
 20
1849.322895
 10
538.699598
 20
1849.577105
 10
539.059163
 20
1849.852555
 10
539.413896
 20
1850.142462
 10
539.771044
 20
1850.439687
 10
540.128193
 20
1850.736913
 10
540.482926
 20
1851.026819
 10
540.84249
 20
1851.302269
 10
541.199639
 20
1851.556479
 10
541.556787
 20
1851.78319
 10
541.913936
 20
1851.976819
 10
542.271085
 20
1852.1326
 10
542.628233
 20
1852.246695
 10
542.985382
 20
1852.316295
 10
543.347544
 20
1852.339687
 10
543.709706
 20
1852.316295
 10
544.066855
 20
1852.246695
 10
544.424004
 20
1852.1326
 10
544.781152
 20
1851.976819
 10
545.138301
 20
1851.78319
 10
545.49545
 20
1851.556479
 10
545.852598
 20
1851.302269
 10
546.212163
 20
1851.026819
 10
546.566896
 20
1850.736913
 10
546.924044
 20
1850.439687
 10
547.281193
 20
1850.142462
 10
547.635926
 20
1849.852555
 10
547.99549
 20
1849.577105
 10
548.352639
 20
1849.322895
 10
548.709787
 20
1849.096184
 10
549.066936
 20
1848.902555
 10
549.424085
 20
1848.746775
 10
549.781233
 20
1848.63268
 10
550.138382
 20
1848.563079
 10
550.500544
 20
1848.539687
 10
550.862706
 20
1848.563079
 10
551.219855
 20
1848.63268
 10
551.577004
 20
1848.746775
 10
551.934152
 20
1848.902555
 10
552.291301
 20
1849.096184
 10
552.64845
 20
1849.322895
 10
553.005598
 20
1849.577105
 10
553.365163
 20
1849.852555
 10
553.719896
 20
1850.142462
 10
554.077044
 20
1850.439687
 10
554.434193
 20
1850.736913
 10
554.788926
 20
1851.026819
 10
555.14849
 20
1851.302269
 10
555.505639
 20
1851.556479
 10
555.862787
 20
1851.78319
 10
556.219936
 20
1851.976819
 10
556.577085
 20
1852.1326
 10
556.934233
 20
1852.246695
 10
557.291382
 20
1852.316295
 10
557.653544
 20
1852.339687
 10
558.015706
 20
1852.316295
 10
558.372855
 20
1852.246695
 10
558.730004
 20
1852.1326
 10
559.087152
 20
1851.976819
 10
559.444301
 20
1851.78319
 10
559.80145
 20
1851.556479
 10
560.158598
 20
1851.302269
 10
560.518163
 20
1851.026819
 10
560.872896
 20
1850.736913
 10
561.230044
 20
1850.439687
 10
561.587193
 20
1850.142462
 10
561.941926
 20
1849.852555
 10
562.30149
 20
1849.577105
 10
562.658639
 20
1849.322895
 10
563.015787
 20
1849.096184
 10
563.372936
 20
1848.902555
 10
563.730085
 20
1848.746775
 10
564.087233
 20
1848.63268
 10
564.444382
 20
1848.563079
 10
564.806544
 20
1848.539687
 10
565.168706
 20
1848.563079
 10
565.525855
 20
1848.63268
 10
565.883004
 20
1848.746775
 10
566.240152
 20
1848.902555
 10
566.597301
 20
1849.096184
 10
566.95445
 20
1849.322895
 10
567.311598
 20
1849.577105
 10
567.671163
 20
1849.852555
 10
568.025896
 20
1850.142462
 10
568.383044
 20
1850.439687
 10
568.740193
 20
1850.736913
 10
569.094926
 20
1851.026819
 10
569.45449
 20
1851.302269
 10
569.811639
 20
1851.556479
 10
570.168787
 20
1851.78319
 10
570.525936
 20
1851.976819
 10
570.883085
 20
1852.1326
 10
571.240233
 20
1852.246695
 10
571.597382
 20
1852.316295
 10
571.959544
 20
1852.339687
 10
572.321706
 20
1852.316295
 10
572.678855
 20
1852.246695
 10
573.036004
 20
1852.1326
 10
573.393152
 20
1851.976819
 10
573.750301
 20
1851.78319
 10
574.10745
 20
1851.556479
 10
574.464598
 20
1851.302269
 10
574.824163
 20
1851.026819
 10
575.178896
 20
1850.736913
 10
575.49947
 20
1850.470125
  0
LWPOLYLINE
  5
ACD
100
AcDbEntity
  8
LAMELA-VELKA
100
AcDbPolyline
 90
       12
 70
     0
 43
2.0
 10
596.422351
 20
1849.857137
 42
-0.187687
 10
599.637044
 20
1850.439687
 42
-0.115441
 10
604.252424
 20
1847.362775
 10
605.447669
 20
1844.494207
 42
0.214719
 10
607.84816
 20
1842.253029
 10
613.458047
 20
1840.343564
 42
-0.831908
 10
610.237044
 20
1822.939687
 10
609.737044
 20
1822.939687
 42
1.0
 10
609.737044
 20
1818.939687
 10
639.237044
 20
1818.939687
 42
0.200073
 10
642.764706
 20
1821.439687
 10
645.322801
 20
1826.439687
  0
DIMENSION
  5
D4F
100
AcDbEntity
  8
KOTY-UPLNE
100
AcDbDimension
  2
*D15
 10
420.517031
 20
1870.818019
 30
0.0
 11
412.958352
 21
1877.068019
 31
0.0
 12
0.0
 22
-219.611393
 32
0.0
 70
    32
  3
KOTY-VELKE
100
AcDbAlignedDimension
 13
405.399673
 23
1849.567154
 33
0.0
 14
420.517031
 24
1832.257575
 34
0.0
100
AcDbRotatedDimension
1001
ACAD
1000
DSTYLE
1002
{
1070
    40
1040
5.0
1070
   147
1040
0.5
1070
    44
1040
0.5
1070
   178
1070
     1
1070
   177
1070
   256
1070
   176
1070
   256
1002
}
  0
DIMENSION
  5
D51
100
AcDbEntity
  8
KOTY-UPLNE
100
AcDbDimension
  2
*D16
 10
605.462153
 20
1892.854531
 30
0.0
 11
725.392477
 21
1899.104531
 31
0.0
 12
-100.0
 22
-219.611393
 32
0.0
 70
    32
  3
KOTY-VELKE
100
AcDbAlignedDimension
 13
645.322801
 23
1826.439687
 33
0.0
 14
605.462153
 24
1854.567154
 34
0.0
100
AcDbRotatedDimension
1001
ACAD
1000
DSTYLE
1002
{
1070
    40
1040
5.0
1070
   147
1040
0.5
1070
    44
1040
0.5
1070
   178
1070
     1
1070
   177
1070
   256
1070
   176
1070
   256
1002
}
  0
DIMENSION
  5
D52
100
AcDbEntity
  8
KOTY-UPLNE
100
AcDbDimension
  2
*D17
 10
620.086758
 20
1870.818019
 30
0.0
 11
612.774456
 21
1877.174321
 31
0.0
 12
-100.0
 22
-219.611393
 32
0.0
 70
   160
  3
KOTY-VELKE
100
AcDbAlignedDimension
 13
605.462153
 23
1849.567154
 33
0.0
 14
620.086758
 24
1830.301836
 34
0.0
100
AcDbRotatedDimension
1001
ACAD
1000
DSTYLE
1002
{
1070
    40
1040
5.0
1070
   147
1040
0.5
1070
    44
1040
0.5
1070
   178
1070
     1
1070
   177
1070
   256
1070
   176
1070
   256
1002
}
  0
DIMENSION
  5
D53
100
AcDbEntity
  8
KOTY-UPLNE
100
AcDbDimension
  2
*D14
 10
672.841444
 20
1850.439687
 30
0.0
 11
766.591444
 21
1834.689687
 31
0.0
 12
-100.0
 22
-219.611393
 32
0.0
 70
    32
  3
KOTY-VELKE
100
AcDbAlignedDimension
 13
639.237044
 23
1818.939687
 33
0.0
 14
599.637044
 24
1850.439687
 34
0.0
 50
90.0
100
AcDbRotatedDimension
1001
ACAD
1000
DSTYLE
1002
{
1070
    40
1040
5.0
1070
   147
1040
0.5
1070
    44
1040
0.5
1070
   178
1070
     1
1070
   177
1070
   256
1070
   176
1070
   256
1002
}
  0
LWPOLYLINE
  5
149F
100
AcDbEntity
  8
LAMELA-VELKA
100
AcDbPolyline
 90
      796
 70
     0
 43
2.0
 10
412.08849
 20
1732.368602
 10
412.445639
 20
1732.622812
 10
412.802787
 20
1732.849523
 10
413.159936
 20
1733.043153
 10
413.517085
 20
1733.198933
 10
413.874233
 20
1733.313028
 10
414.231382
 20
1733.382628
 10
414.593544
 20
1733.40602
 10
414.955706
 20
1733.382628
 10
415.312855
 20
1733.313028
 10
415.670004
 20
1733.198933
 10
416.027152
 20
1733.043153
 10
416.384301
 20
1732.849523
 10
416.74145
 20
1732.622812
 10
417.098598
 20
1732.368602
 10
417.458163
 20
1732.093153
 10
417.812896
 20
1731.803246
 10
418.170044
 20
1731.50602
 10
418.527193
 20
1731.208795
 10
418.881926
 20
1730.918888
 10
419.24149
 20
1730.643438
 10
419.598639
 20
1730.389228
 10
419.955787
 20
1730.162517
 10
420.312936
 20
1729.968888
 10
420.670085
 20
1729.813108
 10
421.027233
 20
1729.699013
 10
421.384382
 20
1729.629412
 10
421.746544
 20
1729.60602
 10
422.108706
 20
1729.629412
 10
422.465855
 20
1729.699013
 10
422.823004
 20
1729.813108
 10
423.180152
 20
1729.968888
 10
423.537301
 20
1730.162517
 10
423.89445
 20
1730.389228
 10
424.251598
 20
1730.643438
 10
424.611163
 20
1730.918888
 10
424.965896
 20
1731.208795
 10
425.323044
 20
1731.50602
 10
425.680193
 20
1731.803246
 10
426.034926
 20
1732.093153
 10
426.39449
 20
1732.368602
 10
426.751639
 20
1732.622812
 10
427.108787
 20
1732.849523
 10
427.465936
 20
1733.043153
 10
427.823085
 20
1733.198933
 10
428.180233
 20
1733.313028
 10
428.537382
 20
1733.382628
 10
428.899544
 20
1733.40602
 10
429.261706
 20
1733.382628
 10
429.618855
 20
1733.313028
 10
429.976004
 20
1733.198933
 10
430.333152
 20
1733.043153
 10
430.690301
 20
1732.849523
 10
431.04745
 20
1732.622812
 10
431.404598
 20
1732.368602
 10
431.764163
 20
1732.093153
 10
432.118896
 20
1731.803246
 10
432.476044
 20
1731.50602
 10
432.833193
 20
1731.208795
 10
433.187926
 20
1730.918888
 10
433.54749
 20
1730.643438
 10
433.904639
 20
1730.389228
 10
434.261787
 20
1730.162517
 10
434.618936
 20
1729.968888
 10
434.976085
 20
1729.813108
 10
435.333233
 20
1729.699013
 10
435.690382
 20
1729.629412
 10
436.052544
 20
1729.60602
 10
436.414706
 20
1729.629412
 10
436.771855
 20
1729.699013
 10
437.129004
 20
1729.813108
 10
437.486152
 20
1729.968888
 10
437.843301
 20
1730.162517
 10
438.20045
 20
1730.389228
 10
438.557598
 20
1730.643438
 10
438.917163
 20
1730.918888
 10
439.271896
 20
1731.208795
 10
439.629044
 20
1731.50602
 10
439.986193
 20
1731.803246
 10
440.340926
 20
1732.093153
 10
440.70049
 20
1732.368602
 10
441.057639
 20
1732.622812
 10
441.414787
 20
1732.849523
 10
441.771936
 20
1733.043153
 10
442.129085
 20
1733.198933
 10
442.486233
 20
1733.313028
 10
442.843382
 20
1733.382628
 10
443.205544
 20
1733.40602
 10
443.567706
 20
1733.382628
 10
443.924855
 20
1733.313028
 10
444.282004
 20
1733.198933
 10
444.639152
 20
1733.043153
 10
444.996301
 20
1732.849523
 10
445.35345
 20
1732.622812
 10
445.710598
 20
1732.368602
 10
446.070163
 20
1732.093153
 10
446.424896
 20
1731.803246
 10
446.782044
 20
1731.50602
 10
447.139193
 20
1731.208795
 10
447.493926
 20
1730.918888
 10
447.85349
 20
1730.643438
 10
448.210639
 20
1730.389228
 10
448.567787
 20
1730.162517
 10
448.924936
 20
1729.968888
 10
449.282085
 20
1729.813108
 10
449.639233
 20
1729.699013
 10
449.996382
 20
1729.629412
 10
450.358544
 20
1729.60602
 10
450.720706
 20
1729.629412
 10
451.077855
 20
1729.699013
 10
451.435004
 20
1729.813108
 10
451.792152
 20
1729.968888
 10
452.149301
 20
1730.162517
 10
452.50645
 20
1730.389228
 10
452.863598
 20
1730.643438
 10
453.223163
 20
1730.918888
 10
453.577896
 20
1731.208795
 10
453.935044
 20
1731.50602
 10
454.292193
 20
1731.803246
 10
454.646926
 20
1732.093153
 10
455.00649
 20
1732.368602
 10
455.363639
 20
1732.622812
 10
455.720787
 20
1732.849523
 10
456.077936
 20
1733.043153
 10
456.435085
 20
1733.198933
 10
456.792233
 20
1733.313028
 10
457.149382
 20
1733.382628
 10
457.511544
 20
1733.40602
 10
457.873706
 20
1733.382628
 10
458.230855
 20
1733.313028
 10
458.588004
 20
1733.198933
 10
458.945152
 20
1733.043153
 10
459.302301
 20
1732.849523
 10
459.65945
 20
1732.622812
 10
460.016598
 20
1732.368602
 10
460.376163
 20
1732.093153
 10
460.730896
 20
1731.803246
 10
461.088044
 20
1731.50602
 10
461.445193
 20
1731.208795
 10
461.799926
 20
1730.918888
 10
462.15949
 20
1730.643438
 10
462.516639
 20
1730.389228
 10
462.873787
 20
1730.162517
 10
463.230936
 20
1729.968888
 10
463.588085
 20
1729.813108
 10
463.945233
 20
1729.699013
 10
464.302382
 20
1729.629412
 10
464.664544
 20
1729.60602
 10
465.026706
 20
1729.629412
 10
465.383855
 20
1729.699013
 10
465.741004
 20
1729.813108
 10
466.098152
 20
1729.968888
 10
466.455301
 20
1730.162517
 10
466.81245
 20
1730.389228
 10
467.169598
 20
1730.643438
 10
467.529163
 20
1730.918888
 10
467.883896
 20
1731.208795
 10
468.241044
 20
1731.50602
 10
468.598193
 20
1731.803246
 10
468.952926
 20
1732.093153
 10
469.31249
 20
1732.368602
 10
469.669639
 20
1732.622812
 10
470.026787
 20
1732.849523
 10
470.383936
 20
1733.043153
 10
470.741085
 20
1733.198933
 10
471.098233
 20
1733.313028
 10
471.455382
 20
1733.382628
 10
471.817544
 20
1733.40602
 10
472.179706
 20
1733.382628
 10
472.536855
 20
1733.313028
 10
472.894004
 20
1733.198933
 10
473.251152
 20
1733.043153
 10
473.608301
 20
1732.849523
 10
473.96545
 20
1732.622812
 10
474.322598
 20
1732.368602
 10
474.682163
 20
1732.093153
 10
475.036896
 20
1731.803246
 10
475.394044
 20
1731.50602
 10
475.751193
 20
1731.208795
 10
476.105926
 20
1730.918888
 10
476.46549
 20
1730.643438
 10
476.822639
 20
1730.389228
 10
477.179787
 20
1730.162517
 10
477.536936
 20
1729.968888
 10
477.894085
 20
1729.813108
 10
478.251233
 20
1729.699013
 10
478.608382
 20
1729.629412
 10
478.970544
 20
1729.60602
 10
479.332706
 20
1729.629412
 10
479.689855
 20
1729.699013
 10
480.047004
 20
1729.813108
 10
480.404152
 20
1729.968888
 10
480.761301
 20
1730.162517
 10
481.11845
 20
1730.389228
 10
481.475598
 20
1730.643438
 10
481.835163
 20
1730.918888
 10
482.189896
 20
1731.208795
 10
482.547044
 20
1731.50602
 10
482.904193
 20
1731.803246
 10
483.258926
 20
1732.093153
 10
483.61849
 20
1732.368602
 10
483.975639
 20
1732.622812
 10
484.332787
 20
1732.849523
 10
484.689936
 20
1733.043153
 10
485.047085
 20
1733.198933
 10
485.404233
 20
1733.313028
 10
485.761382
 20
1733.382628
 10
486.123544
 20
1733.40602
 10
486.485706
 20
1733.382628
 10
486.842855
 20
1733.313028
 10
487.200004
 20
1733.198933
 10
487.557152
 20
1733.043153
 10
487.914301
 20
1732.849523
 10
488.27145
 20
1732.622812
 10
488.628598
 20
1732.368602
 10
488.988163
 20
1732.093153
 10
489.342896
 20
1731.803246
 10
489.700044
 20
1731.50602
 10
490.057193
 20
1731.208795
 10
490.411926
 20
1730.918888
 10
490.77149
 20
1730.643438
 10
491.128639
 20
1730.389228
 10
491.485787
 20
1730.162517
 10
491.842936
 20
1729.968888
 10
492.200085
 20
1729.813108
 10
492.557233
 20
1729.699013
 10
492.914382
 20
1729.629412
 10
493.276544
 20
1729.60602
 10
493.638706
 20
1729.629412
 10
493.995855
 20
1729.699013
 10
494.353004
 20
1729.813108
 10
494.710152
 20
1729.968888
 10
495.067301
 20
1730.162517
 10
495.42445
 20
1730.389228
 10
495.781598
 20
1730.643438
 10
496.141163
 20
1730.918888
 10
496.495896
 20
1731.208795
 10
496.853044
 20
1731.50602
 10
497.210193
 20
1731.803246
 10
497.564926
 20
1732.093153
 10
497.92449
 20
1732.368602
 10
498.281639
 20
1732.622812
 10
498.638787
 20
1732.849523
 10
498.995936
 20
1733.043153
 10
499.353085
 20
1733.198933
 10
499.710233
 20
1733.313028
 10
500.067382
 20
1733.382628
 10
500.429544
 20
1733.40602
 10
500.791706
 20
1733.382628
 10
501.148855
 20
1733.313028
 10
501.506004
 20
1733.198933
 10
501.863152
 20
1733.043153
 10
502.220301
 20
1732.849523
 10
502.57745
 20
1732.622812
 10
502.934598
 20
1732.368602
 10
503.294163
 20
1732.093153
 10
503.648896
 20
1731.803246
 10
504.006044
 20
1731.50602
 10
504.363193
 20
1731.208795
 10
504.717926
 20
1730.918888
 10
505.07749
 20
1730.643438
 10
505.434639
 20
1730.389228
 10
505.791787
 20
1730.162517
 10
506.148936
 20
1729.968888
 10
506.506085
 20
1729.813108
 10
506.863233
 20
1729.699013
 10
507.220382
 20
1729.629412
 10
507.582544
 20
1729.60602
 10
507.944706
 20
1729.629412
 10
508.301855
 20
1729.699013
 10
508.659004
 20
1729.813108
 10
509.016152
 20
1729.968888
 10
509.373301
 20
1730.162517
 10
509.73045
 20
1730.389228
 10
510.087598
 20
1730.643438
 10
510.447163
 20
1730.918888
 10
510.801896
 20
1731.208795
 10
511.159044
 20
1731.50602
 10
511.516193
 20
1731.803246
 10
511.870926
 20
1732.093153
 10
512.23049
 20
1732.368602
 10
512.587639
 20
1732.622812
 10
512.944787
 20
1732.849523
 10
513.301936
 20
1733.043153
 10
513.659085
 20
1733.198933
 10
514.016233
 20
1733.313028
 10
514.373382
 20
1733.382628
 10
514.735544
 20
1733.40602
 10
515.097706
 20
1733.382628
 10
515.454855
 20
1733.313028
 10
515.812004
 20
1733.198933
 10
516.169152
 20
1733.043153
 10
516.526301
 20
1732.849523
 10
516.88345
 20
1732.622812
 10
517.240598
 20
1732.368602
 10
517.600163
 20
1732.093153
 10
517.954896
 20
1731.803246
 10
518.312044
 20
1731.50602
 10
518.669193
 20
1731.208795
 10
519.023926
 20
1730.918888
 10
519.38349
 20
1730.643438
 10
519.740639
 20
1730.389228
 10
520.097787
 20
1730.162517
 10
520.454936
 20
1729.968888
 10
520.812085
 20
1729.813108
 10
521.169233
 20
1729.699013
 10
521.526382
 20
1729.629412
 10
521.888544
 20
1729.60602
 10
522.250706
 20
1729.629412
 10
522.607855
 20
1729.699013
 10
522.965004
 20
1729.813108
 10
523.322152
 20
1729.968888
 10
523.679301
 20
1730.162517
 10
524.03645
 20
1730.389228
 10
524.393598
 20
1730.643438
 10
524.753163
 20
1730.918888
 10
525.107896
 20
1731.208795
 10
525.465044
 20
1731.50602
 10
525.822193
 20
1731.803246
 10
526.176926
 20
1732.093153
 10
526.53649
 20
1732.368602
 10
526.893639
 20
1732.622812
 10
527.250787
 20
1732.849523
 10
527.607936
 20
1733.043153
 10
527.965085
 20
1733.198933
 10
528.322233
 20
1733.313028
 10
528.679382
 20
1733.382628
 10
529.041544
 20
1733.40602
 10
529.403706
 20
1733.382628
 10
529.760855
 20
1733.313028
 10
530.118004
 20
1733.198933
 10
530.475152
 20
1733.043153
 10
530.832301
 20
1732.849523
 10
531.18945
 20
1732.622812
 10
531.546598
 20
1732.368602
 10
531.906163
 20
1732.093153
 10
532.260896
 20
1731.803246
 10
532.618044
 20
1731.50602
 10
532.975193
 20
1731.208795
 10
533.329926
 20
1730.918888
 10
533.68949
 20
1730.643438
 10
534.046639
 20
1730.389228
 10
534.403787
 20
1730.162517
 10
534.760936
 20
1729.968888
 10
535.118085
 20
1729.813108
 10
535.475233
 20
1729.699013
 10
535.832382
 20
1729.629412
 10
536.194544
 20
1729.60602
 10
536.556706
 20
1729.629412
 10
536.913855
 20
1729.699013
 10
537.271004
 20
1729.813108
 10
537.628152
 20
1729.968888
 10
537.985301
 20
1730.162517
 10
538.34245
 20
1730.389228
 10
538.699598
 20
1730.643438
 10
539.059163
 20
1730.918888
 10
539.413896
 20
1731.208795
 10
539.771044
 20
1731.50602
 10
540.128193
 20
1731.803246
 10
540.482926
 20
1732.093153
 10
540.84249
 20
1732.368602
 10
541.199639
 20
1732.622812
 10
541.556787
 20
1732.849523
 10
541.913936
 20
1733.043153
 10
542.271085
 20
1733.198933
 10
542.628233
 20
1733.313028
 10
542.985382
 20
1733.382628
 10
543.347544
 20
1733.40602
 10
543.709706
 20
1733.382628
 10
544.066855
 20
1733.313028
 10
544.424004
 20
1733.198933
 10
544.781152
 20
1733.043153
 10
545.138301
 20
1732.849523
 10
545.49545
 20
1732.622812
 10
545.852598
 20
1732.368602
 10
546.212163
 20
1732.093153
 10
546.566896
 20
1731.803246
 10
546.924044
 20
1731.50602
 10
547.281193
 20
1731.208795
 10
547.635926
 20
1730.918888
 10
547.99549
 20
1730.643438
 10
548.352639
 20
1730.389228
 10
548.709787
 20
1730.162517
 10
549.066936
 20
1729.968888
 10
549.424085
 20
1729.813108
 10
549.781233
 20
1729.699013
 10
550.138382
 20
1729.629412
 10
550.500544
 20
1729.60602
 10
550.862706
 20
1729.629412
 10
551.219855
 20
1729.699013
 10
551.577004
 20
1729.813108
 10
551.934152
 20
1729.968888
 10
552.291301
 20
1730.162517
 10
552.64845
 20
1730.389228
 10
553.005598
 20
1730.643438
 10
553.365163
 20
1730.918888
 10
553.719896
 20
1731.208795
 10
554.077044
 20
1731.50602
 10
554.434193
 20
1731.803246
 10
554.788926
 20
1732.093153
 10
555.14849
 20
1732.368602
 10
555.505639
 20
1732.622812
 10
555.862787
 20
1732.849523
 10
556.219936
 20
1733.043153
 10
556.577085
 20
1733.198933
 10
556.934233
 20
1733.313028
 10
557.291382
 20
1733.382628
 10
557.653544
 20
1733.40602
 10
558.015706
 20
1733.382628
 10
558.372855
 20
1733.313028
 10
558.730004
 20
1733.198933
 10
559.087152
 20
1733.043153
 10
559.444301
 20
1732.849523
 10
559.80145
 20
1732.622812
 10
560.158598
 20
1732.368602
 10
560.518163
 20
1732.093153
 10
560.872896
 20
1731.803246
 10
561.230044
 20
1731.50602
 10
561.587193
 20
1731.208795
 10
561.941926
 20
1730.918888
 10
562.30149
 20
1730.643438
 10
562.658639
 20
1730.389228
 10
563.015787
 20
1730.162517
 10
563.372936
 20
1729.968888
 10
563.730085
 20
1729.813108
 10
564.087233
 20
1729.699013
 10
564.444382
 20
1729.629412
 10
564.806544
 20
1729.60602
 10
565.168706
 20
1729.629412
 10
565.525855
 20
1729.699013
 10
565.883004
 20
1729.813108
 10
566.240152
 20
1729.968888
 10
566.597301
 20
1730.162517
 10
566.95445
 20
1730.389228
 10
567.311598
 20
1730.643438
 10
567.671163
 20
1730.918888
 10
568.025896
 20
1731.208795
 10
568.383044
 20
1731.50602
 10
568.740193
 20
1731.803246
 10
569.094926
 20
1732.093153
 10
569.45449
 20
1732.368602
 10
569.811639
 20
1732.622812
 10
570.168787
 20
1732.849523
 10
570.525936
 20
1733.043153
 10
570.883085
 20
1733.198933
 10
571.240233
 20
1733.313028
 10
571.597382
 20
1733.382628
 10
571.959544
 20
1733.40602
 10
572.321706
 20
1733.382628
 10
572.678855
 20
1733.313028
 10
573.036004
 20
1733.198933
 10
573.393152
 20
1733.043153
 10
573.750301
 20
1732.849523
 10
574.10745
 20
1732.622812
 10
574.464598
 20
1732.368602
 10
574.824163
 20
1732.093153
 10
575.178896
 20
1731.803246
 10
575.536044
 20
1731.50602
 10
575.893193
 20
1731.208795
 10
576.247926
 20
1730.918888
 10
576.60749
 20
1730.643438
 10
576.964639
 20
1730.389228
 10
577.321787
 20
1730.162517
 10
577.678936
 20
1729.968888
 10
578.036085
 20
1729.813108
 10
578.393233
 20
1729.699013
 10
578.750382
 20
1729.629412
 10
579.112544
 20
1729.60602
 10
579.474706
 20
1729.629412
 10
579.831855
 20
1729.699013
 10
580.189004
 20
1729.813108
 10
580.546152
 20
1729.968888
 10
580.903301
 20
1730.162517
 10
581.26045
 20
1730.389228
 10
581.617598
 20
1730.643438
 10
581.977163
 20
1730.918888
 10
582.331896
 20
1731.208795
 10
582.689044
 20
1731.50602
 10
583.046193
 20
1731.803246
 10
583.400926
 20
1732.093153
 10
583.76049
 20
1732.368602
 10
584.117639
 20
1732.622812
 10
584.474787
 20
1732.849523
 10
584.831936
 20
1733.043153
 10
585.189085
 20
1733.198933
 10
585.546233
 20
1733.313028
 10
585.903382
 20
1733.382628
 10
586.265544
 20
1733.40602
 10
586.627706
 20
1733.382628
 10
586.984855
 20
1733.313028
 10
587.342004
 20
1733.198933
 10
587.699152
 20
1733.043153
 10
588.056301
 20
1732.849523
 10
588.41345
 20
1732.622812
 10
588.770598
 20
1732.368602
 10
589.130163
 20
1732.093153
 10
589.484896
 20
1731.803246
 10
589.842044
 20
1731.50602
 10
590.199193
 20
1731.208795
 10
590.553926
 20
1730.918888
 10
590.91349
 20
1730.643438
 10
591.270639
 20
1730.389228
 10
591.627787
 20
1730.162517
 10
591.984936
 20
1729.968888
 10
592.342085
 20
1729.813108
 10
592.699233
 20
1729.699013
 10
593.056382
 20
1729.629412
 10
593.418544
 20
1729.60602
 10
593.780706
 20
1729.629412
 10
594.137855
 20
1729.699013
 10
594.495004
 20
1729.813108
 10
594.852152
 20
1729.968888
 10
595.209301
 20
1730.162517
 10
595.56645
 20
1730.389228
 10
595.923598
 20
1730.643438
 10
596.283163
 20
1730.918888
 10
596.637896
 20
1731.208795
 10
596.995044
 20
1731.50602
 10
597.352193
 20
1731.803246
 10
597.706926
 20
1732.093153
 10
598.06649
 20
1732.368602
 10
598.423639
 20
1732.622812
 10
598.780787
 20
1732.849523
 10
599.137936
 20
1733.043153
 10
599.495085
 20
1733.198933
 10
599.852233
 20
1733.313028
 10
600.209382
 20
1733.382628
 10
600.571544
 20
1733.40602
 10
600.933706
 20
1733.382628
 10
601.290855
 20
1733.313028
 10
601.648004
 20
1733.198933
 10
602.005152
 20
1733.043153
 10
602.362301
 20
1732.849523
 10
602.71945
 20
1732.622812
 10
603.076598
 20
1732.368602
 10
603.436163
 20
1732.093153
 10
603.790896
 20
1731.803246
 10
604.148044
 20
1731.50602
 10
604.505193
 20
1731.208795
 10
604.859926
 20
1730.918888
 10
605.21949
 20
1730.643438
 10
605.576639
 20
1730.389228
 10
605.933787
 20
1730.162517
 10
606.290936
 20
1729.968888
 10
606.648085
 20
1729.813108
 10
607.005233
 20
1729.699013
 10
607.362382
 20
1729.629412
 10
607.724544
 20
1729.60602
 10
608.086706
 20
1729.629412
 10
608.443855
 20
1729.699013
 10
608.801004
 20
1729.813108
 10
609.158152
 20
1729.968888
 10
609.515301
 20
1730.162517
 10
609.87245
 20
1730.389228
 10
610.229598
 20
1730.643438
 10
610.589163
 20
1730.918888
 10
610.943896
 20
1731.208795
 10
611.301044
 20
1731.50602
 10
611.658193
 20
1731.803246
 10
612.012926
 20
1732.093153
 10
612.37249
 20
1732.368602
 10
612.729639
 20
1732.622812
 10
613.086787
 20
1732.849523
 10
613.443936
 20
1733.043153
 10
613.801085
 20
1733.198933
 10
614.158233
 20
1733.313028
 10
614.515382
 20
1733.382628
 10
614.877544
 20
1733.40602
 10
615.239706
 20
1733.382628
 10
615.596855
 20
1733.313028
 10
615.954004
 20
1733.198933
 10
616.311152
 20
1733.043153
 10
616.668301
 20
1732.849523
 10
617.02545
 20
1732.622812
 10
617.382598
 20
1732.368602
 10
617.742163
 20
1732.093153
 10
618.096896
 20
1731.803246
 10
618.454044
 20
1731.50602
 10
618.811193
 20
1731.208795
 10
619.165926
 20
1730.918888
 10
619.52549
 20
1730.643438
 10
619.882639
 20
1730.389228
 10
620.239787
 20
1730.162517
 10
620.596936
 20
1729.968888
 10
620.954085
 20
1729.813108
 10
621.311233
 20
1729.699013
 10
621.668382
 20
1729.629412
 10
622.030544
 20
1729.60602
 10
622.392706
 20
1729.629412
 10
622.749855
 20
1729.699013
 10
623.107004
 20
1729.813108
 10
623.464152
 20
1729.968888
 10
623.821301
 20
1730.162517
 10
624.17845
 20
1730.389228
 10
624.535598
 20
1730.643438
 10
624.895163
 20
1730.918888
 10
625.249895
 20
1731.208795
 10
625.607044
 20
1731.50602
 10
625.964193
 20
1731.803246
 10
626.318926
 20
1732.093153
 10
626.67849
 20
1732.368602
 10
627.035639
 20
1732.622812
 10
627.392787
 20
1732.849523
 10
627.749936
 20
1733.043153
 10
628.107085
 20
1733.198933
 10
628.464233
 20
1733.313028
 10
628.821382
 20
1733.382628
 10
629.183544
 20
1733.40602
 10
629.545706
 20
1733.382628
 10
629.902855
 20
1733.313028
 10
630.260004
 20
1733.198933
 10
630.617152
 20
1733.043153
 10
630.974301
 20
1732.849523
 10
631.33145
 20
1732.622812
 10
631.688598
 20
1732.368602
 10
632.048163
 20
1732.093153
 10
632.402895
 20
1731.803246
 10
632.760044
 20
1731.50602
 10
633.117193
 20
1731.208795
 10
633.471926
 20
1730.918888
 10
633.83149
 20
1730.643438
 10
634.188639
 20
1730.389228
 10
634.545787
 20
1730.162517
 10
634.902936
 20
1729.968888
 10
635.260085
 20
1729.813108
 10
635.617233
 20
1729.699013
 10
635.974382
 20
1729.629412
 10
636.336544
 20
1729.60602
 10
636.698706
 20
1729.629412
 10
637.055855
 20
1729.699013
 10
637.413004
 20
1729.813108
 10
637.770152
 20
1729.968888
 10
638.127301
 20
1730.162517
 10
638.48445
 20
1730.389228
 10
638.841598
 20
1730.643438
 10
639.201163
 20
1730.918888
 10
639.555895
 20
1731.208795
 10
639.913044
 20
1731.50602
 10
640.270193
 20
1731.803246
 10
640.624926
 20
1732.093153
 10
640.98449
 20
1732.368602
 10
641.341639
 20
1732.622812
 10
641.698787
 20
1732.849523
 10
642.055936
 20
1733.043153
 10
642.413085
 20
1733.198933
 10
642.770233
 20
1733.313028
 10
643.127382
 20
1733.382628
 10
643.489544
 20
1733.40602
 10
643.851706
 20
1733.382628
 10
644.208855
 20
1733.313028
 10
644.566004
 20
1733.198933
 10
644.923152
 20
1733.043153
 10
645.280301
 20
1732.849523
 10
645.63745
 20
1732.622812
 10
645.994598
 20
1732.368602
 10
646.354163
 20
1732.093153
 10
646.708895
 20
1731.803246
 10
647.066044
 20
1731.50602
 10
647.423193
 20
1731.208795
 10
647.777926
 20
1730.918888
 10
648.13749
 20
1730.643438
 10
648.494639
 20
1730.389228
 10
648.851787
 20
1730.162517
 10
649.208936
 20
1729.968888
 10
649.566085
 20
1729.813108
 10
649.923233
 20
1729.699013
 10
650.280382
 20
1729.629412
 10
650.642544
 20
1729.60602
 10
651.004706
 20
1729.629412
 10
651.361855
 20
1729.699013
 10
651.719004
 20
1729.813108
 10
652.076152
 20
1729.968888
 10
652.433301
 20
1730.162517
 10
652.79045
 20
1730.389228
 10
653.147598
 20
1730.643438
 10
653.507163
 20
1730.918888
 10
653.861895
 20
1731.208795
 10
654.219044
 20
1731.50602
 10
654.576193
 20
1731.803246
 10
654.930926
 20
1732.093153
 10
655.29049
 20
1732.368602
 10
655.647639
 20
1732.622812
 10
656.004787
 20
1732.849523
 10
656.361936
 20
1733.043153
 10
656.719085
 20
1733.198933
 10
657.076233
 20
1733.313028
 10
657.433382
 20
1733.382628
 10
657.795544
 20
1733.40602
 10
658.157706
 20
1733.382628
 10
658.514855
 20
1733.313028
 10
658.872004
 20
1733.198933
 10
659.229152
 20
1733.043153
 10
659.586301
 20
1732.849523
 10
659.94345
 20
1732.622812
 10
660.300598
 20
1732.368602
 10
660.660163
 20
1732.093153
 10
661.014895
 20
1731.803246
 10
661.372044
 20
1731.50602
 10
661.729193
 20
1731.208795
 10
662.083926
 20
1730.918888
 10
662.44349
 20
1730.643438
 10
662.800639
 20
1730.389228
 10
663.157787
 20
1730.162517
 10
663.514936
 20
1729.968888
 10
663.872085
 20
1729.813108
 10
664.229233
 20
1729.699013
 10
664.586382
 20
1729.629412
 10
664.948544
 20
1729.60602
 10
665.310706
 20
1729.629412
 10
665.667855
 20
1729.699013
 10
666.025004
 20
1729.813108
 10
666.382152
 20
1729.968888
 10
666.739301
 20
1730.162517
 10
667.09645
 20
1730.389228
 10
667.453598
 20
1730.643438
 10
667.813163
 20
1730.918888
 10
668.167895
 20
1731.208795
 10
668.525044
 20
1731.50602
 10
668.882193
 20
1731.803246
 10
669.236926
 20
1732.093153
 10
669.59649
 20
1732.368602
 10
669.953639
 20
1732.622812
 10
670.310787
 20
1732.849523
 10
670.667936
 20
1733.043153
 10
671.025085
 20
1733.198933
 10
671.382233
 20
1733.313028
 10
671.739382
 20
1733.382628
 10
672.101544
 20
1733.40602
 10
672.463706
 20
1733.382628
 10
672.820855
 20
1733.313028
 10
673.178004
 20
1733.198933
 10
673.535152
 20
1733.043153
 10
673.892301
 20
1732.849523
 10
674.24945
 20
1732.622812
 10
674.606598
 20
1732.368602
 10
674.966163
 20
1732.093153
 10
675.320895
 20
1731.803246
 10
675.678044
 20
1731.50602
 10
676.035193
 20
1731.208795
 10
676.389926
 20
1730.918888
 10
676.74949
 20
1730.643438
 10
677.106639
 20
1730.389228
 10
677.463787
 20
1730.162517
 10
677.820936
 20
1729.968888
 10
678.178085
 20
1729.813108
 10
678.535233
 20
1729.699013
 10
678.892382
 20
1729.629412
 10
679.254544
 20
1729.60602
 10
679.616706
 20
1729.629412
 10
679.973855
 20
1729.699013
 10
680.331004
 20
1729.813108
 10
680.688152
 20
1729.968888
 10
681.045301
 20
1730.162517
 10
681.40245
 20
1730.389228
 10
681.759598
 20
1730.643438
 10
682.119163
 20
1730.918888
 10
682.473895
 20
1731.208795
 10
682.831044
 20
1731.50602
 10
683.188193
 20
1731.803246
 10
683.542926
 20
1732.093153
 10
683.90249
 20
1732.368602
 10
684.259639
 20
1732.622812
 10
684.616787
 20
1732.849523
 10
684.973936
 20
1733.043153
 10
685.331085
 20
1733.198933
 10
685.688233
 20
1733.313028
 10
686.045382
 20
1733.382628
 10
686.407544
 20
1733.40602
 10
686.769706
 20
1733.382628
 10
687.126855
 20
1733.313028
 10
687.484004
 20
1733.198933
 10
687.841152
 20
1733.043153
 10
688.198301
 20
1732.849523
 10
688.55545
 20
1732.622812
 10
688.912598
 20
1732.368602
 10
689.272163
 20
1732.093153
 10
689.626895
 20
1731.803246
 10
689.984044
 20
1731.50602
 10
690.341193
 20
1731.208795
 10
690.695926
 20
1730.918888
 10
691.05549
 20
1730.643438
 10
691.412639
 20
1730.389228
 10
691.769787
 20
1730.162517
 10
692.126936
 20
1729.968888
 10
692.484085
 20
1729.813108
 10
692.841233
 20
1729.699013
 10
693.198382
 20
1729.629412
 10
693.560544
 20
1729.60602
 10
693.922706
 20
1729.629412
 10
694.279855
 20
1729.699013
 10
694.637004
 20
1729.813108
 10
694.994152
 20
1729.968888
 10
695.351301
 20
1730.162517
 10
695.70845
 20
1730.389228
 10
696.065598
 20
1730.643438
 10
696.425163
 20
1730.918888
  0
DIMENSION
  5
14A0
100
AcDbEntity
  8
KOTY-UPLNE
100
AcDbDimension
  2
*D19
 10
420.517031
 20
1751.884352
 30
0.0
 11
412.958352
 21
1758.134352
 31
0.0
 12
0.0
 22
-118.933667
 32
0.0
 70
    32
  3
KOTY-VELKE
100
AcDbAlignedDimension
 13
405.399673
 23
1730.633487
 33
0.0
 14
420.517031
 24
1713.323908
 34
0.0
100
AcDbRotatedDimension
1001
ACAD
1000
DSTYLE
1002
{
1070
    40
1040
5.0
1070
   147
1040
0.5
1070
    44
1040
0.5
1070
   178
1070
     1
1070
   177
1070
   256
1070
   176
1070
   256
1002
}
  0
LWPOLYLINE
  5
14A1
100
AcDbEntity
  8
LAMELA-VELKA
100
AcDbPolyline
 90
        5
 70
     0
 43
2.0
 10
412.333139
 20
1702.182743
 42
0.287877
 10
420.517031
 20
1713.323908
 42
0.413777
 10
408.517044
 20
1725.30602
 42
-1.0
 10
408.517045
 20
1731.50602
 42
0.164435
 10
412.103477
 20
1732.344463
  0
DIMENSION
  5
14A2
100
AcDbEntity
  8
KOTY-UPLNE
100
AcDbDimension
  2
*D22
 10
720.086758
 20
1751.884352
 30
0.0
 11
712.774456
 21
1758.240654
 31
0.0
 12
0.0
 22
-118.933667
 32
0.0
 70
   160
  3
KOTY-VELKE
100
AcDbAlignedDimension
 13
705.462153
 23
1730.633487
 33
0.0
 14
720.086758
 24
1711.368169
 34
0.0
100
AcDbRotatedDimension
1001
ACAD
1000
DSTYLE
1002
{
1070
    40
1040
5.0
1070
   147
1040
0.5
1070
    44
1040
0.5
1070
   178
1070
     1
1070
   177
1070
   256
1070
   176
1070
   256
1002
}
  0
DIMENSION
  5
14A3
100
AcDbEntity
  8
KOTY-UPLNE
100
AcDbDimension
  2
*D21
 10
705.462153
 20
1773.920864
 30
0.0
 11
725.392477
 21
1780.170864
 31
0.0
 12
0.0
 22
-118.933667
 32
0.0
 70
    32
  3
KOTY-VELKE
100
AcDbAlignedDimension
 13
745.322801
 23
1707.50602
 33
0.0
 14
705.462153
 24
1735.633487
 34
0.0
100
AcDbRotatedDimension
1001
ACAD
1000
DSTYLE
1002
{
1070
    40
1040
5.0
1070
   147
1040
0.5
1070
    44
1040
0.5
1070
   178
1070
     1
1070
   177
1070
   256
1070
   176
1070
   256
1002
}
  0
DIMENSION
  5
14A4
100
AcDbEntity
  8
KOTY-UPLNE
100
AcDbDimension
  2
*D23
 10
772.841444
 20
1731.50602
 30
0.0
 11
766.591444
 21
1715.75602
 31
0.0
 12
0.0
 22
-118.933667
 32
0.0
 70
    32
  3
KOTY-VELKE
100
AcDbAlignedDimension
 13
739.237044
 23
1700.00602
 33
0.0
 14
699.637044
 24
1731.50602
 34
0.0
 50
90.0
100
AcDbRotatedDimension
1001
ACAD
1000
DSTYLE
1002
{
1070
    40
1040
5.0
1070
   147
1040
0.5
1070
    44
1040
0.5
1070
   178
1070
     1
1070
   177
1070
   256
1070
   176
1070
   256
1002
}
  0
LWPOLYLINE
  5
14A5
100
AcDbEntity
  8
LAMELA-VELKA
100
AcDbPolyline
 90
       12
 70
     0
 43
2.0
 10
696.422351
 20
1730.92347
 42
-0.187687
 10
699.637044
 20
1731.50602
 42
-0.115441
 10
704.252424
 20
1728.429108
 10
705.447669
 20
1725.56054
 42
0.214719
 10
707.84816
 20
1723.319362
 10
713.458047
 20
1721.409897
 42
-0.831908
 10
710.237044
 20
1704.00602
 10
709.737044
 20
1704.00602
 42
1.0
 10
709.737044
 20
1700.00602
 10
739.237044
 20
1700.00602
 42
0.200073
 10
742.764706
 20
1702.50602
 10
745.322801
 20
1707.50602
  0
DIMENSION
  5
14F3
100
AcDbEntity
  8
KOTY-UPLNE
100
AcDbDimension
  2
*D24
 10
405.399673
 20
1892.854531
 30
0.0
 11
505.430913
 21
1899.104531
 31
0.0
 70
    32
  3
KOTY-VELKE
100
AcDbAlignedDimension
 13
605.462153
 23
1859.567154
 33
0.0
 14
405.399673
 24
1859.567154
 34
0.0
100
AcDbRotatedDimension
1001
ACAD
1000
DSTYLE
1002
{
1070
    40
1040
5.0
1070
   147
1040
0.5
1070
    44
1040
0.5
1070
   178
1070
     1
1070
   177
1070
   256
1070
   176
1070
   256
1002
}
  0
DIMENSION
  5
14F4
100
AcDbEntity
  8
KOTY-UPLNE
100
AcDbDimension
  2
*D25
 10
405.399673
 20
1773.920864
 30
0.0
 11
555.430913
 21
1780.170864
 31
0.0
 12
0.0
 22
-118.933667
 32
0.0
 70
    32
  3
KOTY-VELKE
100
AcDbAlignedDimension
 13
705.462153
 23
1740.633487
 33
0.0
 14
405.399673
 24
1740.633487
 34
0.0
100
AcDbRotatedDimension
1001
ACAD
1000
DSTYLE
1002
{
1070
    40
1040
5.0
1070
   147
1040
0.5
1070
    44
1040
0.5
1070
   178
1070
     1
1070
   177
1070
   256
1070
   176
1070
   256
1002
}
  0
LWPOLYLINE
  5
1503
100
AcDbEntity
  8
LAMELA-VELKA
100
AcDbPolyline
 90
       60
 70
     0
 43
2.0
 10
575.49947
 20
1850.5883
 10
575.678044
 20
1850.439687
 10
576.035193
 20
1850.142462
 10
576.389926
 20
1849.852555
 10
576.74949
 20
1849.577105
 10
577.106639
 20
1849.322895
 10
577.463787
 20
1849.096184
 10
577.820936
 20
1848.902555
 10
578.178085
 20
1848.746775
 10
578.535233
 20
1848.63268
 10
578.892382
 20
1848.563079
 10
579.254544
 20
1848.539687
 10
579.616706
 20
1848.563079
 10
579.973855
 20
1848.63268
 10
580.331004
 20
1848.746775
 10
580.688152
 20
1848.902555
 10
581.045301
 20
1849.096184
 10
581.40245
 20
1849.322895
 10
581.759598
 20
1849.577105
 10
582.119163
 20
1849.852555
 10
582.473895
 20
1850.142462
 10
582.831044
 20
1850.439687
 10
583.188193
 20
1850.736913
 10
583.542926
 20
1851.026819
 10
583.90249
 20
1851.302269
 10
584.259639
 20
1851.556479
 10
584.616787
 20
1851.78319
 10
584.973936
 20
1851.976819
 10
585.331085
 20
1852.1326
 10
585.688233
 20
1852.246695
 10
586.045382
 20
1852.316295
 10
586.407544
 20
1852.339687
 10
586.769706
 20
1852.316295
 10
587.126855
 20
1852.246695
 10
587.484004
 20
1852.1326
 10
587.841152
 20
1851.976819
 10
588.198301
 20
1851.78319
 10
588.55545
 20
1851.556479
 10
588.912598
 20
1851.302269
 10
589.272163
 20
1851.026819
 10
589.626895
 20
1850.736913
 10
589.984044
 20
1850.439687
 10
590.341193
 20
1850.142462
 10
590.695926
 20
1849.852555
 10
591.05549
 20
1849.577105
 10
591.412639
 20
1849.322895
 10
591.769787
 20
1849.096184
 10
592.126936
 20
1848.902555
 10
592.484085
 20
1848.746775
 10
592.841233
 20
1848.63268
 10
593.198382
 20
1848.563079
 10
593.560544
 20
1848.539687
 10
593.922706
 20
1848.563079
 10
594.279855
 20
1848.63268
 10
594.637004
 20
1848.746775
 10
594.994152
 20
1848.902555
 10
595.351301
 20
1849.096184
 10
595.70845
 20
1849.322895
 10
596.065598
 20
1849.577105
 10
596.425163
 20
1849.852555
  0
ENDSEC
  0
SECTION
  2
OBJECTS
  0
DICTIONARY
  5
7
100
AcDbDictionary
  3
ACAD_GROUP
350
22
  3
ACAD_LAYOUT
350
B
  3
ACAD_MLINESTYLE
350
23
  3
ACAD_PLOTSETTINGS
350
24
  3
ACAD_PLOTSTYLENAME
350
6
  3
ACDBHEADERROUNDTRIPXREC
350
11D
  3
DWGPROPS
350
52
  0
DICTIONARY
  5
147
100
AcDbDictionary
280
     1
  3
ACAD_XREC_ROUNDTRIP
360
148
  0
DICTIONARY
  5
117
100
AcDbDictionary
280
     1
  3
ACAD_XREC_ROUNDTRIP
360
118
  0
DICTIONARY
  5
145
100
AcDbDictionary
280
     1
  3
ACAD_XREC_ROUNDTRIP
360
146
  0
DICTIONARY
  5
13E
100
AcDbDictionary
280
     1
  3
ACAD_LAYOUTSELFREF
360
13F
  0
DICTIONARY
  5
111
100
AcDbDictionary
280
     1
  3
ACAD_LAYOUTSELFREF
360
142
  3
ACAD_XREC_ROUNDTRIP
360
112
  0
DICTIONARY
  5
22
102
{ACAD_REACTORS
330
7
102
}
100
AcDbDictionary
  0
DICTIONARY
  5
B
102
{ACAD_XDICTIONARY
360
140
102
}
102
{ACAD_REACTORS
330
7
102
}
100
AcDbDictionary
  3
LAYOUT2
350
F
  3
MODEL
350
A
  0
DICTIONARY
  5
23
102
{ACAD_REACTORS
330
7
102
}
100
AcDbDictionary
  3
STANDARD
350
27
  0
DICTIONARY
  5
24
102
{ACAD_REACTORS
330
7
102
}
100
AcDbDictionary
  0
ACAD_PROXY_OBJECT
  5
6
102
{ACAD_REACTORS
330
7
102
}
100
AcDbProxyObject
 90
      499
 91
      502
 93
       86
310
405010041939BDC9B585B0
350
5
340
5
 94
        0
  0
DICTIONARY
  5
11D
102
{ACAD_REACTORS
330
7
102
}
100
AcDbDictionary
  3
CEPSNTYPE
350
127
  3
DIMSTYLEDATA
350
12B
  3
FINGERPRINTGUID
350
128
  3
HYPERLINKBASE
350
120
  3
INSUNITS
350
126
  3
LAYOUTDICT
350
122
  3
LWETCUNION
350
125
  3
PLOTSETDICT
350
123
  3
PLOTSTYLNAMDICT
350
124
  3
PSVPSCALE
350
12A
  3
PUCSBASE
350
12E
  3
PUCSORGBACK
350
134
  3
PUCSORGBOTTOM
350
130
  3
PUCSORGFRONT
350
133
  3
PUCSORGLEFT
350
131
  3
PUCSORGRIGHT
350
132
  3
PUCSORGTOP
350
12F
  3
PUCSORTHOREF
350
12C
  3
PUCSORTHOVIEW
350
12D
  3
STYLESHEET
350
121
  3
TSTACKALIGN
350
11E
  3
TSTACKSIZE
350
11F
  3
UCSBASE
350
137
  3
UCSORGBACK
350
13D
  3
UCSORGBOTTOM
350
139
  3
UCSORGFRONT
350
13C
  3
UCSORGLEFT
350
13A
  3
UCSORGRIGHT
350
13B
  3
UCSORGTOP
350
138
  3
UCSORTHOREF
350
135
  3
UCSORTHOVIEW
350
136
  3
VERSIONGUID
350
129
  0
XRECORD
  5
52
102
{ACAD_REACTORS
330
7
102
}
100
AcDbXrecord
  1
DWGPROPS COOKIE
  2

  3

  4

  6

  7

  8
tom
  9

300
=
301
=
302
=
303
=
304
=
305
=
306
=
307
=
308
=
309
=
 40
0.356595
 41
2450098.461195
 42
2452040.602766
  1

 90
        0
  0
XRECORD
  5
148
102
{ACAD_REACTORS
330
147
102
}
100
AcDbXrecord
102
PLOTBIT
280
     0
  0
XRECORD
  5
118
102
{ACAD_REACTORS
330
117
102
}
100
AcDbXrecord
102
EXTNAMES
  1
TOM
  2
tom
  0
XRECORD
  5
146
102
{ACAD_REACTORS
330
145
102
}
100
AcDbXrecord
102
ACADR14ROUNDTRIP
1000
DSTYLE
1002
{
1070
   279
 70
     2
1002
}
  0
XRECORD
  5
13F
102
{ACAD_REACTORS
330
13E
102
}
100
AcDbXrecord
340
2
  0
XRECORD
  5
142
102
{ACAD_REACTORS
330
111
102
}
100
AcDbXrecord
340
C
  0
XRECORD
  5
112
102
{ACAD_REACTORS
330
111
102
}
100
AcDbXrecord
102
EXTNAMES
  1
*PAPER_SPACE
  2
*Paper_Space
  0
DICTIONARY
  5
140
100
AcDbDictionary
280
     1
  3
ACAD_XREC_ROUNDTRIP
360
141
  0
ACAD_PROXY_OBJECT
  5
F
102
{ACAD_REACTORS
330
B
102
}
100
AcDbProxyObject
 90
      499
 91
      504
 93
     1484
310
91943616E6F6E20427562626C652D4A657420424A432D343030302C8080000002033931C4000000000333F0A9000000000080ED0C4000000000003003D000000008067416A400000001017639C901024134A40501416AA543D513D34C4B5CDA591A5B99CB98DD1891069074C61796F75743240501A80000000003003F00000
310
00080CE4C7300000001037539C9000000039F3571A502A6A6A0000000022FC4ED00D0CCCCB8ACED3340800000060BC6F6F401999B993D89AD99020
330
C
330
0
340
0
340
0
 94
        0
  0
ACAD_PROXY_OBJECT
  5
A
102
{ACAD_REACTORS
330
B
102
}
100
AcDbProxyObject
 90
      499
 91
      504
 93
     1796
310
9144B796F63657261204D6974612046532D31383030290B8000000C067381B40000000102F06C51000000000068381B40000000002E06C510000000080253F6A400000003834239C90102413400000000002012100AE47E17A148E5E40405014100055D792FC8379401026BDF13AE5E0500049AA63FFE6283402D878F5E855
310
EE41024000000000000144043D513D34C4B5CDA591A5B99CB98DD18A26A666666666724FC0055D792FC8379C01026BDF13AE5E0701054D6F64656C901A800000000000000000000000000000000000000000000A1000000000000008902A6A6AAAA2
330
2
330
0
340
0
340
0
 94
        0
  0
MLINESTYLE
  5
27
102
{ACAD_REACTORS
330
23
102
}
100
AcDbMlineStyle
  2
STANDARD
 70
     0
  3

 62
   256
 51
90.0
 52
90.0
 71
     2
 49
0.5
 62
   256
  6
BYLAYER
 49
-0.5
 62
   256
  6
BYLAYER
  0
ACAD_PROXY_OBJECT
  5
5
102
{ACAD_REACTORS
330
6
102
}
100
AcDbProxyObject
 90
      499
 91
      503
 93
        0
 94
        0
  0
XRECORD
  5
127
102
{ACAD_REACTORS
330
11D
102
}
100
AcDbXrecord
 90
        0
  0
XRECORD
  5
12B
102
{ACAD_REACTORS
330
11D
102
}
100
AcDbXrecord
1000
DSTYLE
1002
{
1070
   179
 70
     4
1070
   278
 70
    44
1070
   279
 70
     2
1070
   289
 70
     1
1002
}
  0
XRECORD
  5
128
102
{ACAD_REACTORS
330
11D
102
}
100
AcDbXrecord
  1
{986116A0-451F-11D5-BBCF-006097BB053F}
  0
XRECORD
  5
120
102
{ACAD_REACTORS
330
11D
102
}
100
AcDbXrecord
  1

  0
XRECORD
  5
126
102
{ACAD_REACTORS
330
11D
102
}
100
AcDbXrecord
 90
        0
  0
XRECORD
  5
122
102
{ACAD_REACTORS
330
11D
102
}
100
AcDbXrecord
340
B
  0
XRECORD
  5
125
102
{ACAD_REACTORS
330
11D
102
}
100
AcDbXrecord
 90
    10781
  0
XRECORD
  5
123
102
{ACAD_REACTORS
330
11D
102
}
100
AcDbXrecord
340
24
  0
XRECORD
  5
124
102
{ACAD_REACTORS
330
11D
102
}
100
AcDbXrecord
340
6
  0
XRECORD
  5
12A
102
{ACAD_REACTORS
330
11D
102
}
100
AcDbXrecord
 40
0.0
  0
XRECORD
  5
12E
102
{ACAD_REACTORS
330
11D
102
}
100
AcDbXrecord
340
0
  0
XRECORD
  5
134
102
{ACAD_REACTORS
330
11D
102
}
100
AcDbXrecord
 10
0.0
 20
0.0
 30
0.0
  0
XRECORD
  5
130
102
{ACAD_REACTORS
330
11D
102
}
100
AcDbXrecord
 10
0.0
 20
0.0
 30
0.0
  0
XRECORD
  5
133
102
{ACAD_REACTORS
330
11D
102
}
100
AcDbXrecord
 10
0.0
 20
0.0
 30
0.0
  0
XRECORD
  5
131
102
{ACAD_REACTORS
330
11D
102
}
100
AcDbXrecord
 10
0.0
 20
0.0
 30
0.0
  0
XRECORD
  5
132
102
{ACAD_REACTORS
330
11D
102
}
100
AcDbXrecord
 10
0.0
 20
0.0
 30
0.0
  0
XRECORD
  5
12F
102
{ACAD_REACTORS
330
11D
102
}
100
AcDbXrecord
 10
0.0
 20
0.0
 30
0.0
  0
XRECORD
  5
12C
102
{ACAD_REACTORS
330
11D
102
}
100
AcDbXrecord
340
0
  0
XRECORD
  5
12D
102
{ACAD_REACTORS
330
11D
102
}
100
AcDbXrecord
 70
     0
  0
XRECORD
  5
121
102
{ACAD_REACTORS
330
11D
102
}
100
AcDbXrecord
  1
TOM1-siding.ctb
  0
XRECORD
  5
11E
102
{ACAD_REACTORS
330
11D
102
}
100
AcDbXrecord
 90
        1
  0
XRECORD
  5
11F
102
{ACAD_REACTORS
330
11D
102
}
100
AcDbXrecord
 90
       70
  0
XRECORD
  5
137
102
{ACAD_REACTORS
330
11D
102
}
100
AcDbXrecord
340
0
  0
XRECORD
  5
13D
102
{ACAD_REACTORS
330
11D
102
}
100
AcDbXrecord
 10
0.0
 20
0.0
 30
0.0
  0
XRECORD
  5
139
102
{ACAD_REACTORS
330
11D
102
}
100
AcDbXrecord
 10
0.0
 20
0.0
 30
0.0
  0
XRECORD
  5
13C
102
{ACAD_REACTORS
330
11D
102
}
100
AcDbXrecord
 10
0.0
 20
0.0
 30
0.0
  0
XRECORD
  5
13A
102
{ACAD_REACTORS
330
11D
102
}
100
AcDbXrecord
 10
0.0
 20
0.0
 30
0.0
  0
XRECORD
  5
13B
102
{ACAD_REACTORS
330
11D
102
}
100
AcDbXrecord
 10
0.0
 20
0.0
 30
0.0
  0
XRECORD
  5
138
102
{ACAD_REACTORS
330
11D
102
}
100
AcDbXrecord
 10
0.0
 20
0.0
 30
0.0
  0
XRECORD
  5
135
102
{ACAD_REACTORS
330
11D
102
}
100
AcDbXrecord
340
0
  0
XRECORD
  5
136
102
{ACAD_REACTORS
330
11D
102
}
100
AcDbXrecord
 70
     0
  0
XRECORD
  5
129
102
{ACAD_REACTORS
330
11D
102
}
100
AcDbXrecord
  1
{F5D44C6B-50ED-11D5-BBCF-006097BB053F}
  0
XRECORD
  5
141
102
{ACAD_REACTORS
330
140
102
}
100
AcDbXrecord
102
EXTNAMES
  1
LAYOUT2
  2
Layout2
  1
MODEL
  2
Model
  0
ENDSEC
  0
EOF
