  0
SECTION
  2
HEADER
  9
$ACADVER
  1
AC1014
  9
$ACADMAINTVER
 70
     0
  9
$DWGCODEPAGE
  3
ANSI_1250
  9
$INSBASE
 10
0.0
 20
0.0
 30
0.0
  9
$EXTMIN
 10
356.512277
 20
142.733719
 30
0.0
  9
$EXTMAX
 10
875.341444
 20
2160.96413
 30
0.0
  9
$LIMMIN
 10
0.0
 20
0.0
  9
$LIMMAX
 10
1200.0
 20
880.0
  9
$ORTHOMODE
 70
     1
  9
$REGENMODE
 70
     1
  9
$FILLMODE
 70
     1
  9
$QTEXTMODE
 70
     0
  9
$MIRRTEXT
 70
     0
  9
$DRAGMODE
 70
     2
  9
$LTSCALE
 40
5.0
  9
$OSMODE
 70
   171
  9
$ATTMODE
 70
     1
  9
$TEXTSIZE
 40
100.0
  9
$TRACEWID
 40
1.0
  9
$TEXTSTYLE
  7
TOM
  9
$CLAYER
  8
KOTY-UPLNE
  9
$CELTYPE
  6
BYLAYER
  9
$CECOLOR
 62
   256
  9
$CELTSCALE
 40
1.0
  9
$DELOBJ
 70
     1
  9
$DISPSILH
 70
     0
  9
$DIMSCALE
 40
5.0
  9
$DIMASZ
 40
1.5
  9
$DIMEXO
 40
1.0
  9
$DIMDLI
 40
10.0
  9
$DIMRND
 40
1.0
  9
$DIMDLE
 40
1.0
  9
$DIMEXE
 40
0.5
  9
$DIMTP
 40
0.0
  9
$DIMTM
 40
0.0
  9
$DIMTXT
 40
1.5
  9
$DIMCEN
 40
2.0
  9
$DIMTSZ
 40
0.0
  9
$DIMTOL
 70
     0
  9
$DIMLIM
 70
     0
  9
$DIMTIH
 70
     0
  9
$DIMTOH
 70
     0
  9
$DIMSE1
 70
     0
  9
$DIMSE2
 70
     0
  9
$DIMTAD
 70
     1
  9
$DIMZIN
 70
     9
  9
$DIMBLK
  1

  9
$DIMASO
 70
     1
  9
$DIMSHO
 70
     1
  9
$DIMPOST
  1

  9
$DIMAPOST
  1

  9
$DIMALT
 70
     0
  9
$DIMALTD
 70
     2
  9
$DIMALTF
 40
25.4
  9
$DIMLFAC
 40
1.0
  9
$DIMTOFL
 70
     1
  9
$DIMTVP
 40
0.0
  9
$DIMTIX
 70
     0
  9
$DIMSOXD
 70
     0
  9
$DIMSAH
 70
     0
  9
$DIMBLK1
  1

  9
$DIMBLK2
  1

  9
$DIMSTYLE
  2
KOTY-VELKE
  9
$DIMCLRD
 70
   256
  9
$DIMCLRE
 70
   256
  9
$DIMCLRT
 70
     1
  9
$DIMTFAC
 40
1.0
  9
$DIMGAP
 40
0.5
  9
$DIMJUST
 70
     0
  9
$DIMSD1
 70
     0
  9
$DIMSD2
 70
     0
  9
$DIMTOLJ
 70
     1
  9
$DIMTZIN
 70
     8
  9
$DIMALTZ
 70
     8
  9
$DIMALTTZ
 70
     8
  9
$DIMFIT
 70
     5
  9
$DIMUPT
 70
     0
  9
$DIMUNIT
 70
     2
  9
$DIMDEC
 70
     0
  9
$DIMTDEC
 70
     0
  9
$DIMALTU
 70
     2
  9
$DIMALTTD
 70
     2
  9
$DIMTXSTY
  7
TOM
  9
$DIMAUNIT
 70
     0
  9
$LUNITS
 70
     2
  9
$LUPREC
 70
     2
  9
$SKETCHINC
 40
1.0
  9
$FILLETRAD
 40
3.0
  9
$AUNITS
 70
     0
  9
$AUPREC
 70
     4
  9
$MENU
  1
acad
  9
$ELEVATION
 40
0.0
  9
$PELEVATION
 40
0.0
  9
$THICKNESS
 40
0.0
  9
$LIMCHECK
 70
     0
  9
$BLIPMODE
 70
     0
  9
$CHAMFERA
 40
0.0
  9
$CHAMFERB
 40
0.0
  9
$CHAMFERC
 40
0.0
  9
$CHAMFERD
 40
0.0
  9
$SKPOLY
 70
     0
  9
$TDCREATE
 40
2450098.461194791
  9
$TDUPDATE
 40
2452896.047292477
  9
$TDINDWG
 40
0.4593765046
  9
$TDUSRTIMER
 40
0.4593765046
  9
$USRTIMER
 70
     1
  9
$ANGBASE
 50
0.0
  9
$ANGDIR
 70
     0
  9
$PDMODE
 70
     0
  9
$PDSIZE
 40
0.0
  9
$PLINEWID
 40
0.0
  9
$COORDS
 70
     2
  9
$SPLFRAME
 70
     0
  9
$SPLINETYPE
 70
     6
  9
$SPLINESEGS
 70
     8
  9
$ATTDIA
 70
     0
  9
$ATTREQ
 70
     1
  9
$HANDLING
 70
     1
  9
$HANDSEED
  5
15DC
  9
$SURFTAB1
 70
     6
  9
$SURFTAB2
 70
     6
  9
$SURFTYPE
 70
     6
  9
$SURFU
 70
     6
  9
$SURFV
 70
     6
  9
$UCSNAME
  2

  9
$UCSORG
 10
0.0
 20
0.0
 30
0.0
  9
$UCSXDIR
 10
1.0
 20
0.0
 30
0.0
  9
$UCSYDIR
 10
0.0
 20
1.0
 30
0.0
  9
$PUCSNAME
  2

  9
$PUCSORG
 10
0.0
 20
0.0
 30
0.0
  9
$PUCSXDIR
 10
1.0
 20
0.0
 30
0.0
  9
$PUCSYDIR
 10
0.0
 20
1.0
 30
0.0
  9
$USERI1
 70
     0
  9
$USERI2
 70
     0
  9
$USERI3
 70
     0
  9
$USERI4
 70
     0
  9
$USERI5
 70
     0
  9
$USERR1
 40
0.0
  9
$USERR2
 40
0.0
  9
$USERR3
 40
0.0
  9
$USERR4
 40
0.0
  9
$USERR5
 40
0.0
  9
$WORLDVIEW
 70
     1
  9
$SHADEDGE
 70
     3
  9
$SHADEDIF
 70
    70
  9
$TILEMODE
 70
     1
  9
$MAXACTVP
 70
    16
  9
$PINSBASE
 10
0.0
 20
0.0
 30
0.0
  9
$PLIMCHECK
 70
     0
  9
$PEXTMIN
 10
27.943527
 20
19.928417
 30
0.0
  9
$PEXTMAX
 10
251.491745
 20
179.355751
 30
0.0
  9
$PLIMMIN
 10
-3.96875
 20
-7.14375
  9
$PLIMMAX
 10
292.929016
 20
202.900135
  9
$UNITMODE
 70
     0
  9
$VISRETAIN
 70
     0
  9
$PLINEGEN
 70
     0
  9
$PSLTSCALE
 70
     1
  9
$TREEDEPTH
 70
  3020
  9
$PICKSTYLE
 70
     3
  9
$CMLSTYLE
  2
STANDARD
  9
$CMLJUST
 70
     0
  9
$CMLSCALE
 40
1.0
  9
$PROXYGRAPHICS
 70
     1
  9
$MEASUREMENT
 70
     0
  0
ENDSEC
  0
SECTION
  2
CLASSES
  0
CLASS
  1
DICTIONARYVAR
  2
AcDbDictionaryVar
  3
"AutoCAD"
 90
        0
280
     0
281
     0
  0
CLASS
  1
LWPOLYLINE
  2
AcDbPolyline
  3
"AutoCAD"
 90
        0
280
     0
281
     1
  0
CLASS
  1
ACDBDICTIONARYWDFLT
  2
AcDbDictionaryWithDefault
  3
AutoCAD 2000
 90
        0
280
     0
281
     0
  0
CLASS
  1
ACDBPLACEHOLDER
  2
AcDbPlaceHolder
  3
AutoCAD 2000
 90
        0
280
     0
281
     0
  0
CLASS
  1
LAYOUT
  2
AcDbLayout
  3
AutoCAD 2000
 90
        0
280
     0
281
     0
  0
CLASS
  1
LONG_TRANSACTION
  2
AcDbLongTransaction
  3
AutoCAD 2000
 90
        0
280
     0
281
     0
  0
CLASS
  1
LWPOLYLINE
  2
AcDbPolyline
  3
"AutoCAD"
 90
        0
280
     0
281
     1
  0
CLASS
  1
HATCH
  2
AcDbHatch
  3
"ACAD_SEDONA"
 90
        0
280
     0
281
     1
  0
CLASS
  1
XRECORD
  2
AcDbXrecord
  3
"<Built In>"
 90
        0
280
     0
281
     0
  0
ENDSEC
  0
SECTION
  2
TABLES
  0
TABLE
  2
VPORT
  5
19
100
AcDbSymbolTable
 70
     6
  0
VPORT
  5
15DB
100
AcDbSymbolTableRecord
100
AcDbViewportTableRecord
  2
*ACTIVE
 70
     0
 10
0.0
 20
0.0
 11
1.0
 21
1.0
 12
670.852542
 22
2004.340003
 13
0.0
 23
0.0
 14
1.0
 24
1.0
 15
1000.0
 25
1000.0
 16
0.0
 26
0.0
 36
1.0
 17
0.0
 27
0.0
 37
0.0
 40
482.638661
 41
2.059548
 42
50.0
 43
0.0
 44
0.0
 50
0.0
 51
0.0
 71
     0
 72
 20000
 73
     1
 74
     1
 75
     0
 76
     0
 77
     0
 78
     0
  0
ENDTAB
  0
TABLE
  2
LTYPE
  5
14
100
AcDbSymbolTable
 70
     2
  0
LTYPE
  5
15
100
AcDbSymbolTableRecord
100
AcDbLinetypeTableRecord
  2
BYBLOCK
 70
     0
  3

 72
    65
 73
     0
 40
0.0
  0
LTYPE
  5
16
100
AcDbSymbolTableRecord
100
AcDbLinetypeTableRecord
  2
BYLAYER
 70
     0
  3

 72
    65
 73
     0
 40
0.0
  0
LTYPE
  5
8
100
AcDbSymbolTableRecord
100
AcDbLinetypeTableRecord
  2
AUSGEZOGEN
 70
     0
  3
Ausgezogene Linie
 72
    65
 73
     0
 40
0.0
  0
LTYPE
  5
3D1
100
AcDbSymbolTableRecord
100
AcDbLinetypeTableRecord
  2
CONTINUOUS
 70
     0
  3
Solid line
 72
    65
 73
     0
 40
0.0
  0
ENDTAB
  0
TABLE
  2
LAYER
  5
10
100
AcDbSymbolTable
 70
     6
  0
LAYER
  5
4
100
AcDbSymbolTableRecord
100
AcDbLayerTableRecord
  2
0
 70
     0
 62
     7
  6
AUSGEZOGEN
  0
LAYER
  5
31
102
{ACAD_XDICTIONARY
360
147
102
}
100
AcDbSymbolTableRecord
100
AcDbLayerTableRecord
  2
DEFPOINTS
 70
     0
 62
     7
  6
AUSGEZOGEN
  0
LAYER
  5
37
100
AcDbSymbolTableRecord
100
AcDbLayerTableRecord
  2
LAMELA-MALA
 70
     0
 62
    -7
  6
BYLAYER
  0
LAYER
  5
25
102
{ACAD_XDICTIONARY
360
115
102
}
100
AcDbSymbolTableRecord
100
AcDbLayerTableRecord
  2
KOTY-MALE
 70
     0
 62
    -7
  6
AUSGEZOGEN
  0
LAYER
  5
ABF
100
AcDbSymbolTableRecord
100
AcDbLayerTableRecord
  2
KOTY-UPLNE
 70
     0
 62
     5
  6
CONTINUOUS
  0
LAYER
  5
AC0
100
AcDbSymbolTableRecord
100
AcDbLayerTableRecord
  2
LAMELA-VELKA
 70
     0
 62
     7
  6
CONTINUOUS
  0
ENDTAB
  0
TABLE
  2
STYLE
  5
11
100
AcDbSymbolTable
 70
     4
  0
STYLE
  5
12
100
AcDbSymbolTableRecord
100
AcDbTextStyleTableRecord
  2
STANDARD
 70
     0
 40
0.0
 41
1.0
 50
0.0
 71
     0
 42
2.0
  3
txt8.shx
  4

  0
STYLE
  5
1F
100
AcDbSymbolTableRecord
100
AcDbTextStyleTableRecord
  2
SIMPLEX8
 70
     0
 40
0.0
 41
1.0
 50
0.0
 71
     0
 42
100.0
  3
simplex8.shx
  4

  0
STYLE
  5
26
102
{ACAD_XDICTIONARY
360
117
102
}
100
AcDbSymbolTableRecord
100
AcDbTextStyleTableRecord
  2
TOM
 70
     0
 40
0.0
 41
0.9
 50
0.0
 71
     0
 42
100.0
  3
simplex.shx
  4

  0
ENDTAB
  0
TABLE
  2
VIEW
  5
17
100
AcDbSymbolTable
 70
     0
  0
ENDTAB
  0
TABLE
  2
UCS
  5
18
100
AcDbSymbolTable
 70
     0
  0
ENDTAB
  0
TABLE
  2
APPID
  5
1B
100
AcDbSymbolTable
 70
     2
  0
APPID
  5
1C
100
AcDbSymbolTableRecord
100
AcDbRegAppTableRecord
  2
ACAD
 70
     0
  0
APPID
  5
3DA
100
AcDbSymbolTableRecord
100
AcDbRegAppTableRecord
  2
DCO15
 70
     0
  0
ENDTAB
  0
TABLE
  2
DIMSTYLE
  5
1D
100
AcDbSymbolTable
 70
     5
  0
DIMSTYLE
105
20
102
{ACAD_XDICTIONARY
360
145
102
}
100
AcDbSymbolTableRecord
100
AcDbDimStyleTableRecord
  2
PFLAUM2-35
 70
     0
  3

  4

  5

  6

  7

 40
2.0
 41
0.0
 42
1.0
 43
7.0
 44
1.0
 45
1.0
 46
1.0
 47
0.0
 48
0.0
140
3.5
141
2.0
142
1.0
143
25.4
144
1.0
145
0.0
146
1.0
147
0.0
 71
     0
 72
     0
 73
     0
 74
     0
 75
     0
 76
     0
 77
     1
 78
     8
170
     0
171
     2
172
     1
173
     0
174
     0
175
     0
176
     7
177
     7
178
    30
270
     2
271
     2
272
     2
273
     2
274
     2
340
1F
275
     0
280
     0
281
     0
282
     0
283
     1
284
     8
285
     8
286
     8
287
     5
288
     0
  0
DIMSTYLE
105
3D9
100
AcDbSymbolTableRecord
100
AcDbDimStyleTableRecord
  2
STANDARD
 70
     0
  3

  4

  5

  6

  7

 40
1.0
 41
0.18
 42
0.0625
 43
0.38
 44
0.18
 45
0.0
 46
0.0
 47
0.0
 48
0.0
140
0.18
141
0.09
142
0.0
143
25.4
144
1.0
145
0.0
146
1.0
147
0.09
 71
     0
 72
     0
 73
     1
 74
     1
 75
     0
 76
     0
 77
     0
 78
     0
170
     0
171
     2
172
     0
173
     0
174
     0
175
     0
176
     0
177
     0
178
     0
270
     2
271
     4
272
     4
273
     2
274
     2
340
12
275
     0
280
     0
281
     0
282
     0
283
     1
284
     0
285
     0
286
     0
287
     3
288
     0
  0
DIMSTYLE
105
ACE
102
{ACAD_REACTORS
330
1482
102
}
100
AcDbSymbolTableRecord
100
AcDbDimStyleTableRecord
  2
KOTY-MALE
 70
     0
  3

  4

  5

  6

  7

 40
10.0
 41
1.5
 42
1.0
 43
10.0
 44
0.0
 45
1.0
 46
1.0
 47
0.0
 48
0.0
140
1.5
141
2.0
142
0.0
143
25.4
144
1.0
145
0.0
146
1.0
147
0.5
 71
     0
 72
     0
 73
     0
 74
     0
 75
     0
 76
     0
 77
     1
 78
     9
170
     0
171
     2
172
     1
173
     0
174
     0
175
     0
176
   170
177
   170
178
     1
270
     2
271
     0
272
     0
273
     2
274
     2
340
26
275
     0
280
     0
281
     0
282
     0
283
     1
284
     8
285
     8
286
     8
287
     5
288
     0
  0
DIMSTYLE
105
ACF
102
{ACAD_REACTORS
330
CAD
330
CBC
330
CC9
330
CD9
330
1534
330
153A
330
1537
330
1539
330
1538
330
157D
330
157E
330
157F
330
1581
330
1580
102
}
100
AcDbSymbolTableRecord
100
AcDbDimStyleTableRecord
  2
KOTY-VELKE
 70
     0
  3

  4

  5

  6

  7

 40
3.0
 41
1.5
 42
1.0
 43
10.0
 44
0.0
 45
1.0
 46
1.0
 47
0.0
 48
0.0
140
1.5
141
2.0
142
0.0
143
25.4
144
1.0
145
0.0
146
1.0
147
1.5
 71
     0
 72
     0
 73
     0
 74
     0
 75
     0
 76
     0
 77
     1
 78
     9
170
     0
171
     2
172
     1
173
     0
174
     0
175
     0
176
   170
177
   170
178
    50
270
     2
271
     0
272
     0
273
     2
274
     2
340
26
275
     0
280
     0
281
     0
282
     0
283
     1
284
     8
285
     8
286
     8
287
     5
288
     0
  0
ENDTAB
  0
TABLE
  2
BLOCK_RECORD
  5
1
100
AcDbSymbolTable
 70
   105
  0
BLOCK_RECORD
  5
2
102
{ACAD_XDICTIONARY
360
13E
102
}
100
AcDbSymbolTableRecord
100
AcDbBlockTableRecord
  2
*MODEL_SPACE
  0
BLOCK_RECORD
  5
C
102
{ACAD_XDICTIONARY
360
111
102
}
100
AcDbSymbolTableRecord
100
AcDbBlockTableRecord
  2
*PAPER_SPACE
  0
BLOCK_RECORD
  5
67
100
AcDbSymbolTableRecord
100
AcDbBlockTableRecord
  2
*D0
  0
BLOCK_RECORD
  5
80
100
AcDbSymbolTableRecord
100
AcDbBlockTableRecord
  2
*D1
  0
BLOCK_RECORD
  5
27D
100
AcDbSymbolTableRecord
100
AcDbBlockTableRecord
  2
*D3
  0
BLOCK_RECORD
  5
2E1
100
AcDbSymbolTableRecord
100
AcDbBlockTableRecord
  2
*D4
  0
BLOCK_RECORD
  5
2ED
100
AcDbSymbolTableRecord
100
AcDbBlockTableRecord
  2
*D5
  0
BLOCK_RECORD
  5
40F
100
AcDbSymbolTableRecord
100
AcDbBlockTableRecord
  2
*D6
  0
BLOCK_RECORD
  5
41B
100
AcDbSymbolTableRecord
100
AcDbBlockTableRecord
  2
*D7
  0
BLOCK_RECORD
  5
500
100
AcDbSymbolTableRecord
100
AcDbBlockTableRecord
  2
*D8
  0
BLOCK_RECORD
  5
574
100
AcDbSymbolTableRecord
100
AcDbBlockTableRecord
  2
*D9
  0
BLOCK_RECORD
  5
6CB
100
AcDbSymbolTableRecord
100
AcDbBlockTableRecord
  2
*D10
  0
BLOCK_RECORD
  5
763
100
AcDbSymbolTableRecord
100
AcDbBlockTableRecord
  2
*D11
  0
BLOCK_RECORD
  5
83E
100
AcDbSymbolTableRecord
100
AcDbBlockTableRecord
  2
*D12
  0
BLOCK_RECORD
  5
CA1
100
AcDbSymbolTableRecord
100
AcDbBlockTableRecord
  2
*D14
  0
BLOCK_RECORD
  5
CAE
100
AcDbSymbolTableRecord
100
AcDbBlockTableRecord
  2
*D15
  0
BLOCK_RECORD
  5
CBD
100
AcDbSymbolTableRecord
100
AcDbBlockTableRecord
  2
*D16
  0
BLOCK_RECORD
  5
CCA
100
AcDbSymbolTableRecord
100
AcDbBlockTableRecord
  2
*D17
  0
BLOCK_RECORD
  5
1483
100
AcDbSymbolTableRecord
100
AcDbBlockTableRecord
  2
*D83
  0
BLOCK_RECORD
  5
1528
100
AcDbSymbolTableRecord
100
AcDbBlockTableRecord
  2
*D94
  0
BLOCK_RECORD
  5
153B
100
AcDbSymbolTableRecord
100
AcDbBlockTableRecord
  2
*D95
  0
BLOCK_RECORD
  5
1547
100
AcDbSymbolTableRecord
100
AcDbBlockTableRecord
  2
*D96
  0
BLOCK_RECORD
  5
1555
100
AcDbSymbolTableRecord
100
AcDbBlockTableRecord
  2
*D97
  0
BLOCK_RECORD
  5
1561
100
AcDbSymbolTableRecord
100
AcDbBlockTableRecord
  2
*D98
  0
BLOCK_RECORD
  5
1570
100
AcDbSymbolTableRecord
100
AcDbBlockTableRecord
  2
*D99
  0
BLOCK_RECORD
  5
1582
100
AcDbSymbolTableRecord
100
AcDbBlockTableRecord
  2
*D100
  0
BLOCK_RECORD
  5
158E
100
AcDbSymbolTableRecord
100
AcDbBlockTableRecord
  2
*D101
  0
BLOCK_RECORD
  5
159C
100
AcDbSymbolTableRecord
100
AcDbBlockTableRecord
  2
*D102
  0
BLOCK_RECORD
  5
15AB
100
AcDbSymbolTableRecord
100
AcDbBlockTableRecord
  2
*D103
  0
BLOCK_RECORD
  5
15B7
100
AcDbSymbolTableRecord
100
AcDbBlockTableRecord
  2
*D104
  0
ENDTAB
  0
ENDSEC
  0
SECTION
  2
BLOCKS
  0
BLOCK
  5
3
100
AcDbEntity
  8
0
100
AcDbBlockBegin
  2
*MODEL_SPACE
 70
     0
 10
0.0
 20
0.0
 30
0.0
  3
*MODEL_SPACE
  1

  0
ENDBLK
  5
9
100
AcDbEntity
  8
0
100
AcDbBlockEnd
  0
BLOCK
  5
D
100
AcDbEntity
 67
     1
  8
0
100
AcDbBlockBegin
  2
*PAPER_SPACE
 70
     0
 10
0.0
 20
0.0
 30
0.0
  3
*PAPER_SPACE
  1

  0
ENDBLK
  5
E
100
AcDbEntity
 67
     1
  8
0
100
AcDbBlockEnd
  0
BLOCK
  5
BC6
100
AcDbEntity
  8
0
100
AcDbBlockBegin
  2
*D0
 70
     1
 10
0.0
 20
0.0
 30
0.0
  3
*D0
  1

  0
LINE
  5
BC7
100
AcDbEntity
  8
0
  6
BYBLOCK
 62
   170
100
AcDbLine
 10
705.462153
 20
1653.173143
 30
0.0
 11
705.462153
 21
1708.974583
 31
0.0
  0
LINE
  5
BC8
100
AcDbEntity
  8
0
  6
BYBLOCK
 62
   170
100
AcDbLine
 10
405.399673
 20
1663.677201
 30
0.0
 11
405.399673
 21
1708.974583
 31
0.0
  0
LINE
  5
BC9
100
AcDbEntity
  8
0
  6
BYBLOCK
 62
   170
100
AcDbLine
 10
690.462153
 20
1708.974583
 30
0.0
 11
420.399673
 21
1708.974583
 31
0.0
  0
SOLID
  5
BCA
100
AcDbEntity
  8
0
  6
BYBLOCK
 62
   170
100
AcDbTrace
 10
690.462153
 20
1711.474583
 30
0.0
 11
690.462153
 21
1706.474583
 31
0.0
 12
705.462153
 22
1708.974583
 32
0.0
 13
705.462153
 23
1708.974583
 33
0.0
  0
SOLID
  5
BCB
100
AcDbEntity
  8
0
  6
BYBLOCK
 62
   170
100
AcDbTrace
 10
420.399673
 20
1711.474583
 30
0.0
 11
420.399673
 21
1706.474583
 31
0.0
 12
405.399673
 22
1708.974583
 32
0.0
 13
405.399673
 23
1708.974583
 33
0.0
  0
MTEXT
  5
BCC
100
AcDbEntity
  8
0
  6
BYBLOCK
 62
     1
100
AcDbMText
 10
555.430913
 20
1721.474583
 30
0.0
 40
15.0
 41
0.0
 71
     5
 72
     1
  1
\A1;M
  7
TOM
  0
POINT
  5
BCD
100
AcDbEntity
  8
DEFPOINTS
  6
BYBLOCK
 62
     0
100
AcDbPoint
 10
705.462153
 20
1643.173143
 30
0.0
  0
POINT
  5
BCE
100
AcDbEntity
  8
DEFPOINTS
  6
BYBLOCK
 62
     0
100
AcDbPoint
 10
405.399673
 20
1653.677201
 30
0.0
  0
POINT
  5
BCF
100
AcDbEntity
  8
DEFPOINTS
  6
BYBLOCK
 62
     0
100
AcDbPoint
 10
405.399673
 20
1708.974583
 30
0.0
  0
ENDBLK
  5
BD0
100
AcDbEntity
  8
0
100
AcDbBlockEnd
  0
BLOCK
  5
BD1
100
AcDbEntity
  8
0
100
AcDbBlockBegin
  2
*D1
 70
     1
 10
0.0
 20
0.0
 30
0.0
  3
*D1
  1

  0
LINE
  5
BD2
100
AcDbEntity
  8
0
  6
BYBLOCK
 62
   170
100
AcDbLine
 10
684.252424
 20
1661.731962
 30
0.0
 11
684.252424
 21
1677.48011
 31
0.0
  0
LINE
  5
BD3
100
AcDbEntity
  8
0
  6
BYBLOCK
 62
   170
100
AcDbLine
 10
705.462153
 20
1682.041874
 30
0.0
 11
705.462153
 21
1677.48011
 31
0.0
  0
LINE
  5
BD4
100
AcDbEntity
  8
0
  6
BYBLOCK
 62
   170
100
AcDbLine
 10
669.252424
 20
1677.48011
 30
0.0
 11
654.252424
 21
1677.48011
 31
0.0
  0
LINE
  5
BD5
100
AcDbEntity
  8
0
  6
BYBLOCK
 62
   170
100
AcDbLine
 10
720.462153
 20
1677.48011
 30
0.0
 11
735.462153
 21
1677.48011
 31
0.0
  0
MTEXT
  5
BD6
100
AcDbEntity
  8
0
  6
BYBLOCK
 62
     1
100
AcDbMText
 10
733.733046
 20
1692.783729
 30
0.0
 40
15.0
 41
0.0
 71
     5
 72
     1
  1
\A1;20
  7
TOM
  0
LINE
  5
BD7
100
AcDbEntity
  8
0
  6
BYBLOCK
 62
   170
100
AcDbLine
 10
684.252424
 20
1677.48011
 30
0.0
 11
705.462153
 21
1677.48011
 31
0.0
  0
LINE
  5
BD8
100
AcDbEntity
  8
0
  6
BYBLOCK
 62
   170
100
AcDbLine
 10
684.252424
 20
1677.48011
 30
0.0
 11
705.462153
 21
1677.48011
 31
0.0
  0
SOLID
  5
BD9
100
AcDbEntity
  8
0
  6
BYBLOCK
 62
   170
100
AcDbTrace
 10
669.252424
 20
1679.98011
 30
0.0
 11
669.252424
 21
1674.98011
 31
0.0
 12
684.252424
 22
1677.48011
 32
0.0
 13
684.252424
 23
1677.48011
 33
0.0
  0
SOLID
  5
BDA
100
AcDbEntity
  8
0
  6
BYBLOCK
 62
   170
100
AcDbTrace
 10
720.462153
 20
1679.98011
 30
0.0
 11
720.462153
 21
1674.98011
 31
0.0
 12
705.462153
 22
1677.48011
 32
0.0
 13
705.462153
 23
1677.48011
 33
0.0
  0
POINT
  5
BDB
100
AcDbEntity
  8
DEFPOINTS
  6
BYBLOCK
 62
     0
100
AcDbPoint
 10
684.252424
 20
1651.731962
 30
0.0
  0
POINT
  5
BDC
100
AcDbEntity
  8
DEFPOINTS
  6
BYBLOCK
 62
     0
100
AcDbPoint
 10
705.462153
 20
1672.041874
 30
0.0
  0
POINT
  5
BDD
100
AcDbEntity
  8
DEFPOINTS
  6
BYBLOCK
 62
     0
100
AcDbPoint
 10
705.462153
 20
1677.48011
 30
0.0
  0
ENDBLK
  5
BDE
100
AcDbEntity
  8
0
100
AcDbBlockEnd
  0
BLOCK
  5
BEA
100
AcDbEntity
  8
0
100
AcDbBlockBegin
  2
*D3
 70
     1
 10
0.0
 20
0.0
 30
0.0
  3
*D3
  1

  0
LINE
  5
BEB
100
AcDbEntity
  8
0
  6
BYBLOCK
 62
   170
100
AcDbLine
 10
705.462153
 20
1861.188261
 30
0.0
 11
705.462153
 21
1891.058677
 31
0.0
  0
LINE
  5
BEC
100
AcDbEntity
  8
0
  6
BYBLOCK
 62
   170
100
AcDbLine
 10
405.399673
 20
1861.188261
 30
0.0
 11
405.399673
 21
1891.058677
 31
0.0
  0
LINE
  5
BED
100
AcDbEntity
  8
0
  6
BYBLOCK
 62
   170
100
AcDbLine
 10
690.462153
 20
1891.058677
 30
0.0
 11
420.399673
 21
1891.058677
 31
0.0
  0
SOLID
  5
BEE
100
AcDbEntity
  8
0
  6
BYBLOCK
 62
   170
100
AcDbTrace
 10
690.462153
 20
1893.558677
 30
0.0
 11
690.462153
 21
1888.558677
 31
0.0
 12
705.462153
 22
1891.058677
 32
0.0
 13
705.462153
 23
1891.058677
 33
0.0
  0
SOLID
  5
BEF
100
AcDbEntity
  8
0
  6
BYBLOCK
 62
   170
100
AcDbTrace
 10
420.399673
 20
1893.558677
 30
0.0
 11
420.399673
 21
1888.558677
 31
0.0
 12
405.399673
 22
1891.058677
 32
0.0
 13
405.399673
 23
1891.058677
 33
0.0
  0
MTEXT
  5
BF0
100
AcDbEntity
  8
0
  6
BYBLOCK
 62
     1
100
AcDbMText
 10
555.430913
 20
1903.558677
 30
0.0
 40
15.0
 41
0.0
 71
     5
 72
     1
  1
\A1;M
  7
TOM
  0
POINT
  5
BF1
100
AcDbEntity
  8
DEFPOINTS
  6
BYBLOCK
 62
     0
100
AcDbPoint
 10
705.462153
 20
1851.188261
 30
0.0
  0
POINT
  5
BF2
100
AcDbEntity
  8
DEFPOINTS
  6
BYBLOCK
 62
     0
100
AcDbPoint
 10
405.399673
 20
1851.188261
 30
0.0
  0
POINT
  5
BF3
100
AcDbEntity
  8
DEFPOINTS
  6
BYBLOCK
 62
     0
100
AcDbPoint
 10
405.399673
 20
1891.058677
 30
0.0
  0
ENDBLK
  5
BF4
100
AcDbEntity
  8
0
100
AcDbBlockEnd
  0
BLOCK
  5
BF5
100
AcDbEntity
  8
0
100
AcDbBlockBegin
  2
*D4
 70
     1
 10
0.0
 20
0.0
 30
0.0
  3
*D4
  1

  0
LINE
  5
BF6
100
AcDbEntity
  8
0
  6
BYBLOCK
 62
   170
100
AcDbLine
 10
705.462153
 20
1414.971223
 30
0.0
 11
705.462153
 21
1486.839574
 31
0.0
  0
LINE
  5
BF7
100
AcDbEntity
  8
0
  6
BYBLOCK
 62
   170
100
AcDbLine
 10
405.399673
 20
1414.971223
 30
0.0
 11
405.399673
 21
1486.839574
 31
0.0
  0
LINE
  5
BF8
100
AcDbEntity
  8
0
  6
BYBLOCK
 62
   170
100
AcDbLine
 10
690.462153
 20
1486.839574
 30
0.0
 11
420.399673
 21
1486.839574
 31
0.0
  0
SOLID
  5
BF9
100
AcDbEntity
  8
0
  6
BYBLOCK
 62
   170
100
AcDbTrace
 10
690.462153
 20
1489.339574
 30
0.0
 11
690.462153
 21
1484.339574
 31
0.0
 12
705.462153
 22
1486.839574
 32
0.0
 13
705.462153
 23
1486.839574
 33
0.0
  0
SOLID
  5
BFA
100
AcDbEntity
  8
0
  6
BYBLOCK
 62
   170
100
AcDbTrace
 10
420.399673
 20
1489.339574
 30
0.0
 11
420.399673
 21
1484.339574
 31
0.0
 12
405.399673
 22
1486.839574
 32
0.0
 13
405.399673
 23
1486.839574
 33
0.0
  0
MTEXT
  5
BFB
100
AcDbEntity
  8
0
  6
BYBLOCK
 62
     1
100
AcDbMText
 10
555.430913
 20
1499.339574
 30
0.0
 40
15.0
 41
0.0
 71
     5
 72
     1
  1
\A1;M
  7
TOM
  0
POINT
  5
BFC
100
AcDbEntity
  8
DEFPOINTS
  6
BYBLOCK
 62
     0
100
AcDbPoint
 10
705.462153
 20
1404.971223
 30
0.0
  0
POINT
  5
BFD
100
AcDbEntity
  8
DEFPOINTS
  6
BYBLOCK
 62
     0
100
AcDbPoint
 10
405.399673
 20
1404.971223
 30
0.0
  0
POINT
  5
BFE
100
AcDbEntity
  8
DEFPOINTS
  6
BYBLOCK
 62
     0
100
AcDbPoint
 10
405.399673
 20
1486.839574
 30
0.0
  0
ENDBLK
  5
BFF
100
AcDbEntity
  8
0
100
AcDbBlockEnd
  0
BLOCK
  5
C00
100
AcDbEntity
  8
0
100
AcDbBlockBegin
  2
*D5
 70
     1
 10
0.0
 20
0.0
 30
0.0
  3
*D5
  1

  0
LINE
  5
C01
100
AcDbEntity
  8
0
  6
BYBLOCK
 62
   170
100
AcDbLine
 10
440.527227
 20
1438.537104
 30
0.0
 11
440.527227
 21
1450.955081
 31
0.0
  0
LINE
  5
C02
100
AcDbEntity
  8
0
  6
BYBLOCK
 62
   170
100
AcDbLine
 10
570.690004
 20
1412.52764
 30
0.0
 11
570.690004
 21
1450.955081
 31
0.0
  0
LINE
  5
C03
100
AcDbEntity
  8
0
  6
BYBLOCK
 62
   170
100
AcDbLine
 10
455.527227
 20
1450.955081
 30
0.0
 11
555.690004
 21
1450.955081
 31
0.0
  0
SOLID
  5
C04
100
AcDbEntity
  8
0
  6
BYBLOCK
 62
   170
100
AcDbTrace
 10
455.527227
 20
1453.455081
 30
0.0
 11
455.527227
 21
1448.455081
 31
0.0
 12
440.527227
 22
1450.955081
 32
0.0
 13
440.527227
 23
1450.955081
 33
0.0
  0
SOLID
  5
C05
100
AcDbEntity
  8
0
  6
BYBLOCK
 62
   170
100
AcDbTrace
 10
555.690004
 20
1453.455081
 30
0.0
 11
555.690004
 21
1448.455081
 31
0.0
 12
570.690004
 22
1450.955081
 32
0.0
 13
570.690004
 23
1450.955081
 33
0.0
  0
MTEXT
  5
C06
100
AcDbEntity
  8
0
  6
BYBLOCK
 62
     1
100
AcDbMText
 10
505.608616
 20
1463.455081
 30
0.0
 40
15.0
 41
0.0
 71
     5
 72
     1
  1
\A1;130
  7
TOM
  0
POINT
  5
C07
100
AcDbEntity
  8
DEFPOINTS
  6
BYBLOCK
 62
     0
100
AcDbPoint
 10
440.527227
 20
1428.537104
 30
0.0
  0
POINT
  5
C08
100
AcDbEntity
  8
DEFPOINTS
  6
BYBLOCK
 62
     0
100
AcDbPoint
 10
570.690004
 20
1402.52764
 30
0.0
  0
POINT
  5
C09
100
AcDbEntity
  8
DEFPOINTS
  6
BYBLOCK
 62
     0
100
AcDbPoint
 10
570.690004
 20
1450.955081
 30
0.0
  0
ENDBLK
  5
C0A
100
AcDbEntity
  8
0
100
AcDbBlockEnd
  0
BLOCK
  5
EA1
100
AcDbEntity
  8
0
100
AcDbBlockBegin
  2
*D6
 70
     1
 10
0.0
 20
0.0
 30
0.0
  3
*D6
  1

  0
LINE
  5
EA2
100
AcDbEntity
  8
0
  6
BYBLOCK
 62
   170
100
AcDbLine
 10
705.696023
 20
1218.673055
 30
0.0
 11
705.696023
 21
1276.059989
 31
0.0
  0
LINE
  5
EA3
100
AcDbEntity
  8
0
  6
BYBLOCK
 62
   170
100
AcDbLine
 10
405.399673
 20
1206.730715
 30
0.0
 11
405.399673
 21
1276.059989
 31
0.0
  0
LINE
  5
EA4
100
AcDbEntity
  8
0
  6
BYBLOCK
 62
   170
100
AcDbLine
 10
690.696023
 20
1276.059989
 30
0.0
 11
420.399673
 21
1276.059989
 31
0.0
  0
SOLID
  5
EA5
100
AcDbEntity
  8
0
  6
BYBLOCK
 62
   170
100
AcDbTrace
 10
690.696023
 20
1278.559989
 30
0.0
 11
690.696023
 21
1273.559989
 31
0.0
 12
705.696023
 22
1276.059989
 32
0.0
 13
705.696023
 23
1276.059989
 33
0.0
  0
SOLID
  5
EA6
100
AcDbEntity
  8
0
  6
BYBLOCK
 62
   170
100
AcDbTrace
 10
420.399673
 20
1278.559989
 30
0.0
 11
420.399673
 21
1273.559989
 31
0.0
 12
405.399673
 22
1276.059989
 32
0.0
 13
405.399673
 23
1276.059989
 33
0.0
  0
MTEXT
  5
EA7
100
AcDbEntity
  8
0
  6
BYBLOCK
 62
     1
100
AcDbMText
 10
555.547848
 20
1288.559989
 30
0.0
 40
15.0
 41
0.0
 71
     5
 72
     1
  1
\A1;M
  7
TOM
  0
POINT
  5
EA8
100
AcDbEntity
  8
DEFPOINTS
  6
BYBLOCK
 62
     0
100
AcDbPoint
 10
705.696023
 20
1208.673055
 30
0.0
  0
POINT
  5
EA9
100
AcDbEntity
  8
DEFPOINTS
  6
BYBLOCK
 62
     0
100
AcDbPoint
 10
405.399673
 20
1196.730715
 30
0.0
  0
POINT
  5
EAA
100
AcDbEntity
  8
DEFPOINTS
  6
BYBLOCK
 62
     0
100
AcDbPoint
 10
405.399673
 20
1276.059989
 30
0.0
  0
ENDBLK
  5
EAB
100
AcDbEntity
  8
0
100
AcDbBlockEnd
  0
BLOCK
  5
C16
100
AcDbEntity
  8
0
100
AcDbBlockBegin
  2
*D7
 70
     1
 10
0.0
 20
0.0
 30
0.0
  3
*D7
  1

  0
LINE
  5
C17
100
AcDbEntity
  8
0
  6
BYBLOCK
 62
   170
100
AcDbLine
 10
420.399673
 20
1216.955843
 30
0.0
 11
420.399673
 21
1233.929628
 31
0.0
  0
LINE
  5
C18
100
AcDbEntity
  8
0
  6
BYBLOCK
 62
   170
100
AcDbLine
 10
405.399673
 20
1206.554871
 30
0.0
 11
405.399673
 21
1233.929628
 31
0.0
  0
LINE
  5
C19
100
AcDbEntity
  8
0
  6
BYBLOCK
 62
   170
100
AcDbLine
 10
435.399673
 20
1233.929628
 30
0.0
 11
450.399673
 21
1233.929628
 31
0.0
  0
LINE
  5
C1A
100
AcDbEntity
  8
0
  6
BYBLOCK
 62
   170
100
AcDbLine
 10
390.399673
 20
1233.929628
 30
0.0
 11
375.399673
 21
1233.929628
 31
0.0
  0
MTEXT
  5
C1B
100
AcDbEntity
  8
0
  6
BYBLOCK
 62
     1
100
AcDbMText
 10
428.556096
 20
1255.327339
 30
0.0
 40
15.0
 41
0.0
 71
     5
 72
     1
  1
\A1;15
  7
TOM
  0
LINE
  5
C1C
100
AcDbEntity
  8
0
  6
BYBLOCK
 62
   170
100
AcDbLine
 10
420.399673
 20
1233.929628
 30
0.0
 11
405.399673
 21
1233.929628
 31
0.0
  0
LINE
  5
C1D
100
AcDbEntity
  8
0
  6
BYBLOCK
 62
   170
100
AcDbLine
 10
420.399673
 20
1233.929628
 30
0.0
 11
405.399673
 21
1233.929628
 31
0.0
  0
SOLID
  5
C1E
100
AcDbEntity
  8
0
  6
BYBLOCK
 62
   170
100
AcDbTrace
 10
435.399673
 20
1236.429628
 30
0.0
 11
435.399673
 21
1231.429628
 31
0.0
 12
420.399673
 22
1233.929628
 32
0.0
 13
420.399673
 23
1233.929628
 33
0.0
  0
SOLID
  5
C1F
100
AcDbEntity
  8
0
  6
BYBLOCK
 62
   170
100
AcDbTrace
 10
390.399673
 20
1236.429628
 30
0.0
 11
390.399673
 21
1231.429628
 31
0.0
 12
405.399673
 22
1233.929628
 32
0.0
 13
405.399673
 23
1233.929628
 33
0.0
  0
POINT
  5
C20
100
AcDbEntity
  8
DEFPOINTS
  6
BYBLOCK
 62
     0
100
AcDbPoint
 10
420.399673
 20
1206.955843
 30
0.0
  0
POINT
  5
C21
100
AcDbEntity
  8
DEFPOINTS
  6
BYBLOCK
 62
     0
100
AcDbPoint
 10
405.399673
 20
1196.554871
 30
0.0
  0
POINT
  5
C22
100
AcDbEntity
  8
DEFPOINTS
  6
BYBLOCK
 62
     0
100
AcDbPoint
 10
405.399673
 20
1233.929628
 30
0.0
  0
ENDBLK
  5
C23
100
AcDbEntity
  8
0
100
AcDbBlockEnd
  0
BLOCK
  5
C24
100
AcDbEntity
  8
0
100
AcDbBlockBegin
  2
*D8
 70
     1
 10
0.0
 20
0.0
 30
0.0
  3
*D8
  1

  0
LINE
  5
C25
100
AcDbEntity
  8
0
  6
BYBLOCK
 62
   170
100
AcDbLine
 10
706.696023
 20
1044.875008
 30
0.0
 11
706.696023
 21
1076.40083
 31
0.0
  0
LINE
  5
C26
100
AcDbEntity
  8
0
  6
BYBLOCK
 62
   170
100
AcDbLine
 10
405.399673
 20
1043.333639
 30
0.0
 11
405.399673
 21
1076.40083
 31
0.0
  0
LINE
  5
C27
100
AcDbEntity
  8
0
  6
BYBLOCK
 62
   170
100
AcDbLine
 10
691.696023
 20
1076.40083
 30
0.0
 11
420.399673
 21
1076.40083
 31
0.0
  0
SOLID
  5
C28
100
AcDbEntity
  8
0
  6
BYBLOCK
 62
   170
100
AcDbTrace
 10
691.696023
 20
1078.90083
 30
0.0
 11
691.696023
 21
1073.90083
 31
0.0
 12
706.696023
 22
1076.40083
 32
0.0
 13
706.696023
 23
1076.40083
 33
0.0
  0
SOLID
  5
C29
100
AcDbEntity
  8
0
  6
BYBLOCK
 62
   170
100
AcDbTrace
 10
420.399673
 20
1078.90083
 30
0.0
 11
420.399673
 21
1073.90083
 31
0.0
 12
405.399673
 22
1076.40083
 32
0.0
 13
405.399673
 23
1076.40083
 33
0.0
  0
MTEXT
  5
C2A
100
AcDbEntity
  8
0
  6
BYBLOCK
 62
     1
100
AcDbMText
 10
556.047848
 20
1088.90083
 30
0.0
 40
15.0
 41
0.0
 71
     5
 72
     1
  1
\A1;M
  7
TOM
  0
POINT
  5
C2B
100
AcDbEntity
  8
DEFPOINTS
  6
BYBLOCK
 62
     0
100
AcDbPoint
 10
706.696023
 20
1034.875008
 30
0.0
  0
POINT
  5
C2C
100
AcDbEntity
  8
DEFPOINTS
  6
BYBLOCK
 62
     0
100
AcDbPoint
 10
405.399673
 20
1033.333639
 30
0.0
  0
POINT
  5
C2D
100
AcDbEntity
  8
DEFPOINTS
  6
BYBLOCK
 62
     0
100
AcDbPoint
 10
405.399673
 20
1076.40083
 30
0.0
  0
ENDBLK
  5
C2E
100
AcDbEntity
  8
0
100
AcDbBlockEnd
  0
BLOCK
  5
C2F
100
AcDbEntity
  8
0
100
AcDbBlockBegin
  2
*D9
 70
     1
 10
0.0
 20
0.0
 30
0.0
  3
*D9
  1

  0
LINE
  5
C30
100
AcDbEntity
  8
0
  6
BYBLOCK
 62
   170
100
AcDbLine
 10
655.399673
 20
886.46503
 30
0.0
 11
655.399673
 21
911.704515
 31
0.0
  0
LINE
  5
C31
100
AcDbEntity
  8
0
  6
BYBLOCK
 62
   170
100
AcDbLine
 10
405.399673
 20
861.46503
 30
0.0
 11
405.399673
 21
911.704515
 31
0.0
  0
LINE
  5
C32
100
AcDbEntity
  8
0
  6
BYBLOCK
 62
   170
100
AcDbLine
 10
640.399673
 20
911.704515
 30
0.0
 11
420.399673
 21
911.704515
 31
0.0
  0
SOLID
  5
C33
100
AcDbEntity
  8
0
  6
BYBLOCK
 62
   170
100
AcDbTrace
 10
640.399673
 20
914.204515
 30
0.0
 11
640.399673
 21
909.204515
 31
0.0
 12
655.399673
 22
911.704515
 32
0.0
 13
655.399673
 23
911.704515
 33
0.0
  0
SOLID
  5
C34
100
AcDbEntity
  8
0
  6
BYBLOCK
 62
   170
100
AcDbTrace
 10
420.399673
 20
914.204515
 30
0.0
 11
420.399673
 21
909.204515
 31
0.0
 12
405.399673
 22
911.704515
 32
0.0
 13
405.399673
 23
911.704515
 33
0.0
  0
MTEXT
  5
C35
100
AcDbEntity
  8
0
  6
BYBLOCK
 62
     1
100
AcDbMText
 10
530.399673
 20
924.204515
 30
0.0
 40
15.0
 41
0.0
 71
     5
 72
     1
  1
\A1;M
  7
TOM
  0
POINT
  5
C36
100
AcDbEntity
  8
DEFPOINTS
  6
BYBLOCK
 62
     0
100
AcDbPoint
 10
655.399673
 20
876.46503
 30
0.0
  0
POINT
  5
C37
100
AcDbEntity
  8
DEFPOINTS
  6
BYBLOCK
 62
     0
100
AcDbPoint
 10
405.399673
 20
851.46503
 30
0.0
  0
POINT
  5
C38
100
AcDbEntity
  8
DEFPOINTS
  6
BYBLOCK
 62
     0
100
AcDbPoint
 10
405.399673
 20
911.704515
 30
0.0
  0
ENDBLK
  5
C39
100
AcDbEntity
  8
0
100
AcDbBlockEnd
  0
BLOCK
  5
131F
100
AcDbEntity
  8
0
100
AcDbBlockBegin
  2
*D10
 70
     1
 10
0.0
 20
0.0
 30
0.0
  3
*D10
  1

  0
LINE
  5
1320
100
AcDbEntity
  8
0
  6
BYBLOCK
 62
   170
100
AcDbLine
 10
657.229848
 20
713.676411
 30
0.0
 11
657.229848
 21
738.589435
 31
0.0
  0
LINE
  5
1321
100
AcDbEntity
  8
0
  6
BYBLOCK
 62
   170
100
AcDbLine
 10
407.392352
 20
712.886721
 30
0.0
 11
407.392352
 21
738.589435
 31
0.0
  0
LINE
  5
1322
100
AcDbEntity
  8
0
  6
BYBLOCK
 62
   170
100
AcDbLine
 10
642.229848
 20
738.589435
 30
0.0
 11
422.392352
 21
738.589435
 31
0.0
  0
SOLID
  5
1323
100
AcDbEntity
  8
0
  6
BYBLOCK
 62
   170
100
AcDbTrace
 10
642.229848
 20
741.089435
 30
0.0
 11
642.229848
 21
736.089435
 31
0.0
 12
657.229848
 22
738.589435
 32
0.0
 13
657.229848
 23
738.589435
 33
0.0
  0
SOLID
  5
1324
100
AcDbEntity
  8
0
  6
BYBLOCK
 62
   170
100
AcDbTrace
 10
422.392352
 20
741.089435
 30
0.0
 11
422.392352
 21
736.089435
 31
0.0
 12
407.392352
 22
738.589435
 32
0.0
 13
407.392352
 23
738.589435
 33
0.0
  0
MTEXT
  5
1325
100
AcDbEntity
  8
0
  6
BYBLOCK
 62
     1
100
AcDbMText
 10
532.3111
 20
751.089435
 30
0.0
 40
15.0
 41
0.0
 71
     5
 72
     1
  1
\A1;M
  7
TOM
  0
POINT
  5
1326
100
AcDbEntity
  8
DEFPOINTS
  6
BYBLOCK
 62
     0
100
AcDbPoint
 10
657.229848
 20
703.676411
 30
0.0
  0
POINT
  5
1327
100
AcDbEntity
  8
DEFPOINTS
  6
BYBLOCK
 62
     0
100
AcDbPoint
 10
407.392352
 20
702.886721
 30
0.0
  0
POINT
  5
1328
100
AcDbEntity
  8
DEFPOINTS
  6
BYBLOCK
 62
     0
100
AcDbPoint
 10
407.392352
 20
738.589435
 30
0.0
  0
ENDBLK
  5
1329
100
AcDbEntity
  8
0
100
AcDbBlockEnd
  0
BLOCK
  5
1335
100
AcDbEntity
  8
0
100
AcDbBlockBegin
  2
*D11
 70
     1
 10
0.0
 20
0.0
 30
0.0
  3
*D11
  1

  0
LINE
  5
1336
100
AcDbEntity
  8
0
  6
BYBLOCK
 62
   170
100
AcDbLine
 10
657.64403
 20
549.219514
 30
0.0
 11
657.64403
 21
574.118089
 31
0.0
  0
LINE
  5
1337
100
AcDbEntity
  8
0
  6
BYBLOCK
 62
   170
100
AcDbLine
 10
408.068608
 20
550.920866
 30
0.0
 11
408.068608
 21
574.118089
 31
0.0
  0
LINE
  5
1338
100
AcDbEntity
  8
0
  6
BYBLOCK
 62
   170
100
AcDbLine
 10
642.64403
 20
574.118089
 30
0.0
 11
423.068608
 21
574.118089
 31
0.0
  0
SOLID
  5
1339
100
AcDbEntity
  8
0
  6
BYBLOCK
 62
   170
100
AcDbTrace
 10
642.64403
 20
576.618089
 30
0.0
 11
642.64403
 21
571.618089
 31
0.0
 12
657.64403
 22
574.118089
 32
0.0
 13
657.64403
 23
574.118089
 33
0.0
  0
SOLID
  5
133A
100
AcDbEntity
  8
0
  6
BYBLOCK
 62
   170
100
AcDbTrace
 10
423.068608
 20
576.618089
 30
0.0
 11
423.068608
 21
571.618089
 31
0.0
 12
408.068608
 22
574.118089
 32
0.0
 13
408.068608
 23
574.118089
 33
0.0
  0
MTEXT
  5
133B
100
AcDbEntity
  8
0
  6
BYBLOCK
 62
     1
100
AcDbMText
 10
532.856319
 20
586.618089
 30
0.0
 40
15.0
 41
0.0
 71
     5
 72
     1
  1
\A1;M
  7
TOM
  0
POINT
  5
133C
100
AcDbEntity
  8
DEFPOINTS
  6
BYBLOCK
 62
     0
100
AcDbPoint
 10
657.64403
 20
539.219514
 30
0.0
  0
POINT
  5
133D
100
AcDbEntity
  8
DEFPOINTS
  6
BYBLOCK
 62
     0
100
AcDbPoint
 10
408.068608
 20
540.920866
 30
0.0
  0
POINT
  5
133E
100
AcDbEntity
  8
DEFPOINTS
  6
BYBLOCK
 62
     0
100
AcDbPoint
 10
408.068608
 20
574.118089
 30
0.0
  0
ENDBLK
  5
133F
100
AcDbEntity
  8
0
100
AcDbBlockEnd
  0
BLOCK
  5
13E0
100
AcDbEntity
  8
0
100
AcDbBlockBegin
  2
*D12
 70
     1
 10
0.0
 20
0.0
 30
0.0
  3
*D12
  1

  0
LINE
  5
13E1
100
AcDbEntity
  8
0
  6
BYBLOCK
 62
   170
100
AcDbLine
 10
687.399673
 20
397.618919
 30
0.0
 11
687.399673
 21
426.767828
 31
0.0
  0
LINE
  5
13E2
100
AcDbEntity
  8
0
  6
BYBLOCK
 62
   170
100
AcDbLine
 10
387.683496
 20
361.287219
 30
0.0
 11
387.683496
 21
426.767828
 31
0.0
  0
LINE
  5
13E3
100
AcDbEntity
  8
0
  6
BYBLOCK
 62
   170
100
AcDbLine
 10
672.399673
 20
426.767828
 30
0.0
 11
402.683496
 21
426.767828
 31
0.0
  0
SOLID
  5
13E4
100
AcDbEntity
  8
0
  6
BYBLOCK
 62
   170
100
AcDbTrace
 10
672.399673
 20
429.267828
 30
0.0
 11
672.399673
 21
424.267828
 31
0.0
 12
687.399673
 22
426.767828
 32
0.0
 13
687.399673
 23
426.767828
 33
0.0
  0
SOLID
  5
13E5
100
AcDbEntity
  8
0
  6
BYBLOCK
 62
   170
100
AcDbTrace
 10
402.683496
 20
429.267828
 30
0.0
 11
402.683496
 21
424.267828
 31
0.0
 12
387.683496
 22
426.767828
 32
0.0
 13
387.683496
 23
426.767828
 33
0.0
  0
MTEXT
  5
13E6
100
AcDbEntity
  8
0
  6
BYBLOCK
 62
     1
100
AcDbMText
 10
537.541584
 20
439.267828
 30
0.0
 40
15.0
 41
0.0
 71
     5
 72
     1
  1
\A1;M
  7
TOM
  0
POINT
  5
13E7
100
AcDbEntity
  8
DEFPOINTS
  6
BYBLOCK
 62
     0
100
AcDbPoint
 10
687.399673
 20
387.618919
 30
0.0
  0
POINT
  5
13E8
100
AcDbEntity
  8
DEFPOINTS
  6
BYBLOCK
 62
     0
100
AcDbPoint
 10
387.683496
 20
351.287219
 30
0.0
  0
POINT
  5
13E9
100
AcDbEntity
  8
DEFPOINTS
  6
BYBLOCK
 62
     0
100
AcDbPoint
 10
387.683496
 20
426.767828
 30
0.0
  0
ENDBLK
  5
13EA
100
AcDbEntity
  8
0
100
AcDbBlockEnd
  0
BLOCK
  5
D13
100
AcDbEntity
  8
0
100
AcDbBlockBegin
  2
*D14
 70
     1
 10
0.0
 20
0.0
 30
0.0
  3
*D14
  1

  0
LINE
  5
D14
100
AcDbEntity
  8
0
  6
BYBLOCK
100
AcDbLine
 10
744.237044
 20
2038.55108
 30
0.0
 11
775.341444
 21
2038.55108
 31
0.0
  0
LINE
  5
D15
100
AcDbEntity
  8
0
  6
BYBLOCK
100
AcDbLine
 10
704.637044
 20
2070.05108
 30
0.0
 11
775.341444
 21
2070.05108
 31
0.0
  0
LINE
  5
D16
100
AcDbEntity
  8
0
  6
BYBLOCK
100
AcDbLine
 10
772.841444
 20
2046.05108
 30
0.0
 11
772.841444
 21
2062.55108
 31
0.0
  0
SOLID
  5
D17
100
AcDbEntity
  8
0
  6
BYBLOCK
100
AcDbTrace
 10
771.591444
 20
2046.05108
 30
0.0
 11
774.091444
 21
2046.05108
 31
0.0
 12
772.841444
 22
2038.55108
 32
0.0
 13
772.841444
 23
2038.55108
 33
0.0
  0
SOLID
  5
D18
100
AcDbEntity
  8
0
  6
BYBLOCK
100
AcDbTrace
 10
771.591444
 20
2062.55108
 30
0.0
 11
774.091444
 21
2062.55108
 31
0.0
 12
772.841444
 22
2070.05108
 32
0.0
 13
772.841444
 23
2070.05108
 33
0.0
  0
MTEXT
  5
D19
100
AcDbEntity
  8
0
  6
BYBLOCK
 62
     1
100
AcDbMText
 10
766.591444
 20
2054.30108
 30
0.0
 40
7.5
 41
0.0
 71
     5
 72
     1
  1
\A1;32
  7
TOM
 11
0.0
 21
1.0
 31
0.0
  0
POINT
  5
D1A
100
AcDbEntity
  8
DEFPOINTS
  6
BYBLOCK
 62
     0
100
AcDbPoint
 10
739.237044
 20
2038.55108
 30
0.0
  0
POINT
  5
D1B
100
AcDbEntity
  8
DEFPOINTS
  6
BYBLOCK
 62
     0
100
AcDbPoint
 10
699.637044
 20
2070.05108
 30
0.0
  0
POINT
  5
D1C
100
AcDbEntity
  8
DEFPOINTS
  6
BYBLOCK
 62
     0
100
AcDbPoint
 10
772.841444
 20
2070.05108
 30
0.0
  0
ENDBLK
  5
D1D
100
AcDbEntity
  8
0
100
AcDbBlockEnd
  0
BLOCK
  5
D1E
100
AcDbEntity
  8
0
100
AcDbBlockBegin
  2
*D15
 70
     1
 10
0.0
 20
0.0
 30
0.0
  3
*D15
  1

  0
LINE
  5
D1F
100
AcDbEntity
  8
0
  6
BYBLOCK
100
AcDbLine
 10
405.399673
 20
2074.178547
 30
0.0
 11
405.399673
 21
2092.929412
 31
0.0
  0
LINE
  5
D20
100
AcDbEntity
  8
0
  6
BYBLOCK
100
AcDbLine
 10
420.517031
 20
2056.868968
 30
0.0
 11
420.517031
 21
2092.929412
 31
0.0
  0
LINE
  5
D21
100
AcDbEntity
  8
0
  6
BYBLOCK
100
AcDbLine
 10
397.899673
 20
2090.429412
 30
0.0
 11
390.399673
 21
2090.429412
 31
0.0
  0
LINE
  5
D22
100
AcDbEntity
  8
0
  6
BYBLOCK
100
AcDbLine
 10
428.017031
 20
2090.429412
 30
0.0
 11
435.517031
 21
2090.429412
 31
0.0
  0
LINE
  5
D23
100
AcDbEntity
  8
0
  6
BYBLOCK
100
AcDbLine
 10
405.399673
 20
2090.429412
 30
0.0
 11
420.517031
 21
2090.429412
 31
0.0
  0
SOLID
  5
D24
100
AcDbEntity
  8
0
  6
BYBLOCK
100
AcDbTrace
 10
397.899673
 20
2091.679412
 30
0.0
 11
397.899673
 21
2089.179412
 31
0.0
 12
405.399673
 22
2090.429412
 32
0.0
 13
405.399673
 23
2090.429412
 33
0.0
  0
SOLID
  5
D25
100
AcDbEntity
  8
0
  6
BYBLOCK
100
AcDbTrace
 10
428.017031
 20
2091.679412
 30
0.0
 11
428.017031
 21
2089.179412
 31
0.0
 12
420.517031
 22
2090.429412
 32
0.0
 13
420.517031
 23
2090.429412
 33
0.0
  0
MTEXT
  5
D26
100
AcDbEntity
  8
0
  6
BYBLOCK
 62
     1
100
AcDbMText
 10
412.958352
 20
2096.679412
 30
0.0
 40
7.5
 41
0.0
 71
     5
 72
     1
  1
\A1;15
  7
TOM
  0
POINT
  5
D27
100
AcDbEntity
  8
DEFPOINTS
  6
BYBLOCK
 62
     0
100
AcDbPoint
 10
405.399673
 20
2069.178547
 30
0.0
  0
POINT
  5
D28
100
AcDbEntity
  8
DEFPOINTS
  6
BYBLOCK
 62
     0
100
AcDbPoint
 10
420.517031
 20
2051.868968
 30
0.0
  0
POINT
  5
D29
100
AcDbEntity
  8
DEFPOINTS
  6
BYBLOCK
 62
     0
100
AcDbPoint
 10
420.517031
 20
2090.429412
 30
0.0
  0
ENDBLK
  5
D2A
100
AcDbEntity
  8
0
100
AcDbBlockEnd
  0
BLOCK
  5
D44
100
AcDbEntity
  8
0
100
AcDbBlockBegin
  2
*D16
 70
     1
 10
0.0
 20
0.0
 30
0.0
  3
*D16
  1

  0
LINE
  5
D45
100
AcDbEntity
  8
0
  6
BYBLOCK
100
AcDbLine
 10
745.322801
 20
2051.05108
 30
0.0
 11
745.322801
 21
2114.965923
 31
0.0
  0
LINE
  5
D46
100
AcDbEntity
  8
0
  6
BYBLOCK
100
AcDbLine
 10
705.462153
 20
2079.178547
 30
0.0
 11
705.462153
 21
2114.965923
 31
0.0
  0
LINE
  5
D47
100
AcDbEntity
  8
0
  6
BYBLOCK
100
AcDbLine
 10
737.822801
 20
2112.465923
 30
0.0
 11
712.962153
 21
2112.465923
 31
0.0
  0
SOLID
  5
D48
100
AcDbEntity
  8
0
  6
BYBLOCK
100
AcDbTrace
 10
737.822801
 20
2113.715923
 30
0.0
 11
737.822801
 21
2111.215923
 31
0.0
 12
745.322801
 22
2112.465923
 32
0.0
 13
745.322801
 23
2112.465923
 33
0.0
  0
SOLID
  5
D49
100
AcDbEntity
  8
0
  6
BYBLOCK
100
AcDbTrace
 10
712.962153
 20
2113.715923
 30
0.0
 11
712.962153
 21
2111.215923
 31
0.0
 12
705.462153
 22
2112.465923
 32
0.0
 13
705.462153
 23
2112.465923
 33
0.0
  0
MTEXT
  5
D4A
100
AcDbEntity
  8
0
  6
BYBLOCK
 62
     1
100
AcDbMText
 10
725.392477
 20
2118.715923
 30
0.0
 40
7.5
 41
0.0
 71
     5
 72
     1
  1
\A1;40
  7
TOM
  0
POINT
  5
D4B
100
AcDbEntity
  8
DEFPOINTS
  6
BYBLOCK
 62
     0
100
AcDbPoint
 10
745.322801
 20
2046.05108
 30
0.0
  0
POINT
  5
D4C
100
AcDbEntity
  8
DEFPOINTS
  6
BYBLOCK
 62
     0
100
AcDbPoint
 10
705.462153
 20
2074.178547
 30
0.0
  0
POINT
  5
D4D
100
AcDbEntity
  8
DEFPOINTS
  6
BYBLOCK
 62
     0
100
AcDbPoint
 10
705.462153
 20
2112.465923
 30
0.0
  0
ENDBLK
  5
D4E
100
AcDbEntity
  8
0
100
AcDbBlockEnd
  0
BLOCK
  5
D36
100
AcDbEntity
  8
0
100
AcDbBlockBegin
  2
*D17
 70
     1
 10
0.0
 20
0.0
 30
0.0
  3
*D17
  1

  0
LINE
  5
D37
100
AcDbEntity
  8
0
  6
BYBLOCK
100
AcDbLine
 10
705.462153
 20
2074.178547
 30
0.0
 11
705.462153
 21
2092.929412
 31
0.0
  0
LINE
  5
D38
100
AcDbEntity
  8
0
  6
BYBLOCK
100
AcDbLine
 10
720.086758
 20
2054.913229
 30
0.0
 11
720.086758
 21
2092.929412
 31
0.0
  0
LINE
  5
D39
100
AcDbEntity
  8
0
  6
BYBLOCK
100
AcDbLine
 10
697.962153
 20
2090.429412
 30
0.0
 11
690.462153
 21
2090.429412
 31
0.0
  0
LINE
  5
D3A
100
AcDbEntity
  8
0
  6
BYBLOCK
100
AcDbLine
 10
727.586758
 20
2090.429412
 30
0.0
 11
735.086758
 21
2090.429412
 31
0.0
  0
MTEXT
  5
D3B
100
AcDbEntity
  8
0
  6
BYBLOCK
 62
     1
100
AcDbMText
 10
712.774456
 20
2096.785714
 30
0.0
 40
7.5
 41
0.0
 71
     5
 72
     1
  1
\A1;15
  7
TOM
  0
LINE
  5
D3C
100
AcDbEntity
  8
0
  6
BYBLOCK
100
AcDbLine
 10
705.462153
 20
2090.429412
 30
0.0
 11
720.086758
 21
2090.429412
 31
0.0
  0
LINE
  5
D3D
100
AcDbEntity
  8
0
  6
BYBLOCK
100
AcDbLine
 10
705.462153
 20
2090.429412
 30
0.0
 11
720.086758
 21
2090.429412
 31
0.0
  0
SOLID
  5
D3E
100
AcDbEntity
  8
0
  6
BYBLOCK
100
AcDbTrace
 10
697.962153
 20
2091.679412
 30
0.0
 11
697.962153
 21
2089.179412
 31
0.0
 12
705.462153
 22
2090.429412
 32
0.0
 13
705.462153
 23
2090.429412
 33
0.0
  0
SOLID
  5
D3F
100
AcDbEntity
  8
0
  6
BYBLOCK
100
AcDbTrace
 10
727.586758
 20
2091.679412
 30
0.0
 11
727.586758
 21
2089.179412
 31
0.0
 12
720.086758
 22
2090.429412
 32
0.0
 13
720.086758
 23
2090.429412
 33
0.0
  0
POINT
  5
D40
100
AcDbEntity
  8
DEFPOINTS
  6
BYBLOCK
 62
     0
100
AcDbPoint
 10
705.462153
 20
2069.178547
 30
0.0
  0
POINT
  5
D41
100
AcDbEntity
  8
DEFPOINTS
  6
BYBLOCK
 62
     0
100
AcDbPoint
 10
720.086758
 20
2049.913229
 30
0.0
  0
POINT
  5
D42
100
AcDbEntity
  8
DEFPOINTS
  6
BYBLOCK
 62
     0
100
AcDbPoint
 10
720.086758
 20
2090.429412
 30
0.0
  0
ENDBLK
  5
D43
100
AcDbEntity
  8
0
100
AcDbBlockEnd
  0
BLOCK
  5
1484
100
AcDbEntity
  8
0
100
AcDbBlockBegin
  2
*D83
 70
     1
 10
0.0
 20
0.0
 30
0.0
  3
*D83
  1

  0
LINE
  5
1485
100
AcDbEntity
  8
0
  6
BYBLOCK
 62
   170
100
AcDbLine
 10
687.399673
 20
397.618919
 30
0.0
 11
687.399673
 21
426.767828
 31
0.0
  0
LINE
  5
1486
100
AcDbEntity
  8
0
  6
BYBLOCK
 62
   170
100
AcDbLine
 10
387.683496
 20
361.287219
 30
0.0
 11
387.683496
 21
426.767828
 31
0.0
  0
LINE
  5
1487
100
AcDbEntity
  8
0
  6
BYBLOCK
 62
   170
100
AcDbLine
 10
672.399673
 20
426.767828
 30
0.0
 11
402.683496
 21
426.767828
 31
0.0
  0
SOLID
  5
1488
100
AcDbEntity
  8
0
  6
BYBLOCK
 62
   170
100
AcDbTrace
 10
672.399673
 20
429.267828
 30
0.0
 11
672.399673
 21
424.267828
 31
0.0
 12
687.399673
 22
426.767828
 32
0.0
 13
687.399673
 23
426.767828
 33
0.0
  0
SOLID
  5
1489
100
AcDbEntity
  8
0
  6
BYBLOCK
 62
   170
100
AcDbTrace
 10
402.683496
 20
429.267828
 30
0.0
 11
402.683496
 21
424.267828
 31
0.0
 12
387.683496
 22
426.767828
 32
0.0
 13
387.683496
 23
426.767828
 33
0.0
  0
MTEXT
  5
148A
100
AcDbEntity
  8
0
  6
BYBLOCK
 62
     1
100
AcDbMText
 10
537.541584
 20
439.267828
 30
0.0
 40
15.0
 41
0.0
 71
     5
 72
     1
  1
\A1;M
  7
TOM
  0
POINT
  5
148B
100
AcDbEntity
  8
DEFPOINTS
  6
BYBLOCK
 62
     0
100
AcDbPoint
 10
687.399673
 20
387.618919
 30
0.0
  0
POINT
  5
148C
100
AcDbEntity
  8
DEFPOINTS
  6
BYBLOCK
 62
     0
100
AcDbPoint
 10
387.683496
 20
351.287219
 30
0.0
  0
POINT
  5
148D
100
AcDbEntity
  8
DEFPOINTS
  6
BYBLOCK
 62
     0
100
AcDbPoint
 10
387.683496
 20
426.767828
 30
0.0
  0
ENDBLK
  5
148E
100
AcDbEntity
  8
0
100
AcDbBlockEnd
  0
BLOCK
  5
15C3
100
AcDbEntity
  8
0
100
AcDbBlockBegin
  2
*D94
 70
     1
 10
0.0
 20
0.0
 30
0.0
  3
*D94
  1

  0
LINE
  5
15C4
100
AcDbEntity
  8
0
  6
BYBLOCK
100
AcDbLine
 10
405.399673
 20
2079.178547
 30
0.0
 11
405.399673
 21
2114.965923
 31
0.0
  0
LINE
  5
15C5
100
AcDbEntity
  8
0
  6
BYBLOCK
100
AcDbLine
 10
605.462153
 20
2084.178547
 30
0.0
 11
605.462153
 21
2114.965923
 31
0.0
  0
LINE
  5
15C6
100
AcDbEntity
  8
0
  6
BYBLOCK
100
AcDbLine
 10
412.899673
 20
2112.465923
 30
0.0
 11
597.962153
 21
2112.465923
 31
0.0
  0
SOLID
  5
15C7
100
AcDbEntity
  8
0
  6
BYBLOCK
100
AcDbTrace
 10
412.899673
 20
2113.715923
 30
0.0
 11
412.899673
 21
2111.215923
 31
0.0
 12
405.399673
 22
2112.465923
 32
0.0
 13
405.399673
 23
2112.465923
 33
0.0
  0
SOLID
  5
15C8
100
AcDbEntity
  8
0
  6
BYBLOCK
100
AcDbTrace
 10
597.962153
 20
2113.715923
 30
0.0
 11
597.962153
 21
2111.215923
 31
0.0
 12
605.462153
 22
2112.465923
 32
0.0
 13
605.462153
 23
2112.465923
 33
0.0
  0
MTEXT
  5
15C9
100
AcDbEntity
  8
0
  6
BYBLOCK
 62
     1
100
AcDbMText
 10
505.430913
 20
2118.715923
 30
0.0
 40
7.5
 41
0.0
 71
     5
 72
     1
  1
\A1;200
  7
TOM
  0
POINT
  5
15CA
100
AcDbEntity
  8
DEFPOINTS
  6
BYBLOCK
 62
     0
100
AcDbPoint
 10
405.399673
 20
2074.178547
 30
0.0
  0
POINT
  5
15CB
100
AcDbEntity
  8
DEFPOINTS
  6
BYBLOCK
 62
     0
100
AcDbPoint
 10
605.462153
 20
2079.178547
 30
0.0
  0
POINT
  5
15CC
100
AcDbEntity
  8
DEFPOINTS
  6
BYBLOCK
 62
     0
100
AcDbPoint
 10
605.462153
 20
2112.465923
 30
0.0
  0
ENDBLK
  5
15CD
100
AcDbEntity
  8
0
100
AcDbBlockEnd
  0
BLOCK
  5
153C
100
AcDbEntity
  8
0
100
AcDbBlockBegin
  2
*D95
 70
     1
 10
0.0
 20
0.0
 30
0.0
  3
*D95
  1

  0
LINE
  5
153D
100
AcDbEntity
  8
0
  6
BYBLOCK
100
AcDbLine
 10
744.237044
 20
2038.55108
 30
0.0
 11
775.341444
 21
2038.55108
 31
0.0
  0
LINE
  5
153E
100
AcDbEntity
  8
0
  6
BYBLOCK
100
AcDbLine
 10
704.637044
 20
2070.05108
 30
0.0
 11
775.341444
 21
2070.05108
 31
0.0
  0
LINE
  5
153F
100
AcDbEntity
  8
0
  6
BYBLOCK
100
AcDbLine
 10
772.841444
 20
2046.05108
 30
0.0
 11
772.841444
 21
2062.55108
 31
0.0
  0
SOLID
  5
1540
100
AcDbEntity
  8
0
  6
BYBLOCK
100
AcDbTrace
 10
771.591444
 20
2046.05108
 30
0.0
 11
774.091444
 21
2046.05108
 31
0.0
 12
772.841444
 22
2038.55108
 32
0.0
 13
772.841444
 23
2038.55108
 33
0.0
  0
SOLID
  5
1541
100
AcDbEntity
  8
0
  6
BYBLOCK
100
AcDbTrace
 10
771.591444
 20
2062.55108
 30
0.0
 11
774.091444
 21
2062.55108
 31
0.0
 12
772.841444
 22
2070.05108
 32
0.0
 13
772.841444
 23
2070.05108
 33
0.0
  0
MTEXT
  5
1542
100
AcDbEntity
  8
0
  6
BYBLOCK
 62
     1
100
AcDbMText
 10
766.591444
 20
2054.30108
 30
0.0
 40
7.5
 41
0.0
 71
     5
 72
     1
  1
\A1;32
  7
TOM
 11
0.0
 21
1.0
 31
0.0
  0
POINT
  5
1543
100
AcDbEntity
  8
DEFPOINTS
  6
BYBLOCK
 62
     0
100
AcDbPoint
 10
739.237044
 20
2038.55108
 30
0.0
  0
POINT
  5
1544
100
AcDbEntity
  8
DEFPOINTS
  6
BYBLOCK
 62
     0
100
AcDbPoint
 10
699.637044
 20
2070.05108
 30
0.0
  0
POINT
  5
1545
100
AcDbEntity
  8
DEFPOINTS
  6
BYBLOCK
 62
     0
100
AcDbPoint
 10
772.841444
 20
2070.05108
 30
0.0
  0
ENDBLK
  5
1546
100
AcDbEntity
  8
0
100
AcDbBlockEnd
  0
BLOCK
  5
1548
100
AcDbEntity
  8
0
100
AcDbBlockBegin
  2
*D96
 70
     1
 10
0.0
 20
0.0
 30
0.0
  3
*D96
  1

  0
LINE
  5
1549
100
AcDbEntity
  8
0
  6
BYBLOCK
100
AcDbLine
 10
405.399673
 20
2074.178547
 30
0.0
 11
405.399673
 21
2092.929412
 31
0.0
  0
LINE
  5
154A
100
AcDbEntity
  8
0
  6
BYBLOCK
100
AcDbLine
 10
420.517031
 20
2056.868968
 30
0.0
 11
420.517031
 21
2092.929412
 31
0.0
  0
LINE
  5
154B
100
AcDbEntity
  8
0
  6
BYBLOCK
100
AcDbLine
 10
397.899673
 20
2090.429412
 30
0.0
 11
390.399673
 21
2090.429412
 31
0.0
  0
LINE
  5
154C
100
AcDbEntity
  8
0
  6
BYBLOCK
100
AcDbLine
 10
428.017031
 20
2090.429412
 30
0.0
 11
435.517031
 21
2090.429412
 31
0.0
  0
LINE
  5
154D
100
AcDbEntity
  8
0
  6
BYBLOCK
100
AcDbLine
 10
405.399673
 20
2090.429412
 30
0.0
 11
420.517031
 21
2090.429412
 31
0.0
  0
SOLID
  5
154E
100
AcDbEntity
  8
0
  6
BYBLOCK
100
AcDbTrace
 10
397.899673
 20
2091.679412
 30
0.0
 11
397.899673
 21
2089.179412
 31
0.0
 12
405.399673
 22
2090.429412
 32
0.0
 13
405.399673
 23
2090.429412
 33
0.0
  0
SOLID
  5
154F
100
AcDbEntity
  8
0
  6
BYBLOCK
100
AcDbTrace
 10
428.017031
 20
2091.679412
 30
0.0
 11
428.017031
 21
2089.179412
 31
0.0
 12
420.517031
 22
2090.429412
 32
0.0
 13
420.517031
 23
2090.429412
 33
0.0
  0
MTEXT
  5
1550
100
AcDbEntity
  8
0
  6
BYBLOCK
 62
     1
100
AcDbMText
 10
412.958352
 20
2096.679412
 30
0.0
 40
7.5
 41
0.0
 71
     5
 72
     1
  1
\A1;15
  7
TOM
  0
POINT
  5
1551
100
AcDbEntity
  8
DEFPOINTS
  6
BYBLOCK
 62
     0
100
AcDbPoint
 10
405.399673
 20
2069.178547
 30
0.0
  0
POINT
  5
1552
100
AcDbEntity
  8
DEFPOINTS
  6
BYBLOCK
 62
     0
100
AcDbPoint
 10
420.517031
 20
2051.868968
 30
0.0
  0
POINT
  5
1553
100
AcDbEntity
  8
DEFPOINTS
  6
BYBLOCK
 62
     0
100
AcDbPoint
 10
420.517031
 20
2090.429412
 30
0.0
  0
ENDBLK
  5
1554
100
AcDbEntity
  8
0
100
AcDbBlockEnd
  0
BLOCK
  5
1556
100
AcDbEntity
  8
0
100
AcDbBlockBegin
  2
*D97
 70
     1
 10
0.0
 20
0.0
 30
0.0
  3
*D97
  1

  0
LINE
  5
1557
100
AcDbEntity
  8
0
  6
BYBLOCK
100
AcDbLine
 10
745.322801
 20
2051.05108
 30
0.0
 11
745.322801
 21
2114.965923
 31
0.0
  0
LINE
  5
1558
100
AcDbEntity
  8
0
  6
BYBLOCK
100
AcDbLine
 10
705.462153
 20
2079.178547
 30
0.0
 11
705.462153
 21
2114.965923
 31
0.0
  0
LINE
  5
1559
100
AcDbEntity
  8
0
  6
BYBLOCK
100
AcDbLine
 10
737.822801
 20
2112.465923
 30
0.0
 11
712.962153
 21
2112.465923
 31
0.0
  0
SOLID
  5
155A
100
AcDbEntity
  8
0
  6
BYBLOCK
100
AcDbTrace
 10
737.822801
 20
2113.715923
 30
0.0
 11
737.822801
 21
2111.215923
 31
0.0
 12
745.322801
 22
2112.465923
 32
0.0
 13
745.322801
 23
2112.465923
 33
0.0
  0
SOLID
  5
155B
100
AcDbEntity
  8
0
  6
BYBLOCK
100
AcDbTrace
 10
712.962153
 20
2113.715923
 30
0.0
 11
712.962153
 21
2111.215923
 31
0.0
 12
705.462153
 22
2112.465923
 32
0.0
 13
705.462153
 23
2112.465923
 33
0.0
  0
MTEXT
  5
155C
100
AcDbEntity
  8
0
  6
BYBLOCK
 62
     1
100
AcDbMText
 10
725.392477
 20
2118.715923
 30
0.0
 40
7.5
 41
0.0
 71
     5
 72
     1
  1
\A1;40
  7
TOM
  0
POINT
  5
155D
100
AcDbEntity
  8
DEFPOINTS
  6
BYBLOCK
 62
     0
100
AcDbPoint
 10
745.322801
 20
2046.05108
 30
0.0
  0
POINT
  5
155E
100
AcDbEntity
  8
DEFPOINTS
  6
BYBLOCK
 62
     0
100
AcDbPoint
 10
705.462153
 20
2074.178547
 30
0.0
  0
POINT
  5
155F
100
AcDbEntity
  8
DEFPOINTS
  6
BYBLOCK
 62
     0
100
AcDbPoint
 10
705.462153
 20
2112.465923
 30
0.0
  0
ENDBLK
  5
1560
100
AcDbEntity
  8
0
100
AcDbBlockEnd
  0
BLOCK
  5
1562
100
AcDbEntity
  8
0
100
AcDbBlockBegin
  2
*D98
 70
     1
 10
0.0
 20
0.0
 30
0.0
  3
*D98
  1

  0
LINE
  5
1563
100
AcDbEntity
  8
0
  6
BYBLOCK
100
AcDbLine
 10
705.462153
 20
2074.178547
 30
0.0
 11
705.462153
 21
2092.929412
 31
0.0
  0
LINE
  5
1564
100
AcDbEntity
  8
0
  6
BYBLOCK
100
AcDbLine
 10
720.086758
 20
2054.913229
 30
0.0
 11
720.086758
 21
2092.929412
 31
0.0
  0
LINE
  5
1565
100
AcDbEntity
  8
0
  6
BYBLOCK
100
AcDbLine
 10
697.962153
 20
2090.429412
 30
0.0
 11
690.462153
 21
2090.429412
 31
0.0
  0
LINE
  5
1566
100
AcDbEntity
  8
0
  6
BYBLOCK
100
AcDbLine
 10
727.586758
 20
2090.429412
 30
0.0
 11
735.086758
 21
2090.429412
 31
0.0
  0
MTEXT
  5
1567
100
AcDbEntity
  8
0
  6
BYBLOCK
 62
     1
100
AcDbMText
 10
712.774456
 20
2096.785714
 30
0.0
 40
7.5
 41
0.0
 71
     5
 72
     1
  1
\A1;15
  7
TOM
  0
LINE
  5
1568
100
AcDbEntity
  8
0
  6
BYBLOCK
100
AcDbLine
 10
705.462153
 20
2090.429412
 30
0.0
 11
720.086758
 21
2090.429412
 31
0.0
  0
LINE
  5
1569
100
AcDbEntity
  8
0
  6
BYBLOCK
100
AcDbLine
 10
705.462153
 20
2090.429412
 30
0.0
 11
720.086758
 21
2090.429412
 31
0.0
  0
SOLID
  5
156A
100
AcDbEntity
  8
0
  6
BYBLOCK
100
AcDbTrace
 10
697.962153
 20
2091.679412
 30
0.0
 11
697.962153
 21
2089.179412
 31
0.0
 12
705.462153
 22
2090.429412
 32
0.0
 13
705.462153
 23
2090.429412
 33
0.0
  0
SOLID
  5
156B
100
AcDbEntity
  8
0
  6
BYBLOCK
100
AcDbTrace
 10
727.586758
 20
2091.679412
 30
0.0
 11
727.586758
 21
2089.179412
 31
0.0
 12
720.086758
 22
2090.429412
 32
0.0
 13
720.086758
 23
2090.429412
 33
0.0
  0
POINT
  5
156C
100
AcDbEntity
  8
DEFPOINTS
  6
BYBLOCK
 62
     0
100
AcDbPoint
 10
705.462153
 20
2069.178547
 30
0.0
  0
POINT
  5
156D
100
AcDbEntity
  8
DEFPOINTS
  6
BYBLOCK
 62
     0
100
AcDbPoint
 10
720.086758
 20
2049.913229
 30
0.0
  0
POINT
  5
156E
100
AcDbEntity
  8
DEFPOINTS
  6
BYBLOCK
 62
     0
100
AcDbPoint
 10
720.086758
 20
2090.429412
 30
0.0
  0
ENDBLK
  5
156F
100
AcDbEntity
  8
0
100
AcDbBlockEnd
  0
BLOCK
  5
1571
100
AcDbEntity
  8
0
100
AcDbBlockBegin
  2
*D99
 70
     1
 10
0.0
 20
0.0
 30
0.0
  3
*D99
  1

  0
LINE
  5
1572
100
AcDbEntity
  8
0
  6
BYBLOCK
100
AcDbLine
 10
405.399673
 20
2079.178547
 30
0.0
 11
405.399673
 21
2114.965923
 31
0.0
  0
LINE
  5
1573
100
AcDbEntity
  8
0
  6
BYBLOCK
100
AcDbLine
 10
705.462153
 20
2084.178547
 30
0.0
 11
705.462153
 21
2114.965923
 31
0.0
  0
LINE
  5
1574
100
AcDbEntity
  8
0
  6
BYBLOCK
100
AcDbLine
 10
412.899673
 20
2112.465923
 30
0.0
 11
697.962153
 21
2112.465923
 31
0.0
  0
SOLID
  5
1575
100
AcDbEntity
  8
0
  6
BYBLOCK
100
AcDbTrace
 10
412.899673
 20
2113.715923
 30
0.0
 11
412.899673
 21
2111.215923
 31
0.0
 12
405.399673
 22
2112.465923
 32
0.0
 13
405.399673
 23
2112.465923
 33
0.0
  0
SOLID
  5
1576
100
AcDbEntity
  8
0
  6
BYBLOCK
100
AcDbTrace
 10
697.962153
 20
2113.715923
 30
0.0
 11
697.962153
 21
2111.215923
 31
0.0
 12
705.462153
 22
2112.465923
 32
0.0
 13
705.462153
 23
2112.465923
 33
0.0
  0
MTEXT
  5
1577
100
AcDbEntity
  8
0
  6
BYBLOCK
 62
     1
100
AcDbMText
 10
555.430913
 20
2118.715923
 30
0.0
 40
7.5
 41
0.0
 71
     5
 72
     1
  1
\A1;300
  7
TOM
  0
POINT
  5
1578
100
AcDbEntity
  8
DEFPOINTS
  6
BYBLOCK
 62
     0
100
AcDbPoint
 10
405.399673
 20
2074.178547
 30
0.0
  0
POINT
  5
1579
100
AcDbEntity
  8
DEFPOINTS
  6
BYBLOCK
 62
     0
100
AcDbPoint
 10
705.462153
 20
2079.178547
 30
0.0
  0
POINT
  5
157A
100
AcDbEntity
  8
DEFPOINTS
  6
BYBLOCK
 62
     0
100
AcDbPoint
 10
705.462153
 20
2112.465923
 30
0.0
  0
ENDBLK
  5
157B
100
AcDbEntity
  8
0
100
AcDbBlockEnd
  0
BLOCK
  5
15CE
100
AcDbEntity
  8
0
100
AcDbBlockBegin
  2
*D100
 70
     1
 10
0.0
 20
0.0
 30
0.0
  3
*D100
  1

  0
LINE
  5
15CF
100
AcDbEntity
  8
0
  6
BYBLOCK
100
AcDbLine
 10
405.399673
 20
1841.067664
 30
0.0
 11
405.399673
 21
1876.855041
 31
0.0
  0
LINE
  5
15D0
100
AcDbEntity
  8
0
  6
BYBLOCK
100
AcDbLine
 10
805.462153
 20
1846.067664
 30
0.0
 11
805.462153
 21
1876.855041
 31
0.0
  0
LINE
  5
15D1
100
AcDbEntity
  8
0
  6
BYBLOCK
100
AcDbLine
 10
412.899673
 20
1874.355041
 30
0.0
 11
797.962153
 21
1874.355041
 31
0.0
  0
SOLID
  5
15D2
100
AcDbEntity
  8
0
  6
BYBLOCK
100
AcDbTrace
 10
412.899673
 20
1875.605041
 30
0.0
 11
412.899673
 21
1873.105041
 31
0.0
 12
405.399673
 22
1874.355041
 32
0.0
 13
405.399673
 23
1874.355041
 33
0.0
  0
SOLID
  5
15D3
100
AcDbEntity
  8
0
  6
BYBLOCK
100
AcDbTrace
 10
797.962153
 20
1875.605041
 30
0.0
 11
797.962153
 21
1873.105041
 31
0.0
 12
805.462153
 22
1874.355041
 32
0.0
 13
805.462153
 23
1874.355041
 33
0.0
  0
MTEXT
  5
15D4
100
AcDbEntity
  8
0
  6
BYBLOCK
 62
     1
100
AcDbMText
 10
605.430913
 20
1880.605041
 30
0.0
 40
7.5
 41
0.0
 71
     5
 72
     1
  1
\A1;400
  7
TOM
  0
POINT
  5
15D5
100
AcDbEntity
  8
DEFPOINTS
  6
BYBLOCK
 62
     0
100
AcDbPoint
 10
405.399673
 20
1836.067664
 30
0.0
  0
POINT
  5
15D6
100
AcDbEntity
  8
DEFPOINTS
  6
BYBLOCK
 62
     0
100
AcDbPoint
 10
805.462153
 20
1841.067664
 30
0.0
  0
POINT
  5
15D7
100
AcDbEntity
  8
DEFPOINTS
  6
BYBLOCK
 62
     0
100
AcDbPoint
 10
805.462153
 20
1874.355041
 30
0.0
  0
ENDBLK
  5
15D8
100
AcDbEntity
  8
0
100
AcDbBlockEnd
  0
BLOCK
  5
158F
100
AcDbEntity
  8
0
100
AcDbBlockBegin
  2
*D101
 70
     1
 10
0.0
 20
0.0
 30
0.0
  3
*D101
  1

  0
LINE
  5
1590
100
AcDbEntity
  8
0
  6
BYBLOCK
100
AcDbLine
 10
405.399673
 20
1955.123105
 30
0.0
 11
405.399673
 21
1973.87397
 31
0.0
  0
LINE
  5
1591
100
AcDbEntity
  8
0
  6
BYBLOCK
100
AcDbLine
 10
420.517031
 20
1937.813526
 30
0.0
 11
420.517031
 21
1973.87397
 31
0.0
  0
LINE
  5
1592
100
AcDbEntity
  8
0
  6
BYBLOCK
100
AcDbLine
 10
397.899673
 20
1971.37397
 30
0.0
 11
390.399673
 21
1971.37397
 31
0.0
  0
LINE
  5
1593
100
AcDbEntity
  8
0
  6
BYBLOCK
100
AcDbLine
 10
428.017031
 20
1971.37397
 30
0.0
 11
435.517031
 21
1971.37397
 31
0.0
  0
LINE
  5
1594
100
AcDbEntity
  8
0
  6
BYBLOCK
100
AcDbLine
 10
405.399673
 20
1971.37397
 30
0.0
 11
420.517031
 21
1971.37397
 31
0.0
  0
SOLID
  5
1595
100
AcDbEntity
  8
0
  6
BYBLOCK
100
AcDbTrace
 10
397.899673
 20
1972.62397
 30
0.0
 11
397.899673
 21
1970.12397
 31
0.0
 12
405.399673
 22
1971.37397
 32
0.0
 13
405.399673
 23
1971.37397
 33
0.0
  0
SOLID
  5
1596
100
AcDbEntity
  8
0
  6
BYBLOCK
100
AcDbTrace
 10
428.017031
 20
1972.62397
 30
0.0
 11
428.017031
 21
1970.12397
 31
0.0
 12
420.517031
 22
1971.37397
 32
0.0
 13
420.517031
 23
1971.37397
 33
0.0
  0
MTEXT
  5
1597
100
AcDbEntity
  8
0
  6
BYBLOCK
 62
     1
100
AcDbMText
 10
412.958352
 20
1977.62397
 30
0.0
 40
7.5
 41
0.0
 71
     5
 72
     1
  1
\A1;15
  7
TOM
  0
POINT
  5
1598
100
AcDbEntity
  8
DEFPOINTS
  6
BYBLOCK
 62
     0
100
AcDbPoint
 10
405.399673
 20
1950.123105
 30
0.0
  0
POINT
  5
1599
100
AcDbEntity
  8
DEFPOINTS
  6
BYBLOCK
 62
     0
100
AcDbPoint
 10
420.517031
 20
1932.813526
 30
0.0
  0
POINT
  5
159A
100
AcDbEntity
  8
DEFPOINTS
  6
BYBLOCK
 62
     0
100
AcDbPoint
 10
420.517031
 20
1971.37397
 30
0.0
  0
ENDBLK
  5
159B
100
AcDbEntity
  8
0
100
AcDbBlockEnd
  0
BLOCK
  5
159D
100
AcDbEntity
  8
0
100
AcDbBlockBegin
  2
*D102
 70
     1
 10
0.0
 20
0.0
 30
0.0
  3
*D102
  1

  0
LINE
  5
159E
100
AcDbEntity
  8
0
  6
BYBLOCK
100
AcDbLine
 10
705.462153
 20
1955.123105
 30
0.0
 11
705.462153
 21
1973.87397
 31
0.0
  0
LINE
  5
159F
100
AcDbEntity
  8
0
  6
BYBLOCK
100
AcDbLine
 10
720.086758
 20
1935.857787
 30
0.0
 11
720.086758
 21
1973.87397
 31
0.0
  0
LINE
  5
15A0
100
AcDbEntity
  8
0
  6
BYBLOCK
100
AcDbLine
 10
697.962153
 20
1971.37397
 30
0.0
 11
690.462153
 21
1971.37397
 31
0.0
  0
LINE
  5
15A1
100
AcDbEntity
  8
0
  6
BYBLOCK
100
AcDbLine
 10
727.586758
 20
1971.37397
 30
0.0
 11
735.086758
 21
1971.37397
 31
0.0
  0
MTEXT
  5
15A2
100
AcDbEntity
  8
0
  6
BYBLOCK
 62
     1
100
AcDbMText
 10
712.774456
 20
1977.730272
 30
0.0
 40
7.5
 41
0.0
 71
     5
 72
     1
  1
\A1;15
  7
TOM
  0
LINE
  5
15A3
100
AcDbEntity
  8
0
  6
BYBLOCK
100
AcDbLine
 10
705.462153
 20
1971.37397
 30
0.0
 11
720.086758
 21
1971.37397
 31
0.0
  0
LINE
  5
15A4
100
AcDbEntity
  8
0
  6
BYBLOCK
100
AcDbLine
 10
705.462153
 20
1971.37397
 30
0.0
 11
720.086758
 21
1971.37397
 31
0.0
  0
SOLID
  5
15A5
100
AcDbEntity
  8
0
  6
BYBLOCK
100
AcDbTrace
 10
697.962153
 20
1972.62397
 30
0.0
 11
697.962153
 21
1970.12397
 31
0.0
 12
705.462153
 22
1971.37397
 32
0.0
 13
705.462153
 23
1971.37397
 33
0.0
  0
SOLID
  5
15A6
100
AcDbEntity
  8
0
  6
BYBLOCK
100
AcDbTrace
 10
727.586758
 20
1972.62397
 30
0.0
 11
727.586758
 21
1970.12397
 31
0.0
 12
720.086758
 22
1971.37397
 32
0.0
 13
720.086758
 23
1971.37397
 33
0.0
  0
POINT
  5
15A7
100
AcDbEntity
  8
DEFPOINTS
  6
BYBLOCK
 62
     0
100
AcDbPoint
 10
705.462153
 20
1950.123105
 30
0.0
  0
POINT
  5
15A8
100
AcDbEntity
  8
DEFPOINTS
  6
BYBLOCK
 62
     0
100
AcDbPoint
 10
720.086758
 20
1930.857787
 30
0.0
  0
POINT
  5
15A9
100
AcDbEntity
  8
DEFPOINTS
  6
BYBLOCK
 62
     0
100
AcDbPoint
 10
720.086758
 20
1971.37397
 30
0.0
  0
ENDBLK
  5
15AA
100
AcDbEntity
  8
0
100
AcDbBlockEnd
  0
BLOCK
  5
15AC
100
AcDbEntity
  8
0
100
AcDbBlockBegin
  2
*D103
 70
     1
 10
0.0
 20
0.0
 30
0.0
  3
*D103
  1

  0
LINE
  5
15AD
100
AcDbEntity
  8
0
  6
BYBLOCK
100
AcDbLine
 10
745.322801
 20
1931.995638
 30
0.0
 11
745.322801
 21
1995.910482
 31
0.0
  0
LINE
  5
15AE
100
AcDbEntity
  8
0
  6
BYBLOCK
100
AcDbLine
 10
705.462153
 20
1960.123105
 30
0.0
 11
705.462153
 21
1995.910482
 31
0.0
  0
LINE
  5
15AF
100
AcDbEntity
  8
0
  6
BYBLOCK
100
AcDbLine
 10
737.822801
 20
1993.410482
 30
0.0
 11
712.962153
 21
1993.410482
 31
0.0
  0
SOLID
  5
15B0
100
AcDbEntity
  8
0
  6
BYBLOCK
100
AcDbTrace
 10
737.822801
 20
1994.660482
 30
0.0
 11
737.822801
 21
1992.160482
 31
0.0
 12
745.322801
 22
1993.410482
 32
0.0
 13
745.322801
 23
1993.410482
 33
0.0
  0
SOLID
  5
15B1
100
AcDbEntity
  8
0
  6
BYBLOCK
100
AcDbTrace
 10
712.962153
 20
1994.660482
 30
0.0
 11
712.962153
 21
1992.160482
 31
0.0
 12
705.462153
 22
1993.410482
 32
0.0
 13
705.462153
 23
1993.410482
 33
0.0
  0
MTEXT
  5
15B2
100
AcDbEntity
  8
0
  6
BYBLOCK
 62
     1
100
AcDbMText
 10
725.392477
 20
1999.660482
 30
0.0
 40
7.5
 41
0.0
 71
     5
 72
     1
  1
\A1;40
  7
TOM
  0
POINT
  5
15B3
100
AcDbEntity
  8
DEFPOINTS
  6
BYBLOCK
 62
     0
100
AcDbPoint
 10
745.322801
 20
1926.995638
 30
0.0
  0
POINT
  5
15B4
100
AcDbEntity
  8
DEFPOINTS
  6
BYBLOCK
 62
     0
100
AcDbPoint
 10
705.462153
 20
1955.123105
 30
0.0
  0
POINT
  5
15B5
100
AcDbEntity
  8
DEFPOINTS
  6
BYBLOCK
 62
     0
100
AcDbPoint
 10
705.462153
 20
1993.410482
 30
0.0
  0
ENDBLK
  5
15B6
100
AcDbEntity
  8
0
100
AcDbBlockEnd
  0
BLOCK
  5
15B8
100
AcDbEntity
  8
0
100
AcDbBlockBegin
  2
*D104
 70
     1
 10
0.0
 20
0.0
 30
0.0
  3
*D104
  1

  0
LINE
  5
15B9
100
AcDbEntity
  8
0
  6
BYBLOCK
100
AcDbLine
 10
744.237044
 20
1919.495638
 30
0.0
 11
775.341444
 21
1919.495638
 31
0.0
  0
LINE
  5
15BA
100
AcDbEntity
  8
0
  6
BYBLOCK
100
AcDbLine
 10
704.637044
 20
1950.995638
 30
0.0
 11
775.341444
 21
1950.995638
 31
0.0
  0
LINE
  5
15BB
100
AcDbEntity
  8
0
  6
BYBLOCK
100
AcDbLine
 10
772.841444
 20
1926.995638
 30
0.0
 11
772.841444
 21
1943.495638
 31
0.0
  0
SOLID
  5
15BC
100
AcDbEntity
  8
0
  6
BYBLOCK
100
AcDbTrace
 10
771.591444
 20
1926.995638
 30
0.0
 11
774.091444
 21
1926.995638
 31
0.0
 12
772.841444
 22
1919.495638
 32
0.0
 13
772.841444
 23
1919.495638
 33
0.0
  0
SOLID
  5
15BD
100
AcDbEntity
  8
0
  6
BYBLOCK
100
AcDbTrace
 10
771.591444
 20
1943.495638
 30
0.0
 11
774.091444
 21
1943.495638
 31
0.0
 12
772.841444
 22
1950.995638
 32
0.0
 13
772.841444
 23
1950.995638
 33
0.0
  0
MTEXT
  5
15BE
100
AcDbEntity
  8
0
  6
BYBLOCK
 62
     1
100
AcDbMText
 10
766.591444
 20
1935.245638
 30
0.0
 40
7.5
 41
0.0
 71
     5
 72
     1
  1
\A1;32
  7
TOM
 11
0.0
 21
1.0
 31
0.0
  0
POINT
  5
15BF
100
AcDbEntity
  8
DEFPOINTS
  6
BYBLOCK
 62
     0
100
AcDbPoint
 10
739.237044
 20
1919.495638
 30
0.0
  0
POINT
  5
15C0
100
AcDbEntity
  8
DEFPOINTS
  6
BYBLOCK
 62
     0
100
AcDbPoint
 10
699.637044
 20
1950.995638
 30
0.0
  0
POINT
  5
15C1
100
AcDbEntity
  8
DEFPOINTS
  6
BYBLOCK
 62
     0
100
AcDbPoint
 10
772.841444
 20
1950.995638
 30
0.0
  0
ENDBLK
  5
15C2
100
AcDbEntity
  8
0
100
AcDbBlockEnd
  0
ENDSEC
  0
SECTION
  2
ENTITIES
  0
DIMENSION
  5
28
100
AcDbEntity
  8
KOTY-MALE
100
AcDbDimension
  2
*D0
 10
405.399673
 20
1708.974583
 30
0.0
 11
555.430913
 21
1721.474583
 31
0.0
 70
    32
  1
M
  3
KOTY-MALE
100
AcDbAlignedDimension
 13
705.462153
 23
1643.173143
 33
0.0
 14
405.399673
 24
1653.677201
 34
0.0
100
AcDbRotatedDimension
1001
ACAD
1000
DSTYLE
1002
{
1070
   147
1040
0.5
1070
   178
1070
     1
1002
}
  0
LWPOLYLINE
  5
36
100
AcDbEntity
  8
LAMELA-MALA
100
AcDbPolyline
 90
       15
 70
     0
 43
4.0
 10
745.322801
 20
1630.808874
 10
742.764706
 20
1625.808874
 42
-0.200073
 10
739.237044
 20
1623.308874
 10
709.737044
 20
1623.308874
 42
-1.0
 10
709.737044
 20
1627.308874
 10
710.237044
 20
1627.308874
 42
0.831908
 10
713.458047
 20
1644.712751
 10
687.84816
 20
1646.622216
 42
-0.214719
 10
685.447669
 20
1648.863394
 10
684.252424
 20
1651.731962
 42
0.302775
 10
679.637044
 20
1654.808874
 10
408.517045
 20
1654.808874
 42
1.0
 10
408.517044
 20
1648.608874
 42
-0.413777
 10
420.517031
 20
1636.626762
 42
-0.287877
 10
412.333139
 20
1625.485596
 42
-0.287877
  0
DIMENSION
  5
38
100
AcDbEntity
  8
KOTY-MALE
100
AcDbDimension
  2
*D1
 10
705.462153
 20
1677.48011
 30
0.0
 11
733.733046
 21
1692.783729
 31
0.0
 70
   160
  1
20
  3
KOTY-MALE
100
AcDbAlignedDimension
 13
684.252424
 23
1651.731962
 33
0.0
 14
705.462153
 24
1672.041874
 34
0.0
100
AcDbRotatedDimension
1001
ACAD
1000
DSTYLE
1002
{
1070
   147
1040
0.5
1070
   178
1070
     1
1002
}
  0
MTEXT
  5
21C
100
AcDbEntity
  8
0
100
AcDbMText
 10
485.888613
 20
2160.96413
 30
0.0
 40
10.0
 41
131.41
 71
     1
 72
     5
  1
Linear
  7
TOM
1001
ACAD
1000
MTEXTBEGIN
1070
    73
1070
     1
1070
    44
1040
1.0
1070
    74
1070
     0
1000
MTEXTEND
  0
DIMENSION
  5
278
100
AcDbEntity
  8
KOTY-MALE
100
AcDbDimension
  2
*D3
 10
405.399673
 20
1891.058677
 30
0.0
 11
555.430913
 21
1903.558677
 31
0.0
 70
    32
  1
M
  3
KOTY-MALE
100
AcDbAlignedDimension
 13
705.462153
 23
1851.188261
 33
0.0
 14
405.399673
 24
1851.188261
 34
0.0
100
AcDbRotatedDimension
1001
ACAD
1000
DSTYLE
1002
{
1070
   147
1040
0.5
1070
   178
1070
     1
1002
}
  0
LWPOLYLINE
  5
279
100
AcDbEntity
  8
LAMELA-MALA
100
AcDbPolyline
 90
      796
 70
     0
 43
4.0
 10
412.08849
 20
1851.302269
 10
412.445639
 20
1851.556479
 10
412.802787
 20
1851.78319
 10
413.159936
 20
1851.976819
 10
413.517085
 20
1852.1326
 10
413.874233
 20
1852.246695
 10
414.231382
 20
1852.316295
 10
414.593544
 20
1852.339687
 10
414.955706
 20
1852.316295
 10
415.312855
 20
1852.246695
 10
415.670004
 20
1852.1326
 10
416.027152
 20
1851.976819
 10
416.384301
 20
1851.78319
 10
416.74145
 20
1851.556479
 10
417.098598
 20
1851.302269
 10
417.458163
 20
1851.026819
 10
417.812896
 20
1850.736913
 10
418.170044
 20
1850.439687
 10
418.527193
 20
1850.142462
 10
418.881926
 20
1849.852555
 10
419.24149
 20
1849.577105
 10
419.598639
 20
1849.322895
 10
419.955787
 20
1849.096184
 10
420.312936
 20
1848.902555
 10
420.670085
 20
1848.746775
 10
421.027233
 20
1848.63268
 10
421.384382
 20
1848.563079
 10
421.746544
 20
1848.539687
 10
422.108706
 20
1848.563079
 10
422.465855
 20
1848.63268
 10
422.823004
 20
1848.746775
 10
423.180152
 20
1848.902555
 10
423.537301
 20
1849.096184
 10
423.89445
 20
1849.322895
 10
424.251598
 20
1849.577105
 10
424.611163
 20
1849.852555
 10
424.965896
 20
1850.142462
 10
425.323044
 20
1850.439687
 10
425.680193
 20
1850.736913
 10
426.034926
 20
1851.026819
 10
426.39449
 20
1851.302269
 10
426.751639
 20
1851.556479
 10
427.108787
 20
1851.78319
 10
427.465936
 20
1851.976819
 10
427.823085
 20
1852.1326
 10
428.180233
 20
1852.246695
 10
428.537382
 20
1852.316295
 10
428.899544
 20
1852.339687
 10
429.261706
 20
1852.316295
 10
429.618855
 20
1852.246695
 10
429.976004
 20
1852.1326
 10
430.333152
 20
1851.976819
 10
430.690301
 20
1851.78319
 10
431.04745
 20
1851.556479
 10
431.404598
 20
1851.302269
 10
431.764163
 20
1851.026819
 10
432.118896
 20
1850.736913
 10
432.476044
 20
1850.439687
 10
432.833193
 20
1850.142462
 10
433.187926
 20
1849.852555
 10
433.54749
 20
1849.577105
 10
433.904639
 20
1849.322895
 10
434.261787
 20
1849.096184
 10
434.618936
 20
1848.902555
 10
434.976085
 20
1848.746775
 10
435.333233
 20
1848.63268
 10
435.690382
 20
1848.563079
 10
436.052544
 20
1848.539687
 10
436.414706
 20
1848.563079
 10
436.771855
 20
1848.63268
 10
437.129004
 20
1848.746775
 10
437.486152
 20
1848.902555
 10
437.843301
 20
1849.096184
 10
438.20045
 20
1849.322895
 10
438.557598
 20
1849.577105
 10
438.917163
 20
1849.852555
 10
439.271896
 20
1850.142462
 10
439.629044
 20
1850.439687
 10
439.986193
 20
1850.736913
 10
440.340926
 20
1851.026819
 10
440.70049
 20
1851.302269
 10
441.057639
 20
1851.556479
 10
441.414787
 20
1851.78319
 10
441.771936
 20
1851.976819
 10
442.129085
 20
1852.1326
 10
442.486233
 20
1852.246695
 10
442.843382
 20
1852.316295
 10
443.205544
 20
1852.339687
 10
443.567706
 20
1852.316295
 10
443.924855
 20
1852.246695
 10
444.282004
 20
1852.1326
 10
444.639152
 20
1851.976819
 10
444.996301
 20
1851.78319
 10
445.35345
 20
1851.556479
 10
445.710598
 20
1851.302269
 10
446.070163
 20
1851.026819
 10
446.424896
 20
1850.736913
 10
446.782044
 20
1850.439687
 10
447.139193
 20
1850.142462
 10
447.493926
 20
1849.852555
 10
447.85349
 20
1849.577105
 10
448.210639
 20
1849.322895
 10
448.567787
 20
1849.096184
 10
448.924936
 20
1848.902555
 10
449.282085
 20
1848.746775
 10
449.639233
 20
1848.63268
 10
449.996382
 20
1848.563079
 10
450.358544
 20
1848.539687
 10
450.720706
 20
1848.563079
 10
451.077855
 20
1848.63268
 10
451.435004
 20
1848.746775
 10
451.792152
 20
1848.902555
 10
452.149301
 20
1849.096184
 10
452.50645
 20
1849.322895
 10
452.863598
 20
1849.577105
 10
453.223163
 20
1849.852555
 10
453.577896
 20
1850.142462
 10
453.935044
 20
1850.439687
 10
454.292193
 20
1850.736913
 10
454.646926
 20
1851.026819
 10
455.00649
 20
1851.302269
 10
455.363639
 20
1851.556479
 10
455.720787
 20
1851.78319
 10
456.077936
 20
1851.976819
 10
456.435085
 20
1852.1326
 10
456.792233
 20
1852.246695
 10
457.149382
 20
1852.316295
 10
457.511544
 20
1852.339687
 10
457.873706
 20
1852.316295
 10
458.230855
 20
1852.246695
 10
458.588004
 20
1852.1326
 10
458.945152
 20
1851.976819
 10
459.302301
 20
1851.78319
 10
459.65945
 20
1851.556479
 10
460.016598
 20
1851.302269
 10
460.376163
 20
1851.026819
 10
460.730896
 20
1850.736913
 10
461.088044
 20
1850.439687
 10
461.445193
 20
1850.142462
 10
461.799926
 20
1849.852555
 10
462.15949
 20
1849.577105
 10
462.516639
 20
1849.322895
 10
462.873787
 20
1849.096184
 10
463.230936
 20
1848.902555
 10
463.588085
 20
1848.746775
 10
463.945233
 20
1848.63268
 10
464.302382
 20
1848.563079
 10
464.664544
 20
1848.539687
 10
465.026706
 20
1848.563079
 10
465.383855
 20
1848.63268
 10
465.741004
 20
1848.746775
 10
466.098152
 20
1848.902555
 10
466.455301
 20
1849.096184
 10
466.81245
 20
1849.322895
 10
467.169598
 20
1849.577105
 10
467.529163
 20
1849.852555
 10
467.883896
 20
1850.142462
 10
468.241044
 20
1850.439687
 10
468.598193
 20
1850.736913
 10
468.952926
 20
1851.026819
 10
469.31249
 20
1851.302269
 10
469.669639
 20
1851.556479
 10
470.026787
 20
1851.78319
 10
470.383936
 20
1851.976819
 10
470.741085
 20
1852.1326
 10
471.098233
 20
1852.246695
 10
471.455382
 20
1852.316295
 10
471.817544
 20
1852.339687
 10
472.179706
 20
1852.316295
 10
472.536855
 20
1852.246695
 10
472.894004
 20
1852.1326
 10
473.251152
 20
1851.976819
 10
473.608301
 20
1851.78319
 10
473.96545
 20
1851.556479
 10
474.322598
 20
1851.302269
 10
474.682163
 20
1851.026819
 10
475.036896
 20
1850.736913
 10
475.394044
 20
1850.439687
 10
475.751193
 20
1850.142462
 10
476.105926
 20
1849.852555
 10
476.46549
 20
1849.577105
 10
476.822639
 20
1849.322895
 10
477.179787
 20
1849.096184
 10
477.536936
 20
1848.902555
 10
477.894085
 20
1848.746775
 10
478.251233
 20
1848.63268
 10
478.608382
 20
1848.563079
 10
478.970544
 20
1848.539687
 10
479.332706
 20
1848.563079
 10
479.689855
 20
1848.63268
 10
480.047004
 20
1848.746775
 10
480.404152
 20
1848.902555
 10
480.761301
 20
1849.096184
 10
481.11845
 20
1849.322895
 10
481.475598
 20
1849.577105
 10
481.835163
 20
1849.852555
 10
482.189896
 20
1850.142462
 10
482.547044
 20
1850.439687
 10
482.904193
 20
1850.736913
 10
483.258926
 20
1851.026819
 10
483.61849
 20
1851.302269
 10
483.975639
 20
1851.556479
 10
484.332787
 20
1851.78319
 10
484.689936
 20
1851.976819
 10
485.047085
 20
1852.1326
 10
485.404233
 20
1852.246695
 10
485.761382
 20
1852.316295
 10
486.123544
 20
1852.339687
 10
486.485706
 20
1852.316295
 10
486.842855
 20
1852.246695
 10
487.200004
 20
1852.1326
 10
487.557152
 20
1851.976819
 10
487.914301
 20
1851.78319
 10
488.27145
 20
1851.556479
 10
488.628598
 20
1851.302269
 10
488.988163
 20
1851.026819
 10
489.342896
 20
1850.736913
 10
489.700044
 20
1850.439687
 10
490.057193
 20
1850.142462
 10
490.411926
 20
1849.852555
 10
490.77149
 20
1849.577105
 10
491.128639
 20
1849.322895
 10
491.485787
 20
1849.096184
 10
491.842936
 20
1848.902555
 10
492.200085
 20
1848.746775
 10
492.557233
 20
1848.63268
 10
492.914382
 20
1848.563079
 10
493.276544
 20
1848.539687
 10
493.638706
 20
1848.563079
 10
493.995855
 20
1848.63268
 10
494.353004
 20
1848.746775
 10
494.710152
 20
1848.902555
 10
495.067301
 20
1849.096184
 10
495.42445
 20
1849.322895
 10
495.781598
 20
1849.577105
 10
496.141163
 20
1849.852555
 10
496.495896
 20
1850.142462
 10
496.853044
 20
1850.439687
 10
497.210193
 20
1850.736913
 10
497.564926
 20
1851.026819
 10
497.92449
 20
1851.302269
 10
498.281639
 20
1851.556479
 10
498.638787
 20
1851.78319
 10
498.995936
 20
1851.976819
 10
499.353085
 20
1852.1326
 10
499.710233
 20
1852.246695
 10
500.067382
 20
1852.316295
 10
500.429544
 20
1852.339687
 10
500.791706
 20
1852.316295
 10
501.148855
 20
1852.246695
 10
501.506004
 20
1852.1326
 10
501.863152
 20
1851.976819
 10
502.220301
 20
1851.78319
 10
502.57745
 20
1851.556479
 10
502.934598
 20
1851.302269
 10
503.294163
 20
1851.026819
 10
503.648896
 20
1850.736913
 10
504.006044
 20
1850.439687
 10
504.363193
 20
1850.142462
 10
504.717926
 20
1849.852555
 10
505.07749
 20
1849.577105
 10
505.434639
 20
1849.322895
 10
505.791787
 20
1849.096184
 10
506.148936
 20
1848.902555
 10
506.506085
 20
1848.746775
 10
506.863233
 20
1848.63268
 10
507.220382
 20
1848.563079
 10
507.582544
 20
1848.539687
 10
507.944706
 20
1848.563079
 10
508.301855
 20
1848.63268
 10
508.659004
 20
1848.746775
 10
509.016152
 20
1848.902555
 10
509.373301
 20
1849.096184
 10
509.73045
 20
1849.322895
 10
510.087598
 20
1849.577105
 10
510.447163
 20
1849.852555
 10
510.801896
 20
1850.142462
 10
511.159044
 20
1850.439687
 10
511.516193
 20
1850.736913
 10
511.870926
 20
1851.026819
 10
512.23049
 20
1851.302269
 10
512.587639
 20
1851.556479
 10
512.944787
 20
1851.78319
 10
513.301936
 20
1851.976819
 10
513.659085
 20
1852.1326
 10
514.016233
 20
1852.246695
 10
514.373382
 20
1852.316295
 10
514.735544
 20
1852.339687
 10
515.097706
 20
1852.316295
 10
515.454855
 20
1852.246695
 10
515.812004
 20
1852.1326
 10
516.169152
 20
1851.976819
 10
516.526301
 20
1851.78319
 10
516.88345
 20
1851.556479
 10
517.240598
 20
1851.302269
 10
517.600163
 20
1851.026819
 10
517.954896
 20
1850.736913
 10
518.312044
 20
1850.439687
 10
518.669193
 20
1850.142462
 10
519.023926
 20
1849.852555
 10
519.38349
 20
1849.577105
 10
519.740639
 20
1849.322895
 10
520.097787
 20
1849.096184
 10
520.454936
 20
1848.902555
 10
520.812085
 20
1848.746775
 10
521.169233
 20
1848.63268
 10
521.526382
 20
1848.563079
 10
521.888544
 20
1848.539687
 10
522.250706
 20
1848.563079
 10
522.607855
 20
1848.63268
 10
522.965004
 20
1848.746775
 10
523.322152
 20
1848.902555
 10
523.679301
 20
1849.096184
 10
524.03645
 20
1849.322895
 10
524.393598
 20
1849.577105
 10
524.753163
 20
1849.852555
 10
525.107896
 20
1850.142462
 10
525.465044
 20
1850.439687
 10
525.822193
 20
1850.736913
 10
526.176926
 20
1851.026819
 10
526.53649
 20
1851.302269
 10
526.893639
 20
1851.556479
 10
527.250787
 20
1851.78319
 10
527.607936
 20
1851.976819
 10
527.965085
 20
1852.1326
 10
528.322233
 20
1852.246695
 10
528.679382
 20
1852.316295
 10
529.041544
 20
1852.339687
 10
529.403706
 20
1852.316295
 10
529.760855
 20
1852.246695
 10
530.118004
 20
1852.1326
 10
530.475152
 20
1851.976819
 10
530.832301
 20
1851.78319
 10
531.18945
 20
1851.556479
 10
531.546598
 20
1851.302269
 10
531.906163
 20
1851.026819
 10
532.260896
 20
1850.736913
 10
532.618044
 20
1850.439687
 10
532.975193
 20
1850.142462
 10
533.329926
 20
1849.852555
 10
533.68949
 20
1849.577105
 10
534.046639
 20
1849.322895
 10
534.403787
 20
1849.096184
 10
534.760936
 20
1848.902555
 10
535.118085
 20
1848.746775
 10
535.475233
 20
1848.63268
 10
535.832382
 20
1848.563079
 10
536.194544
 20
1848.539687
 10
536.556706
 20
1848.563079
 10
536.913855
 20
1848.63268
 10
537.271004
 20
1848.746775
 10
537.628152
 20
1848.902555
 10
537.985301
 20
1849.096184
 10
538.34245
 20
1849.322895
 10
538.699598
 20
1849.577105
 10
539.059163
 20
1849.852555
 10
539.413896
 20
1850.142462
 10
539.771044
 20
1850.439687
 10
540.128193
 20
1850.736913
 10
540.482926
 20
1851.026819
 10
540.84249
 20
1851.302269
 10
541.199639
 20
1851.556479
 10
541.556787
 20
1851.78319
 10
541.913936
 20
1851.976819
 10
542.271085
 20
1852.1326
 10
542.628233
 20
1852.246695
 10
542.985382
 20
1852.316295
 10
543.347544
 20
1852.339687
 10
543.709706
 20
1852.316295
 10
544.066855
 20
1852.246695
 10
544.424004
 20
1852.1326
 10
544.781152
 20
1851.976819
 10
545.138301
 20
1851.78319
 10
545.49545
 20
1851.556479
 10
545.852598
 20
1851.302269
 10
546.212163
 20
1851.026819
 10
546.566896
 20
1850.736913
 10
546.924044
 20
1850.439687
 10
547.281193
 20
1850.142462
 10
547.635926
 20
1849.852555
 10
547.99549
 20
1849.577105
 10
548.352639
 20
1849.322895
 10
548.709787
 20
1849.096184
 10
549.066936
 20
1848.902555
 10
549.424085
 20
1848.746775
 10
549.781233
 20
1848.63268
 10
550.138382
 20
1848.563079
 10
550.500544
 20
1848.539687
 10
550.862706
 20
1848.563079
 10
551.219855
 20
1848.63268
 10
551.577004
 20
1848.746775
 10
551.934152
 20
1848.902555
 10
552.291301
 20
1849.096184
 10
552.64845
 20
1849.322895
 10
553.005598
 20
1849.577105
 10
553.365163
 20
1849.852555
 10
553.719896
 20
1850.142462
 10
554.077044
 20
1850.439687
 10
554.434193
 20
1850.736913
 10
554.788926
 20
1851.026819
 10
555.14849
 20
1851.302269
 10
555.505639
 20
1851.556479
 10
555.862787
 20
1851.78319
 10
556.219936
 20
1851.976819
 10
556.577085
 20
1852.1326
 10
556.934233
 20
1852.246695
 10
557.291382
 20
1852.316295
 10
557.653544
 20
1852.339687
 10
558.015706
 20
1852.316295
 10
558.372855
 20
1852.246695
 10
558.730004
 20
1852.1326
 10
559.087152
 20
1851.976819
 10
559.444301
 20
1851.78319
 10
559.80145
 20
1851.556479
 10
560.158598
 20
1851.302269
 10
560.518163
 20
1851.026819
 10
560.872896
 20
1850.736913
 10
561.230044
 20
1850.439687
 10
561.587193
 20
1850.142462
 10
561.941926
 20
1849.852555
 10
562.30149
 20
1849.577105
 10
562.658639
 20
1849.322895
 10
563.015787
 20
1849.096184
 10
563.372936
 20
1848.902555
 10
563.730085
 20
1848.746775
 10
564.087233
 20
1848.63268
 10
564.444382
 20
1848.563079
 10
564.806544
 20
1848.539687
 10
565.168706
 20
1848.563079
 10
565.525855
 20
1848.63268
 10
565.883004
 20
1848.746775
 10
566.240152
 20
1848.902555
 10
566.597301
 20
1849.096184
 10
566.95445
 20
1849.322895
 10
567.311598
 20
1849.577105
 10
567.671163
 20
1849.852555
 10
568.025896
 20
1850.142462
 10
568.383044
 20
1850.439687
 10
568.740193
 20
1850.736913
 10
569.094926
 20
1851.026819
 10
569.45449
 20
1851.302269
 10
569.811639
 20
1851.556479
 10
570.168787
 20
1851.78319
 10
570.525936
 20
1851.976819
 10
570.883085
 20
1852.1326
 10
571.240233
 20
1852.246695
 10
571.597382
 20
1852.316295
 10
571.959544
 20
1852.339687
 10
572.321706
 20
1852.316295
 10
572.678855
 20
1852.246695
 10
573.036004
 20
1852.1326
 10
573.393152
 20
1851.976819
 10
573.750301
 20
1851.78319
 10
574.10745
 20
1851.556479
 10
574.464598
 20
1851.302269
 10
574.824163
 20
1851.026819
 10
575.178896
 20
1850.736913
 10
575.536044
 20
1850.439687
 10
575.893193
 20
1850.142462
 10
576.247926
 20
1849.852555
 10
576.60749
 20
1849.577105
 10
576.964639
 20
1849.322895
 10
577.321787
 20
1849.096184
 10
577.678936
 20
1848.902555
 10
578.036085
 20
1848.746775
 10
578.393233
 20
1848.63268
 10
578.750382
 20
1848.563079
 10
579.112544
 20
1848.539687
 10
579.474706
 20
1848.563079
 10
579.831855
 20
1848.63268
 10
580.189004
 20
1848.746775
 10
580.546152
 20
1848.902555
 10
580.903301
 20
1849.096184
 10
581.26045
 20
1849.322895
 10
581.617598
 20
1849.577105
 10
581.977163
 20
1849.852555
 10
582.331896
 20
1850.142462
 10
582.689044
 20
1850.439687
 10
583.046193
 20
1850.736913
 10
583.400926
 20
1851.026819
 10
583.76049
 20
1851.302269
 10
584.117639
 20
1851.556479
 10
584.474787
 20
1851.78319
 10
584.831936
 20
1851.976819
 10
585.189085
 20
1852.1326
 10
585.546233
 20
1852.246695
 10
585.903382
 20
1852.316295
 10
586.265544
 20
1852.339687
 10
586.627706
 20
1852.316295
 10
586.984855
 20
1852.246695
 10
587.342004
 20
1852.1326
 10
587.699152
 20
1851.976819
 10
588.056301
 20
1851.78319
 10
588.41345
 20
1851.556479
 10
588.770598
 20
1851.302269
 10
589.130163
 20
1851.026819
 10
589.484896
 20
1850.736913
 10
589.842044
 20
1850.439687
 10
590.199193
 20
1850.142462
 10
590.553926
 20
1849.852555
 10
590.91349
 20
1849.577105
 10
591.270639
 20
1849.322895
 10
591.627787
 20
1849.096184
 10
591.984936
 20
1848.902555
 10
592.342085
 20
1848.746775
 10
592.699233
 20
1848.63268
 10
593.056382
 20
1848.563079
 10
593.418544
 20
1848.539687
 10
593.780706
 20
1848.563079
 10
594.137855
 20
1848.63268
 10
594.495004
 20
1848.746775
 10
594.852152
 20
1848.902555
 10
595.209301
 20
1849.096184
 10
595.56645
 20
1849.322895
 10
595.923598
 20
1849.577105
 10
596.283163
 20
1849.852555
 10
596.637896
 20
1850.142462
 10
596.995044
 20
1850.439687
 10
597.352193
 20
1850.736913
 10
597.706926
 20
1851.026819
 10
598.06649
 20
1851.302269
 10
598.423639
 20
1851.556479
 10
598.780787
 20
1851.78319
 10
599.137936
 20
1851.976819
 10
599.495085
 20
1852.1326
 10
599.852233
 20
1852.246695
 10
600.209382
 20
1852.316295
 10
600.571544
 20
1852.339687
 10
600.933706
 20
1852.316295
 10
601.290855
 20
1852.246695
 10
601.648004
 20
1852.1326
 10
602.005152
 20
1851.976819
 10
602.362301
 20
1851.78319
 10
602.71945
 20
1851.556479
 10
603.076598
 20
1851.302269
 10
603.436163
 20
1851.026819
 10
603.790896
 20
1850.736913
 10
604.148044
 20
1850.439687
 10
604.505193
 20
1850.142462
 10
604.859926
 20
1849.852555
 10
605.21949
 20
1849.577105
 10
605.576639
 20
1849.322895
 10
605.933787
 20
1849.096184
 10
606.290936
 20
1848.902555
 10
606.648085
 20
1848.746775
 10
607.005233
 20
1848.63268
 10
607.362382
 20
1848.563079
 10
607.724544
 20
1848.539687
 10
608.086706
 20
1848.563079
 10
608.443855
 20
1848.63268
 10
608.801004
 20
1848.746775
 10
609.158152
 20
1848.902555
 10
609.515301
 20
1849.096184
 10
609.87245
 20
1849.322895
 10
610.229598
 20
1849.577105
 10
610.589163
 20
1849.852555
 10
610.943896
 20
1850.142462
 10
611.301044
 20
1850.439687
 10
611.658193
 20
1850.736913
 10
612.012926
 20
1851.026819
 10
612.37249
 20
1851.302269
 10
612.729639
 20
1851.556479
 10
613.086787
 20
1851.78319
 10
613.443936
 20
1851.976819
 10
613.801085
 20
1852.1326
 10
614.158233
 20
1852.246695
 10
614.515382
 20
1852.316295
 10
614.877544
 20
1852.339687
 10
615.239706
 20
1852.316295
 10
615.596855
 20
1852.246695
 10
615.954004
 20
1852.1326
 10
616.311152
 20
1851.976819
 10
616.668301
 20
1851.78319
 10
617.02545
 20
1851.556479
 10
617.382598
 20
1851.302269
 10
617.742163
 20
1851.026819
 10
618.096896
 20
1850.736913
 10
618.454044
 20
1850.439687
 10
618.811193
 20
1850.142462
 10
619.165926
 20
1849.852555
 10
619.52549
 20
1849.577105
 10
619.882639
 20
1849.322895
 10
620.239787
 20
1849.096184
 10
620.596936
 20
1848.902555
 10
620.954085
 20
1848.746775
 10
621.311233
 20
1848.63268
 10
621.668382
 20
1848.563079
 10
622.030544
 20
1848.539687
 10
622.392706
 20
1848.563079
 10
622.749855
 20
1848.63268
 10
623.107004
 20
1848.746775
 10
623.464152
 20
1848.902555
 10
623.821301
 20
1849.096184
 10
624.17845
 20
1849.322895
 10
624.535598
 20
1849.577105
 10
624.895163
 20
1849.852555
 10
625.249895
 20
1850.142462
 10
625.607044
 20
1850.439687
 10
625.964193
 20
1850.736913
 10
626.318926
 20
1851.026819
 10
626.67849
 20
1851.302269
 10
627.035639
 20
1851.556479
 10
627.392787
 20
1851.78319
 10
627.749936
 20
1851.976819
 10
628.107085
 20
1852.1326
 10
628.464233
 20
1852.246695
 10
628.821382
 20
1852.316295
 10
629.183544
 20
1852.339687
 10
629.545706
 20
1852.316295
 10
629.902855
 20
1852.246695
 10
630.260004
 20
1852.1326
 10
630.617152
 20
1851.976819
 10
630.974301
 20
1851.78319
 10
631.33145
 20
1851.556479
 10
631.688598
 20
1851.302269
 10
632.048163
 20
1851.026819
 10
632.402895
 20
1850.736913
 10
632.760044
 20
1850.439687
 10
633.117193
 20
1850.142462
 10
633.471926
 20
1849.852555
 10
633.83149
 20
1849.577105
 10
634.188639
 20
1849.322895
 10
634.545787
 20
1849.096184
 10
634.902936
 20
1848.902555
 10
635.260085
 20
1848.746775
 10
635.617233
 20
1848.63268
 10
635.974382
 20
1848.563079
 10
636.336544
 20
1848.539687
 10
636.698706
 20
1848.563079
 10
637.055855
 20
1848.63268
 10
637.413004
 20
1848.746775
 10
637.770152
 20
1848.902555
 10
638.127301
 20
1849.096184
 10
638.48445
 20
1849.322895
 10
638.841598
 20
1849.577105
 10
639.201163
 20
1849.852555
 10
639.555895
 20
1850.142462
 10
639.913044
 20
1850.439687
 10
640.270193
 20
1850.736913
 10
640.624926
 20
1851.026819
 10
640.98449
 20
1851.302269
 10
641.341639
 20
1851.556479
 10
641.698787
 20
1851.78319
 10
642.055936
 20
1851.976819
 10
642.413085
 20
1852.1326
 10
642.770233
 20
1852.246695
 10
643.127382
 20
1852.316295
 10
643.489544
 20
1852.339687
 10
643.851706
 20
1852.316295
 10
644.208855
 20
1852.246695
 10
644.566004
 20
1852.1326
 10
644.923152
 20
1851.976819
 10
645.280301
 20
1851.78319
 10
645.63745
 20
1851.556479
 10
645.994598
 20
1851.302269
 10
646.354163
 20
1851.026819
 10
646.708895
 20
1850.736913
 10
647.066044
 20
1850.439687
 10
647.423193
 20
1850.142462
 10
647.777926
 20
1849.852555
 10
648.13749
 20
1849.577105
 10
648.494639
 20
1849.322895
 10
648.851787
 20
1849.096184
 10
649.208936
 20
1848.902555
 10
649.566085
 20
1848.746775
 10
649.923233
 20
1848.63268
 10
650.280382
 20
1848.563079
 10
650.642544
 20
1848.539687
 10
651.004706
 20
1848.563079
 10
651.361855
 20
1848.63268
 10
651.719004
 20
1848.746775
 10
652.076152
 20
1848.902555
 10
652.433301
 20
1849.096184
 10
652.79045
 20
1849.322895
 10
653.147598
 20
1849.577105
 10
653.507163
 20
1849.852555
 10
653.861895
 20
1850.142462
 10
654.219044
 20
1850.439687
 10
654.576193
 20
1850.736913
 10
654.930926
 20
1851.026819
 10
655.29049
 20
1851.302269
 10
655.647639
 20
1851.556479
 10
656.004787
 20
1851.78319
 10
656.361936
 20
1851.976819
 10
656.719085
 20
1852.1326
 10
657.076233
 20
1852.246695
 10
657.433382
 20
1852.316295
 10
657.795544
 20
1852.339687
 10
658.157706
 20
1852.316295
 10
658.514855
 20
1852.246695
 10
658.872004
 20
1852.1326
 10
659.229152
 20
1851.976819
 10
659.586301
 20
1851.78319
 10
659.94345
 20
1851.556479
 10
660.300598
 20
1851.302269
 10
660.660163
 20
1851.026819
 10
661.014895
 20
1850.736913
 10
661.372044
 20
1850.439687
 10
661.729193
 20
1850.142462
 10
662.083926
 20
1849.852555
 10
662.44349
 20
1849.577105
 10
662.800639
 20
1849.322895
 10
663.157787
 20
1849.096184
 10
663.514936
 20
1848.902555
 10
663.872085
 20
1848.746775
 10
664.229233
 20
1848.63268
 10
664.586382
 20
1848.563079
 10
664.948544
 20
1848.539687
 10
665.310706
 20
1848.563079
 10
665.667855
 20
1848.63268
 10
666.025004
 20
1848.746775
 10
666.382152
 20
1848.902555
 10
666.739301
 20
1849.096184
 10
667.09645
 20
1849.322895
 10
667.453598
 20
1849.577105
 10
667.813163
 20
1849.852555
 10
668.167895
 20
1850.142462
 10
668.525044
 20
1850.439687
 10
668.882193
 20
1850.736913
 10
669.236926
 20
1851.026819
 10
669.59649
 20
1851.302269
 10
669.953639
 20
1851.556479
 10
670.310787
 20
1851.78319
 10
670.667936
 20
1851.976819
 10
671.025085
 20
1852.1326
 10
671.382233
 20
1852.246695
 10
671.739382
 20
1852.316295
 10
672.101544
 20
1852.339687
 10
672.463706
 20
1852.316295
 10
672.820855
 20
1852.246695
 10
673.178004
 20
1852.1326
 10
673.535152
 20
1851.976819
 10
673.892301
 20
1851.78319
 10
674.24945
 20
1851.556479
 10
674.606598
 20
1851.302269
 10
674.966163
 20
1851.026819
 10
675.320895
 20
1850.736913
 10
675.678044
 20
1850.439687
 10
676.035193
 20
1850.142462
 10
676.389926
 20
1849.852555
 10
676.74949
 20
1849.577105
 10
677.106639
 20
1849.322895
 10
677.463787
 20
1849.096184
 10
677.820936
 20
1848.902555
 10
678.178085
 20
1848.746775
 10
678.535233
 20
1848.63268
 10
678.892382
 20
1848.563079
 10
679.254544
 20
1848.539687
 10
679.616706
 20
1848.563079
 10
679.973855
 20
1848.63268
 10
680.331004
 20
1848.746775
 10
680.688152
 20
1848.902555
 10
681.045301
 20
1849.096184
 10
681.40245
 20
1849.322895
 10
681.759598
 20
1849.577105
 10
682.119163
 20
1849.852555
 10
682.473895
 20
1850.142462
 10
682.831044
 20
1850.439687
 10
683.188193
 20
1850.736913
 10
683.542926
 20
1851.026819
 10
683.90249
 20
1851.302269
 10
684.259639
 20
1851.556479
 10
684.616787
 20
1851.78319
 10
684.973936
 20
1851.976819
 10
685.331085
 20
1852.1326
 10
685.688233
 20
1852.246695
 10
686.045382
 20
1852.316295
 10
686.407544
 20
1852.339687
 10
686.769706
 20
1852.316295
 10
687.126855
 20
1852.246695
 10
687.484004
 20
1852.1326
 10
687.841152
 20
1851.976819
 10
688.198301
 20
1851.78319
 10
688.55545
 20
1851.556479
 10
688.912598
 20
1851.302269
 10
689.272163
 20
1851.026819
 10
689.626895
 20
1850.736913
 10
689.984044
 20
1850.439687
 10
690.341193
 20
1850.142462
 10
690.695926
 20
1849.852555
 10
691.05549
 20
1849.577105
 10
691.412639
 20
1849.322895
 10
691.769787
 20
1849.096184
 10
692.126936
 20
1848.902555
 10
692.484085
 20
1848.746775
 10
692.841233
 20
1848.63268
 10
693.198382
 20
1848.563079
 10
693.560544
 20
1848.539687
 10
693.922706
 20
1848.563079
 10
694.279855
 20
1848.63268
 10
694.637004
 20
1848.746775
 10
694.994152
 20
1848.902555
 10
695.351301
 20
1849.096184
 10
695.70845
 20
1849.322895
 10
696.065598
 20
1849.577105
 10
696.425163
 20
1849.852555
  0
LWPOLYLINE
  5
27A
100
AcDbEntity
  8
LAMELA-MALA
100
AcDbPolyline
 90
        5
 70
     0
 43
4.0
 10
412.333139
 20
1821.116409
 42
0.287877
 10
420.517031
 20
1832.257575
 42
0.413777
 10
408.517044
 20
1844.239687
 42
-1.0
 10
408.517045
 20
1850.439687
 42
0.164435
 10
412.103477
 20
1851.27813
  0
LWPOLYLINE
  5
27B
100
AcDbEntity
  8
LAMELA-MALA
100
AcDbPolyline
 90
       12
 70
     0
 43
4.0
 10
696.422351
 20
1849.857137
 42
-0.187687
 10
699.637044
 20
1850.439687
 42
-0.115441
 10
704.252424
 20
1847.362775
 10
705.447669
 20
1844.494207
 42
0.214719
 10
707.84816
 20
1842.253029
 10
713.458047
 20
1840.343564
 42
-0.831908
 10
710.237044
 20
1822.939687
 10
709.737044
 20
1822.939687
 42
1.0
 10
709.737044
 20
1818.939687
 10
739.237044
 20
1818.939687
 42
0.200073
 10
742.764706
 20
1821.439687
 10
745.322801
 20
1826.439687
  0
DIMENSION
  5
2DD
100
AcDbEntity
  8
KOTY-MALE
100
AcDbDimension
  2
*D4
 10
405.399673
 20
1486.839574
 30
0.0
 11
555.430913
 21
1499.339574
 31
0.0
 70
    32
  1
M
  3
KOTY-MALE
100
AcDbAlignedDimension
 13
705.462153
 23
1404.971223
 33
0.0
 14
405.399673
 24
1404.971223
 34
0.0
100
AcDbRotatedDimension
1001
ACAD
1000
DSTYLE
1002
{
1070
   147
1040
0.5
1070
   178
1070
     1
1002
}
  0
DIMENSION
  5
2DE
100
AcDbEntity
  8
KOTY-MALE
100
AcDbDimension
  2
*D5
 10
570.690004
 20
1450.955081
 30
0.0
 11
505.608616
 21
1463.455081
 31
0.0
 70
    32
  3
KOTY-MALE
100
AcDbAlignedDimension
 13
440.527227
 23
1428.537104
 33
0.0
 14
570.690004
 24
1402.52764
 34
0.0
100
AcDbRotatedDimension
1001
ACAD
1000
DSTYLE
1002
{
1070
   147
1040
0.5
1070
   178
1070
     1
1002
}
  0
LWPOLYLINE
  5
2DF
100
AcDbEntity
  8
LAMELA-MALA
100
AcDbPolyline
 90
       21
 70
     0
 43
4.0
 10
412.33314
 20
1376.468781
 42
0.287877
 10
420.517031
 20
1387.609947
 42
0.413777
 10
408.517045
 20
1399.592059
 42
-1.0
 10
408.517045
 20
1405.792059
 10
441.44576
 20
1405.792059
 42
0.463455
 10
444.404942
 20
1409.285256
 10
440.527227
 20
1432.551546
 42
-0.533399
 10
442.944449
 20
1434.830339
 10
570.023353
 20
1405.867067
 42
0.056081
 10
570.690004
 20
1405.792059
 10
699.637045
 20
1405.792059
 42
-0.302775
 10
704.252425
 20
1402.715146
 10
705.447669
 20
1399.846578
 42
0.214719
 10
707.848161
 20
1397.605401
 10
713.458048
 20
1395.695935
 42
-0.831908
 10
710.237045
 20
1378.292059
 10
709.737045
 20
1378.292059
 42
1.0
 10
709.737045
 20
1374.292059
 10
739.237045
 20
1374.292059
 42
0.200073
 10
742.764706
 20
1376.792059
 10
745.322801
 20
1381.792059
  0
DIMENSION
  5
3FF
100
AcDbEntity
  8
KOTY-MALE
100
AcDbDimension
  2
*D6
 10
405.399673
 20
1276.059989
 30
0.0
 11
555.547848
 21
1288.559989
 31
0.0
 70
    32
  1
M
  3
KOTY-MALE
100
AcDbAlignedDimension
 13
705.696023
 23
1208.673055
 33
0.0
 14
405.399673
 24
1196.730715
 34
0.0
100
AcDbRotatedDimension
1001
ACAD
1000
DSTYLE
1002
{
1070
   147
1040
0.5
1070
   178
1070
     1
1002
}
  0
LWPOLYLINE
  5
40D
100
AcDbEntity
  8
LAMELA-MALA
100
AcDbPolyline
 90
       85
 70
     0
 43
4.0
 10
731.125141
 20
1188.255359
 10
694.125141
 20
1188.255359
 42
-0.414214
 10
691.625141
 20
1190.755359
 10
691.625141
 20
1195.755359
 42
-0.414214
 10
694.125141
 20
1198.255359
 10
703.125141
 20
1198.255359
 42
0.414214
 10
705.625141
 20
1200.755359
 10
705.625141
 20
1209.755359
 42
0.414214
 10
703.125141
 20
1212.255359
 10
686.696023
 20
1212.255359
 10
683.844907
 20
1212.255359
 42
-0.049389
 10
683.256558
 20
1212.313617
 10
680.136196
 20
1212.937689
 42
0.09902
 10
678.9595
 20
1212.937689
 10
672.136196
 20
1211.573028
 42
-0.09902
 10
670.9595
 20
1211.573028
 10
664.136196
 20
1212.937689
 42
0.09902
 10
662.9595
 20
1212.937689
 10
656.136196
 20
1211.573028
 42
-0.09902
 10
654.9595
 20
1211.573028
 10
648.136196
 20
1212.937689
 42
0.09902
 10
646.9595
 20
1212.937689
 10
640.136196
 20
1211.573028
 42
-0.09902
 10
638.9595
 20
1211.573028
 10
632.136196
 20
1212.937689
 42
0.09902
 10
630.9595
 20
1212.937689
 10
624.136196
 20
1211.573028
 42
-0.09902
 10
622.9595
 20
1211.573028
 10
616.136196
 20
1212.937689
 42
0.09902
 10
614.9595
 20
1212.937689
 10
608.136196
 20
1211.573028
 42
-0.09902
 10
606.9595
 20
1211.573028
 10
600.136196
 20
1212.937689
 42
0.09902
 10
598.9595
 20
1212.937689
 10
592.136196
 20
1211.573028
 42
-0.09902
 10
590.9595
 20
1211.573028
 10
584.136196
 20
1212.937689
 42
0.09902
 10
582.9595
 20
1212.937689
 10
576.136196
 20
1211.573028
 42
-0.09902
 10
574.9595
 20
1211.573028
 10
568.136196
 20
1212.937689
 42
0.09902
 10
566.9595
 20
1212.937689
 10
560.136196
 20
1211.573028
 42
-0.09902
 10
558.9595
 20
1211.573028
 10
552.136196
 20
1212.937689
 42
0.09902
 10
550.9595
 20
1212.937689
 10
544.136196
 20
1211.573028
 42
-0.09902
 10
542.9595
 20
1211.573028
 10
536.136196
 20
1212.937689
 42
0.09902
 10
534.9595
 20
1212.937689
 10
528.136196
 20
1211.573028
 42
-0.09902
 10
526.9595
 20
1211.573028
 10
520.136196
 20
1212.937689
 42
0.09902
 10
518.9595
 20
1212.937689
 10
512.136196
 20
1211.573028
 42
-0.09902
 10
510.9595
 20
1211.573028
 10
504.136196
 20
1212.937689
 42
0.09902
 10
502.9595
 20
1212.937689
 10
496.136196
 20
1211.573028
 42
-0.09902
 10
494.9595
 20
1211.573028
 10
488.136196
 20
1212.937689
 42
0.09902
 10
486.9595
 20
1212.937689
 10
480.136196
 20
1211.573028
 42
-0.09902
 10
478.9595
 20
1211.573028
 10
472.136196
 20
1212.937689
 42
0.09902
 10
470.9595
 20
1212.937689
 10
464.136196
 20
1211.573028
 42
-0.09902
 10
462.9595
 20
1211.573028
 10
456.136196
 20
1212.937689
 42
0.09902
 10
454.9595
 20
1212.937689
 10
448.136196
 20
1211.573028
 42
-0.09902
 10
446.9595
 20
1211.573028
 10
443.839138
 20
1212.197101
 42
0.049389
 10
443.250789
 20
1212.255359
 10
440.399673
 20
1212.255359
 10
425.399673
 20
1212.255359
 10
424.125141
 20
1212.255359
 42
0.414214
 10
421.625141
 20
1209.755359
 10
421.625141
 20
1199.755359
 42
-0.414214
 10
419.125141
 20
1197.255359
 10
397.125141
 20
1197.255359
 42
0.414214
 10
394.625141
 20
1194.755359
 10
394.625141
 20
1191.755359
 42
0.414214
 10
397.125141
 20
1189.255359
 10
400.125141
 20
1189.255359
  0
DIMENSION
  5
40E
100
AcDbEntity
  8
KOTY-MALE
100
AcDbDimension
  2
*D7
 10
405.399673
 20
1233.929628
 30
0.0
 11
428.556096
 21
1255.327339
 31
0.0
 70
   160
  3
KOTY-MALE
100
AcDbAlignedDimension
 13
420.399673
 23
1206.955843
 33
0.0
 14
405.399673
 24
1196.554871
 34
0.0
100
AcDbRotatedDimension
1001
ACAD
1000
DSTYLE
1002
{
1070
   147
1040
0.5
1070
   178
1070
     1
1002
}
  0
DIMENSION
  5
4C7
100
AcDbEntity
  8
KOTY-MALE
100
AcDbDimension
  2
*D8
 10
405.399673
 20
1076.40083
 30
0.0
 11
556.047848
 21
1088.90083
 31
0.0
 70
    32
  1
M
  3
KOTY-MALE
100
AcDbAlignedDimension
 13
706.696023
 23
1034.875008
 33
0.0
 14
405.399673
 24
1033.333639
 34
0.0
100
AcDbRotatedDimension
1001
ACAD
1000
DSTYLE
1002
{
1070
   147
1040
0.5
1070
   178
1070
     1
1002
}
  0
LWPOLYLINE
  5
4FF
100
AcDbEntity
  8
LAMELA-MALA
100
AcDbPolyline
 90
       88
 70
     0
 43
4.0
 10
731.125141
 20
1011.056711
 10
694.125141
 20
1011.056711
 42
-0.414214
 10
691.625141
 20
1013.556711
 10
691.625141
 20
1018.556711
 42
-0.414214
 10
694.125141
 20
1021.056711
 10
703.125141
 20
1021.056711
 42
0.414214
 10
705.625141
 20
1023.556711
 10
705.625141
 20
1032.556711
 42
0.414214
 10
703.125141
 20
1035.056711
 10
687.125141
 20
1035.056711
 10
684.344907
 20
1035.056711
 42
-0.049389
 10
683.756558
 20
1035.114969
 10
680.636196
 20
1035.739042
 42
0.09902
 10
679.4595
 20
1035.739042
 10
672.636196
 20
1034.374381
 42
-0.09902
 10
671.4595
 20
1034.374381
 10
664.636196
 20
1035.739042
 42
0.09902
 10
663.4595
 20
1035.739042
 10
656.636196
 20
1034.374381
 42
-0.09902
 10
655.4595
 20
1034.374381
 10
648.636196
 20
1035.739042
 42
0.09902
 10
647.4595
 20
1035.739042
 10
640.636196
 20
1034.374381
 42
-0.09902
 10
639.4595
 20
1034.374381
 10
632.636196
 20
1035.739042
 42
0.09902
 10
631.4595
 20
1035.739042
 10
624.636196
 20
1034.374381
 42
-0.09902
 10
623.4595
 20
1034.374381
 10
616.636196
 20
1035.739042
 42
0.09902
 10
615.4595
 20
1035.739042
 10
608.636196
 20
1034.374381
 42
-0.09902
 10
607.4595
 20
1034.374381
 10
600.636196
 20
1035.739042
 42
0.09902
 10
599.4595
 20
1035.739042
 10
592.636196
 20
1034.374381
 42
-0.09902
 10
591.4595
 20
1034.374381
 10
584.636196
 20
1035.739042
 42
0.09902
 10
583.4595
 20
1035.739042
 10
576.636196
 20
1034.374381
 42
-0.09902
 10
575.4595
 20
1034.374381
 10
568.636196
 20
1035.739042
 42
0.09902
 10
567.4595
 20
1035.739042
 10
560.636196
 20
1034.374381
 42
-0.09902
 10
559.4595
 20
1034.374381
 10
552.636196
 20
1035.739042
 42
0.09902
 10
551.4595
 20
1035.739042
 10
544.636196
 20
1034.374381
 42
-0.09902
 10
543.4595
 20
1034.374381
 10
536.636196
 20
1035.739042
 42
0.09902
 10
535.4595
 20
1035.739042
 10
528.636196
 20
1034.374381
 42
-0.09902
 10
527.4595
 20
1034.374381
 10
520.636196
 20
1035.739042
 42
0.09902
 10
519.4595
 20
1035.739042
 10
512.636196
 20
1034.374381
 42
-0.09902
 10
511.4595
 20
1034.374381
 10
504.636196
 20
1035.739042
 42
0.09902
 10
503.4595
 20
1035.739042
 10
496.636196
 20
1034.374381
 42
-0.09902
 10
495.4595
 20
1034.374381
 10
488.636196
 20
1035.739042
 42
0.09902
 10
487.4595
 20
1035.739042
 10
480.636196
 20
1034.374381
 42
-0.09902
 10
479.4595
 20
1034.374381
 10
472.636196
 20
1035.739042
 42
0.09902
 10
471.4595
 20
1035.739042
 10
464.636196
 20
1034.374381
 42
-0.09902
 10
463.4595
 20
1034.374381
 10
456.636196
 20
1035.739042
 42
0.09902
 10
455.4595
 20
1035.739042
 10
448.636196
 20
1034.374381
 42
-0.09902
 10
447.4595
 20
1034.374381
 10
440.636196
 20
1035.739042
 42
0.09902
 10
439.4595
 20
1035.739042
 10
432.636196
 20
1034.374381
 42
-0.09902
 10
431.4595
 20
1034.374381
 10
428.339138
 20
1034.998453
 42
0.049389
 10
427.750789
 20
1035.056711
 10
425.399673
 20
1035.056711
 10
409.125141
 20
1035.056711
 42
0.414214
 10
406.625141
 20
1032.556711
 10
406.625141
 20
1022.556711
 42
-0.414214
 10
404.125141
 20
1020.056711
 10
397.125141
 20
1020.056711
 42
0.414214
 10
394.625141
 20
1017.556711
 10
394.625141
 20
1014.556711
 42
0.414214
 10
397.125141
 20
1012.056711
 10
400.125141
 20
1012.056711
  0
DIMENSION
  5
559
100
AcDbEntity
  8
KOTY-MALE
100
AcDbDimension
  2
*D9
 10
405.399673
 20
911.704515
 30
0.0
 11
530.399673
 21
924.204515
 31
0.0
 70
    32
  1
M
  3
KOTY-MALE
100
AcDbAlignedDimension
 13
655.399673
 23
876.46503
 33
0.0
 14
405.399673
 24
851.46503
 34
0.0
100
AcDbRotatedDimension
1001
ACAD
1000
DSTYLE
1002
{
1070
   147
1040
0.5
1070
   178
1070
     1
1002
}
  0
LWPOLYLINE
  5
573
100
AcDbEntity
  8
LAMELA-MALA
100
AcDbPolyline
 90
       12
 70
     0
 43
4.0
 10
405.399673
 20
851.46503
 10
432.399673
 20
851.46503
 42
0.414214
 10
435.399673
 20
854.46503
 10
435.399673
 20
873.46503
 42
-0.414214
 10
438.399673
 20
876.46503
 10
652.399673
 20
876.46503
 42
-0.414214
 10
655.399673
 20
873.46503
 10
655.399673
 20
853.96503
 42
0.414214
 10
658.399673
 20
850.96503
 10
688.004715
 20
850.96503
 42
0.065543
 10
688.781173
 20
851.067252
 10
695.161154
 20
852.776763
  0
DIMENSION
  5
67E
100
AcDbEntity
  8
KOTY-MALE
100
AcDbDimension
  2
*D10
 10
407.392352
 20
738.589435
 30
0.0
 11
532.3111
 21
751.089435
 31
0.0
 70
    32
  1
M
  3
KOTY-MALE
100
AcDbAlignedDimension
 13
657.229848
 23
703.676411
 33
0.0
 14
407.392352
 24
702.886721
 34
0.0
100
AcDbRotatedDimension
1001
ACAD
1000
DSTYLE
1002
{
1070
   147
1040
0.5
1070
   178
1070
     1
1002
}
  0
LWPOLYLINE
  5
69B
100
AcDbEntity
  8
LAMELA-MALA
100
AcDbPolyline
 90
       22
 70
     0
 43
4.0
 10
399.979813
 20
684.474912
 10
391.120754
 20
682.101134
 42
-0.198912
 10
389.603116
 20
682.300935
 10
384.392352
 20
685.309371
 42
-0.184201
 10
383.392352
 20
688.041422
 10
383.392352
 20
692.886721
 42
-0.414214
 10
385.392352
 20
694.886721
 10
405.392352
 20
694.886721
 42
0.414214
 10
407.392352
 20
696.886721
 10
407.392352
 20
702.886721
 42
-0.414214
 10
409.392352
 20
704.886721
 10
655.392352
 20
704.886721
 42
-0.414214
 10
657.392352
 20
702.886721
 10
657.392352
 20
695.886721
 42
-0.414214
 10
655.392352
 20
693.886721
 10
632.512352
 20
693.886721
 42
0.414214
 10
630.512352
 20
691.886721
 10
630.512352
 20
683.886721
 42
0.414214
 10
632.512352
 20
681.886721
 10
682.129047
 20
681.886721
 42
0.065543
 10
682.646685
 20
681.954869
 10
696.881239
 20
685.769007
  0
DIMENSION
  5
70E
100
AcDbEntity
  8
KOTY-MALE
100
AcDbDimension
  2
*D11
 10
408.068608
 20
574.118089
 30
0.0
 11
532.856319
 21
586.618089
 31
0.0
 70
    32
  1
M
  3
KOTY-MALE
100
AcDbAlignedDimension
 13
657.64403
 23
539.219514
 33
0.0
 14
408.068608
 24
540.920866
 34
0.0
100
AcDbRotatedDimension
1001
ACAD
1000
DSTYLE
1002
{
1070
   147
1040
0.5
1070
   178
1070
     1
1002
}
  0
LWPOLYLINE
  5
723
100
AcDbEntity
  8
LAMELA-MALA
100
AcDbPolyline
 90
       53
 70
     0
 43
4.0
 10
697.054926
 20
524.143082
 10
682.91597
 20
520.059168
 42
-0.070413
 10
682.360975
 20
519.98062
 10
633.64403
 20
519.98062
 42
-0.414214
 10
631.64403
 20
521.98062
 10
631.64403
 20
529.98062
 42
-0.414214
 10
633.64403
 20
531.98062
 10
655.64403
 20
531.98062
 42
0.414214
 10
657.64403
 20
533.98062
 10
657.64403
 20
539.219514
 42
0.357511
 10
656.036263
 20
541.180675
 10
649.64403
 20
542.459121
 10
641.64403
 20
540.859121
 10
633.64403
 20
542.459121
 10
625.64403
 20
540.859121
 10
617.64403
 20
542.459121
 10
609.64403
 20
540.859121
 10
601.64403
 20
542.459121
 10
593.64403
 20
540.859121
 10
585.64403
 20
542.459121
 10
577.64403
 20
540.859121
 10
569.64403
 20
542.459121
 10
561.64403
 20
540.859121
 10
553.64403
 20
542.459121
 10
545.64403
 20
540.859121
 10
537.64403
 20
542.459121
 10
529.64403
 20
540.859121
 10
521.64403
 20
542.459121
 10
513.64403
 20
540.859121
 10
505.64403
 20
542.459121
 10
497.64403
 20
540.859121
 10
489.64403
 20
542.459121
 10
481.64403
 20
540.859121
 10
473.64403
 20
542.459121
 10
465.64403
 20
540.859121
 10
457.64403
 20
542.459121
 10
449.64403
 20
540.859121
 10
441.64403
 20
542.459121
 10
433.64403
 20
540.859121
 10
425.64403
 20
542.459121
 10
417.64403
 20
540.859121
 10
409.64403
 20
542.459121
 10
409.27442
 20
542.385199
 42
0.356282
 10
408.068608
 20
540.920866
 10
408.044539
 20
535.398903
 42
-0.412937
 10
406.044558
 20
533.40762
 10
386.035859
 20
533.40762
 42
0.414214
 10
384.035859
 20
531.40762
 10
384.035859
 20
526.625303
 42
0.280473
 10
385.117616
 20
524.848556
 10
391.310429
 20
521.648042
 42
0.195118
 10
392.80782
 20
521.510478
 10
401.602777
 20
524.17127
  0
DIMENSION
  5
7F5
100
AcDbEntity
  8
KOTY-MALE
100
AcDbDimension
  2
*D12
 10
387.683496
 20
426.767828
 30
0.0
 11
537.541584
 21
439.267828
 31
0.0
 70
    32
  1
M
  3
KOTY-MALE
100
AcDbAlignedDimension
 13
687.399673
 23
387.618919
 33
0.0
 14
387.683496
 24
351.287219
 34
0.0
100
AcDbRotatedDimension
1001
ACAD
1000
DSTYLE
1002
{
1070
   147
1040
0.5
1070
   178
1070
     1
1002
}
  0
LWPOLYLINE
  5
80C
100
AcDbEntity
  8
LAMELA-MALA
100
AcDbPolyline
 90
       16
 70
     0
 43
4.0
 10
727.058931
 20
351.875409
 10
717.654006
 20
349.355367
 42
-0.065543
 10
717.136368
 20
349.287219
 10
689.399673
 20
349.287219
 42
-0.414214
 10
687.399673
 20
351.287219
 10
687.399673
 20
369.287219
 10
687.399673
 20
369.287219
 10
687.399673
 20
387.287219
 42
0.414214
 10
685.399673
 20
389.287219
 10
409.683496
 20
389.287219
 42
0.414214
 10
407.683496
 20
387.287219
 10
407.683496
 20
369.287219
 10
407.683496
 20
369.287219
 10
407.683496
 20
352.287219
 42
-0.414214
 10
405.683496
 20
350.287219
 10
387.683496
 20
350.287219
  0
LWPOLYLINE
  5
ACA
100
AcDbEntity
  8
LAMELA-VELKA
100
AcDbPolyline
 90
       15
 70
     0
 43
2.0
 10
645.322801
 20
2046.05108
 10
642.764706
 20
2041.05108
 42
-0.200073
 10
639.237044
 20
2038.55108
 10
609.737044
 20
2038.55108
 42
-1.0
 10
609.737044
 20
2042.55108
 10
610.237044
 20
2042.55108
 42
0.831908
 10
613.458047
 20
2059.954956
 10
607.84816
 20
2061.864422
 42
-0.214719
 10
605.447669
 20
2064.105599
 10
604.252424
 20
2066.974167
 42
0.302775
 10
599.637044
 20
2070.05108
 10
408.517045
 20
2070.05108
 42
1.0
 10
408.517044
 20
2063.85108
 42
-0.413777
 10
420.517031
 20
2051.868968
 42
-0.287877
 10
412.333139
 20
2040.727802
 42
-0.287877
  0
DIMENSION
  5
CAD
100
AcDbEntity
  8
KOTY-UPLNE
100
AcDbDimension
  2
*D14
 10
672.841444
 20
2070.05108
 30
0.0
 11
766.591444
 21
2054.30108
 31
0.0
 12
-100.0
 22
0.0
 32
0.0
 70
    32
  3
KOTY-VELKE
100
AcDbAlignedDimension
 13
639.237044
 23
2038.55108
 33
0.0
 14
599.637044
 24
2070.05108
 34
0.0
 50
90.0
100
AcDbRotatedDimension
1001
ACAD
1000
DSTYLE
1002
{
1070
    40
1040
5.0
1070
   147
1040
0.5
1070
    44
1040
0.5
1070
   178
1070
     1
1070
   177
1070
   256
1070
   176
1070
   256
1002
}
  0
DIMENSION
  5
CBC
100
AcDbEntity
  8
KOTY-UPLNE
100
AcDbDimension
  2
*D15
 10
420.517031
 20
2090.429412
 30
0.0
 11
412.958352
 21
2096.679412
 31
0.0
 70
    32
  3
KOTY-VELKE
100
AcDbAlignedDimension
 13
405.399673
 23
2069.178547
 33
0.0
 14
420.517031
 24
2051.868968
 34
0.0
100
AcDbRotatedDimension
1001
ACAD
1000
DSTYLE
1002
{
1070
    40
1040
5.0
1070
   147
1040
0.5
1070
    44
1040
0.5
1070
   178
1070
     1
1070
   177
1070
   256
1070
   176
1070
   256
1002
}
  0
DIMENSION
  5
CC9
100
AcDbEntity
  8
KOTY-UPLNE
100
AcDbDimension
  2
*D16
 10
605.462153
 20
2112.465923
 30
0.0
 11
725.392477
 21
2118.715923
 31
0.0
 12
-100.0
 22
0.0
 32
0.0
 70
    32
  3
KOTY-VELKE
100
AcDbAlignedDimension
 13
645.322801
 23
2046.05108
 33
0.0
 14
605.462153
 24
2074.178547
 34
0.0
100
AcDbRotatedDimension
1001
ACAD
1000
DSTYLE
1002
{
1070
    40
1040
5.0
1070
   147
1040
0.5
1070
    44
1040
0.5
1070
   178
1070
     1
1070
   177
1070
   256
1070
   176
1070
   256
1002
}
  0
DIMENSION
  5
CD9
100
AcDbEntity
  8
KOTY-UPLNE
100
AcDbDimension
  2
*D17
 10
620.086758
 20
2090.429412
 30
0.0
 11
612.774456
 21
2096.785714
 31
0.0
 12
-100.0
 22
0.0
 32
0.0
 70
   160
  3
KOTY-VELKE
100
AcDbAlignedDimension
 13
605.462153
 23
2069.178547
 33
0.0
 14
620.086758
 24
2049.913229
 34
0.0
100
AcDbRotatedDimension
1001
ACAD
1000
DSTYLE
1002
{
1070
    40
1040
5.0
1070
   147
1040
0.5
1070
    44
1040
0.5
1070
   178
1070
     1
1070
   177
1070
   256
1070
   176
1070
   256
1002
}
  0
LWPOLYLINE
  5
13F9
100
AcDbEntity
  8
LAMELA-MALA
100
AcDbPolyline
 90
       48
 70
     0
 43
4.0
 10
387.683496
 20
190.98086
 10
405.683496
 20
190.98086
 42
0.414214
 10
407.683496
 20
192.98086
 10
407.683496
 20
229.751154
 42
-0.357511
 10
408.889321
 20
231.222025
 10
409.172359
 20
231.278633
 10
417.172359
 20
229.678633
 10
425.172359
 20
231.278633
 10
433.172359
 20
229.678633
 10
441.172359
 20
231.278633
 10
442.742445
 20
231.59265
 10
450.742445
 20
229.99265
 10
458.742445
 20
231.59265
 10
466.742445
 20
229.99265
 10
474.742445
 20
231.59265
 10
482.742445
 20
229.99265
 10
490.742445
 20
231.59265
 10
498.742445
 20
229.99265
 10
506.742445
 20
231.59265
 10
514.742445
 20
229.99265
 10
522.742445
 20
231.59265
 10
530.742445
 20
229.99265
 10
538.742445
 20
231.59265
 10
546.742445
 20
229.99265
 10
554.742445
 20
231.59265
 10
562.742445
 20
229.99265
 10
570.742445
 20
231.59265
 10
578.742445
 20
229.99265
 10
586.742445
 20
231.59265
 10
594.742445
 20
229.99265
 10
602.742445
 20
231.59265
 10
610.742445
 20
229.99265
 10
618.742445
 20
231.59265
 10
626.742445
 20
229.99265
 10
634.742445
 20
231.59265
 10
642.742445
 20
229.99265
 10
650.742445
 20
231.59265
 10
658.742445
 20
229.99265
 10
666.742445
 20
231.59265
 10
674.742445
 20
229.99265
 10
682.742445
 20
231.59265
 10
685.350213
 20
232.114203
 42
-0.473285
 10
687.742445
 20
230.153042
 10
687.742445
 20
194.59265
 42
0.414214
 10
689.742445
 20
192.59265
 10
717.288516
 20
192.59265
 42
0.112057
 10
718.151898
 20
192.788607
 10
726.693441
 20
195.112692
  0
DIMENSION
  5
1482
100
AcDbEntity
  8
KOTY-MALE
100
AcDbDimension
  2
*D83
 10
387.683496
 20
267.461469
 30
0.0
 11
537.541584
 21
279.961469
 31
0.0
 12
0.0
 22
-159.306359
 32
0.0
 70
    32
  1
M
  3
KOTY-MALE
100
AcDbAlignedDimension
 13
687.399673
 23
228.312561
 33
0.0
 14
387.683496
 24
191.98086
 34
0.0
100
AcDbRotatedDimension
1001
ACAD
1000
DSTYLE
1002
{
1070
   147
1040
0.5
1070
   178
1070
     1
1002
}
  0
DIMENSION
  5
1534
100
AcDbEntity
  8
KOTY-UPLNE
100
AcDbDimension
  2
*D94
 10
605.462153
 20
2112.465923
 30
0.0
 11
505.430913
 21
2118.715923
 31
0.0
 70
    32
  3
KOTY-VELKE
100
AcDbAlignedDimension
 13
405.399673
 23
2074.178547
 33
0.0
 14
605.462153
 24
2079.178547
 34
0.0
100
AcDbRotatedDimension
1001
ACAD
1000
DSTYLE
1002
{
1070
    40
1040
5.0
1070
   147
1040
0.5
1070
    44
1040
0.5
1070
   178
1070
     1
1070
   177
1070
   256
1070
   176
1070
   256
1002
}
  0
DIMENSION
  5
1535
100
AcDbEntity
  8
KOTY-UPLNE
100
AcDbDimension
  2
*D99
 10
705.462153
 20
1993.410482
 30
0.0
 11
555.430913
 21
1999.660482
 31
0.0
 12
0.0
 22
-119.055441
 32
0.0
 70
    32
  3
KOTY-VELKE
100
AcDbAlignedDimension
 13
405.399673
 23
1955.123105
 33
0.0
 14
705.462153
 24
1960.123105
 34
0.0
100
AcDbRotatedDimension
1001
ACAD
1000
DSTYLE
1002
{
1070
    40
1040
5.0
1070
   147
1040
0.5
1070
    44
1040
0.5
1070
   178
1070
     1
1070
   177
1070
   256
1070
   176
1070
   256
1002
}
  0
LWPOLYLINE
  5
1536
100
AcDbEntity
  8
LAMELA-VELKA
100
AcDbPolyline
 90
       15
 70
     0
 43
2.0
 10
745.322801
 20
1926.995638
 10
742.764706
 20
1921.995638
 42
-0.200073
 10
739.237044
 20
1919.495638
 10
709.737044
 20
1919.495638
 42
-1.0
 10
709.737044
 20
1923.495638
 10
710.237044
 20
1923.495638
 42
0.831908
 10
713.458047
 20
1940.899515
 10
707.84816
 20
1942.80898
 42
-0.214719
 10
705.447669
 20
1945.050158
 10
704.252424
 20
1947.918726
 42
0.302775
 10
699.637044
 20
1950.995638
 10
408.517045
 20
1950.995638
 42
1.0
 10
408.517044
 20
1944.795638
 42
-0.413777
 10
420.517031
 20
1932.813526
 42
-0.287877
 10
412.333139
 20
1921.672361
 42
-0.287877
  0
DIMENSION
  5
1537
100
AcDbEntity
  8
KOTY-UPLNE
100
AcDbDimension
  2
*D96
 10
420.517031
 20
1971.37397
 30
0.0
 11
412.958352
 21
1977.62397
 31
0.0
 12
0.0
 22
-119.055441
 32
0.0
 70
    32
  3
KOTY-VELKE
100
AcDbAlignedDimension
 13
405.399673
 23
1950.123105
 33
0.0
 14
420.517031
 24
1932.813526
 34
0.0
100
AcDbRotatedDimension
1001
ACAD
1000
DSTYLE
1002
{
1070
    40
1040
5.0
1070
   147
1040
0.5
1070
    44
1040
0.5
1070
   178
1070
     1
1070
   177
1070
   256
1070
   176
1070
   256
1002
}
  0
DIMENSION
  5
1538
100
AcDbEntity
  8
KOTY-UPLNE
100
AcDbDimension
  2
*D98
 10
720.086758
 20
1971.37397
 30
0.0
 11
712.774456
 21
1977.730272
 31
0.0
 12
0.0
 22
-119.055441
 32
0.0
 70
   160
  3
KOTY-VELKE
100
AcDbAlignedDimension
 13
705.462153
 23
1950.123105
 33
0.0
 14
720.086758
 24
1930.857787
 34
0.0
100
AcDbRotatedDimension
1001
ACAD
1000
DSTYLE
1002
{
1070
    40
1040
5.0
1070
   147
1040
0.5
1070
    44
1040
0.5
1070
   178
1070
     1
1070
   177
1070
   256
1070
   176
1070
   256
1002
}
  0
DIMENSION
  5
1539
100
AcDbEntity
  8
KOTY-UPLNE
100
AcDbDimension
  2
*D97
 10
705.462153
 20
1993.410482
 30
0.0
 11
725.392477
 21
1999.660482
 31
0.0
 12
0.0
 22
-119.055441
 32
0.0
 70
    32
  3
KOTY-VELKE
100
AcDbAlignedDimension
 13
745.322801
 23
1926.995638
 33
0.0
 14
705.462153
 24
1955.123105
 34
0.0
100
AcDbRotatedDimension
1001
ACAD
1000
DSTYLE
1002
{
1070
    40
1040
5.0
1070
   147
1040
0.5
1070
    44
1040
0.5
1070
   178
1070
     1
1070
   177
1070
   256
1070
   176
1070
   256
1002
}
  0
DIMENSION
  5
153A
100
AcDbEntity
  8
KOTY-UPLNE
100
AcDbDimension
  2
*D95
 10
772.841444
 20
1950.995638
 30
0.0
 11
766.591444
 21
1935.245638
 31
0.0
 12
0.0
 22
-119.055441
 32
0.0
 70
    32
  3
KOTY-VELKE
100
AcDbAlignedDimension
 13
739.237044
 23
1919.495638
 33
0.0
 14
699.637044
 24
1950.995638
 34
0.0
 50
90.0
100
AcDbRotatedDimension
1001
ACAD
1000
DSTYLE
1002
{
1070
    40
1040
5.0
1070
   147
1040
0.5
1070
    44
1040
0.5
1070
   178
1070
     1
1070
   177
1070
   256
1070
   176
1070
   256
1002
}
  0
LWPOLYLINE
  5
157C
100
AcDbEntity
  8
LAMELA-VELKA
100
AcDbPolyline
 90
       15
 70
     0
 43
2.0
 10
845.322801
 20
1807.940197
 10
842.764706
 20
1802.940197
 42
-0.200073
 10
839.237044
 20
1800.440197
 10
809.737044
 20
1800.440197
 42
-1.0
 10
809.737044
 20
1804.440197
 10
810.237044
 20
1804.440197
 42
0.831908
 10
813.458047
 20
1821.844073
 10
807.84816
 20
1823.753539
 42
-0.214719
 10
805.447669
 20
1825.994716
 10
804.252424
 20
1828.863285
 42
0.302775
 10
799.637044
 20
1831.940197
 10
408.517045
 20
1831.940197
 42
1.0
 10
408.517044
 20
1825.740197
 42
-0.413777
 10
420.517031
 20
1813.758085
 42
-0.287877
 10
412.333139
 20
1802.616919
 42
-0.287877
  0
DIMENSION
  5
157D
100
AcDbEntity
  8
KOTY-UPLNE
100
AcDbDimension
  2
*D100
 10
805.462153
 20
1874.355041
 30
0.0
 11
605.430913
 21
1880.605041
 31
0.0
 70
    32
  3
KOTY-VELKE
100
AcDbAlignedDimension
 13
405.399673
 23
1836.067664
 33
0.0
 14
805.462153
 24
1841.067664
 34
0.0
100
AcDbRotatedDimension
1001
ACAD
1000
DSTYLE
1002
{
1070
    40
1040
5.0
1070
   147
1040
0.5
1070
    44
1040
0.5
1070
   178
1070
     1
1070
   177
1070
   256
1070
   176
1070
   256
1002
}
  0
DIMENSION
  5
157E
100
AcDbEntity
  8
KOTY-UPLNE
100
AcDbDimension
  2
*D101
 10
420.517031
 20
1852.318529
 30
0.0
 11
412.958352
 21
1858.568529
 31
0.0
 12
0.0
 22
-119.055441
 32
0.0
 70
    32
  3
KOTY-VELKE
100
AcDbAlignedDimension
 13
405.399673
 23
1831.067664
 33
0.0
 14
420.517031
 24
1813.758085
 34
0.0
100
AcDbRotatedDimension
1001
ACAD
1000
DSTYLE
1002
{
1070
    40
1040
5.0
1070
   147
1040
0.5
1070
    44
1040
0.5
1070
   178
1070
     1
1070
   177
1070
   256
1070
   176
1070
   256
1002
}
  0
DIMENSION
  5
157F
100
AcDbEntity
  8
KOTY-UPLNE
100
AcDbDimension
  2
*D102
 10
820.086758
 20
1852.318529
 30
0.0
 11
812.774456
 21
1858.674831
 31
0.0
 12
100.0
 22
-119.055441
 32
0.0
 70
   160
  3
KOTY-VELKE
100
AcDbAlignedDimension
 13
805.462153
 23
1831.067664
 33
0.0
 14
820.086758
 24
1811.802346
 34
0.0
100
AcDbRotatedDimension
1001
ACAD
1000
DSTYLE
1002
{
1070
    40
1040
5.0
1070
   147
1040
0.5
1070
    44
1040
0.5
1070
   178
1070
     1
1070
   177
1070
   256
1070
   176
1070
   256
1002
}
  0
DIMENSION
  5
1580
100
AcDbEntity
  8
KOTY-UPLNE
100
AcDbDimension
  2
*D104
 10
872.841444
 20
1831.940197
 30
0.0
 11
766.591444
 21
1816.190197
 31
0.0
 12
100.0
 22
-119.055441
 32
0.0
 70
    32
  3
KOTY-VELKE
100
AcDbAlignedDimension
 13
839.237044
 23
1800.440197
 33
0.0
 14
799.637044
 24
1831.940197
 34
0.0
 50
90.0
100
AcDbRotatedDimension
1001
ACAD
1000
DSTYLE
1002
{
1070
    40
1040
5.0
1070
   147
1040
0.5
1070
    44
1040
0.5
1070
   178
1070
     1
1070
   177
1070
   256
1070
   176
1070
   256
1002
}
  0
DIMENSION
  5
1581
100
AcDbEntity
  8
KOTY-UPLNE
100
AcDbDimension
  2
*D103
 10
805.462153
 20
1874.355041
 30
0.0
 11
725.392477
 21
1880.605041
 31
0.0
 12
100.0
 22
-119.055441
 32
0.0
 70
    32
  3
KOTY-VELKE
100
AcDbAlignedDimension
 13
845.322801
 23
1807.940197
 33
0.0
 14
805.462153
 24
1836.067664
 34
0.0
100
AcDbRotatedDimension
1001
ACAD
1000
DSTYLE
1002
{
1070
    40
1040
5.0
1070
   147
1040
0.5
1070
    44
1040
0.5
1070
   178
1070
     1
1070
   177
1070
   256
1070
   176
1070
   256
1002
}
  0
ENDSEC
  0
SECTION
  2
OBJECTS
  0
DICTIONARY
  5
7
100
AcDbDictionary
  3
ACAD_GROUP
350
22
  3
ACAD_LAYOUT
350
B
  3
ACAD_MLINESTYLE
350
23
  3
ACAD_PLOTSETTINGS
350
24
  3
ACAD_PLOTSTYLENAME
350
6
  3
ACDBHEADERROUNDTRIPXREC
350
11D
  3
DWGPROPS
350
52
  0
DICTIONARY
  5
147
100
AcDbDictionary
280
     1
  3
ACAD_XREC_ROUNDTRIP
360
148
  0
DICTIONARY
  5
115
100
AcDbDictionary
280
     1
  3
ACAD_XREC_ROUNDTRIP
360
116
  0
DICTIONARY
  5
117
100
AcDbDictionary
280
     1
  3
ACAD_XREC_ROUNDTRIP
360
118
  0
DICTIONARY
  5
145
100
AcDbDictionary
280
     1
  3
ACAD_XREC_ROUNDTRIP
360
146
  0
DICTIONARY
  5
13E
100
AcDbDictionary
280
     1
  3
ACAD_LAYOUTSELFREF
360
13F
  0
DICTIONARY
  5
111
100
AcDbDictionary
280
     1
  3
ACAD_LAYOUTSELFREF
360
142
  3
ACAD_XREC_ROUNDTRIP
360
112
  0
DICTIONARY
  5
22
102
{ACAD_REACTORS
330
7
102
}
100
AcDbDictionary
  0
DICTIONARY
  5
B
102
{ACAD_XDICTIONARY
360
140
102
}
102
{ACAD_REACTORS
330
7
102
}
100
AcDbDictionary
  3
LAYOUT2
350
F
  3
MODEL
350
A
  0
DICTIONARY
  5
23
102
{ACAD_REACTORS
330
7
102
}
100
AcDbDictionary
  3
STANDARD
350
27
  0
DICTIONARY
  5
24
102
{ACAD_REACTORS
330
7
102
}
100
AcDbDictionary
  0
ACAD_PROXY_OBJECT
  5
6
102
{ACAD_REACTORS
330
7
102
}
100
AcDbProxyObject
 90
      499
 91
      502
 93
       86
310
405010041939BDC9B585B1
350
5
340
5
 94
        0
  0
DICTIONARY
  5
11D
102
{ACAD_REACTORS
330
7
102
}
100
AcDbDictionary
  3
CEPSNTYPE
350
127
  3
DIMSTYLEDATA
350
12B
  3
FINGERPRINTGUID
350
128
  3
HYPERLINKBASE
350
120
  3
INSUNITS
350
126
  3
LAYOUTDICT
350
122
  3
LWETCUNION
350
125
  3
PLOTSETDICT
350
123
  3
PLOTSTYLNAMDICT
350
124
  3
PSVPSCALE
350
12A
  3
PUCSBASE
350
12E
  3
PUCSORGBACK
350
134
  3
PUCSORGBOTTOM
350
130
  3
PUCSORGFRONT
350
133
  3
PUCSORGLEFT
350
131
  3
PUCSORGRIGHT
350
132
  3
PUCSORGTOP
350
12F
  3
PUCSORTHOREF
350
12C
  3
PUCSORTHOVIEW
350
12D
  3
STYLESHEET
350
121
  3
TSTACKALIGN
350
11E
  3
TSTACKSIZE
350
11F
  3
UCSBASE
350
137
  3
UCSORGBACK
350
13D
  3
UCSORGBOTTOM
350
139
  3
UCSORGFRONT
350
13C
  3
UCSORGLEFT
350
13A
  3
UCSORGRIGHT
350
13B
  3
UCSORGTOP
350
138
  3
UCSORTHOREF
350
135
  3
UCSORTHOVIEW
350
136
  3
VERSIONGUID
350
129
  0
XRECORD
  5
52
102
{ACAD_REACTORS
330
7
102
}
100
AcDbXrecord
  1
DWGPROPS COOKIE
  2

  3

  4

  6

  7

  8
tom
  9

300
=
301
=
302
=
303
=
304
=
305
=
306
=
307
=
308
=
309
=
 40
0.356595
 41
2450098.461195
 42
2452040.602766
  1

 90
        0
  0
XRECORD
  5
148
102
{ACAD_REACTORS
330
147
102
}
100
AcDbXrecord
102
PLOTBIT
280
     0
  0
XRECORD
  5
116
102
{ACAD_REACTORS
330
115
102
}
100
AcDbXrecord
102
EXTNAMES
  1
KOTY-TOM
  2
Koty-tom
  0
XRECORD
  5
118
102
{ACAD_REACTORS
330
117
102
}
100
AcDbXrecord
102
EXTNAMES
  1
TOM
  2
tom
  0
XRECORD
  5
146
102
{ACAD_REACTORS
330
145
102
}
100
AcDbXrecord
102
ACADR14ROUNDTRIP
1000
DSTYLE
1002
{
1070
   279
 70
     2
1002
}
  0
XRECORD
  5
13F
102
{ACAD_REACTORS
330
13E
102
}
100
AcDbXrecord
340
2
  0
XRECORD
  5
142
102
{ACAD_REACTORS
330
111
102
}
100
AcDbXrecord
340
C
  0
XRECORD
  5
112
102
{ACAD_REACTORS
330
111
102
}
100
AcDbXrecord
102
EXTNAMES
  1
*PAPER_SPACE
  2
*Paper_Space
  0
DICTIONARY
  5
140
100
AcDbDictionary
280
     1
  3
ACAD_XREC_ROUNDTRIP
360
141
  0
ACAD_PROXY_OBJECT
  5
F
102
{ACAD_REACTORS
330
B
102
}
100
AcDbProxyObject
 90
      499
 91
      504
 93
     1484
310
91943616E6F6E20427562626C652D4A657420424A432D343030302C8080000002033931C4000000000333F0A9000000000080ED0C4000000000003003D000000008067416A400000001017639C901024134A40501416AA543D513D34C4B5CDA591A5B99CB98DD1891069074C61796F75743240501A80000000003003F00000
310
00080CE4C7300000001037539C9000000039F3571A502A6A6A0000000022FC4ED00D0CCCCB8ACED3340800000060BC6F6F401999B993D89AD99029
330
C
330
0
340
0
340
0
 94
        0
  0
ACAD_PROXY_OBJECT
  5
A
102
{ACAD_REACTORS
330
B
102
}
100
AcDbProxyObject
 90
      499
 91
      504
 93
     1796
310
9144B796F63657261204D6974612046532D31383030290B8000000C067381B40000000102F06C51000000000068381B40000000002E06C510000000080253F6A400000003834239C90102413400000000002012100AE47E17A148E5E40405014100055D792FC8379401026BDF13AE5E0500049AA63FFE6283402D878F5E855
310
EE41024000000000000144043D513D34C4B5CDA591A5B99CB98DD18A26A666666666724FC0055D792FC8379C01026BDF13AE5E0701054D6F64656C901A800000000000000000000000000000000000000000000A1000000000000008902A6A6AAAA5
330
2
330
0
340
0
340
0
 94
        0
  0
MLINESTYLE
  5
27
102
{ACAD_REACTORS
330
23
102
}
100
AcDbMlineStyle
  2
STANDARD
 70
     0
  3

 62
   256
 51
90.0
 52
90.0
 71
     2
 49
0.5
 62
   256
  6
BYLAYER
 49
-0.5
 62
   256
  6
BYLAYER
  0
ACAD_PROXY_OBJECT
  5
5
102
{ACAD_REACTORS
330
6
102
}
100
AcDbProxyObject
 90
      499
 91
      503
 93
        0
 94
        0
  0
XRECORD
  5
127
102
{ACAD_REACTORS
330
11D
102
}
100
AcDbXrecord
 90
        0
  0
XRECORD
  5
12B
102
{ACAD_REACTORS
330
11D
102
}
100
AcDbXrecord
1000
DSTYLE
1002
{
1070
   179
 70
     4
1070
   278
 70
    44
1070
   279
 70
     2
1070
   289
 70
     1
1002
}
  0
XRECORD
  5
128
102
{ACAD_REACTORS
330
11D
102
}
100
AcDbXrecord
  1
{986116A0-451F-11D5-BBCF-006097BB053F}
  0
XRECORD
  5
120
102
{ACAD_REACTORS
330
11D
102
}
100
AcDbXrecord
  1

  0
XRECORD
  5
126
102
{ACAD_REACTORS
330
11D
102
}
100
AcDbXrecord
 90
        0
  0
XRECORD
  5
122
102
{ACAD_REACTORS
330
11D
102
}
100
AcDbXrecord
340
B
  0
XRECORD
  5
125
102
{ACAD_REACTORS
330
11D
102
}
100
AcDbXrecord
 90
    10781
  0
XRECORD
  5
123
102
{ACAD_REACTORS
330
11D
102
}
100
AcDbXrecord
340
24
  0
XRECORD
  5
124
102
{ACAD_REACTORS
330
11D
102
}
100
AcDbXrecord
340
6
  0
XRECORD
  5
12A
102
{ACAD_REACTORS
330
11D
102
}
100
AcDbXrecord
 40
0.0
  0
XRECORD
  5
12E
102
{ACAD_REACTORS
330
11D
102
}
100
AcDbXrecord
340
0
  0
XRECORD
  5
134
102
{ACAD_REACTORS
330
11D
102
}
100
AcDbXrecord
 10
0.0
 20
0.0
 30
0.0
  0
XRECORD
  5
130
102
{ACAD_REACTORS
330
11D
102
}
100
AcDbXrecord
 10
0.0
 20
0.0
 30
0.0
  0
XRECORD
  5
133
102
{ACAD_REACTORS
330
11D
102
}
100
AcDbXrecord
 10
0.0
 20
0.0
 30
0.0
  0
XRECORD
  5
131
102
{ACAD_REACTORS
330
11D
102
}
100
AcDbXrecord
 10
0.0
 20
0.0
 30
0.0
  0
XRECORD
  5
132
102
{ACAD_REACTORS
330
11D
102
}
100
AcDbXrecord
 10
0.0
 20
0.0
 30
0.0
  0
XRECORD
  5
12F
102
{ACAD_REACTORS
330
11D
102
}
100
AcDbXrecord
 10
0.0
 20
0.0
 30
0.0
  0
XRECORD
  5
12C
102
{ACAD_REACTORS
330
11D
102
}
100
AcDbXrecord
340
0
  0
XRECORD
  5
12D
102
{ACAD_REACTORS
330
11D
102
}
100
AcDbXrecord
 70
     0
  0
XRECORD
  5
121
102
{ACAD_REACTORS
330
11D
102
}
100
AcDbXrecord
  1
TOM1-siding.ctb
  0
XRECORD
  5
11E
102
{ACAD_REACTORS
330
11D
102
}
100
AcDbXrecord
 90
        1
  0
XRECORD
  5
11F
102
{ACAD_REACTORS
330
11D
102
}
100
AcDbXrecord
 90
       70
  0
XRECORD
  5
137
102
{ACAD_REACTORS
330
11D
102
}
100
AcDbXrecord
340
0
  0
XRECORD
  5
13D
102
{ACAD_REACTORS
330
11D
102
}
100
AcDbXrecord
 10
0.0
 20
0.0
 30
0.0
  0
XRECORD
  5
139
102
{ACAD_REACTORS
330
11D
102
}
100
AcDbXrecord
 10
0.0
 20
0.0
 30
0.0
  0
XRECORD
  5
13C
102
{ACAD_REACTORS
330
11D
102
}
100
AcDbXrecord
 10
0.0
 20
0.0
 30
0.0
  0
XRECORD
  5
13A
102
{ACAD_REACTORS
330
11D
102
}
100
AcDbXrecord
 10
0.0
 20
0.0
 30
0.0
  0
XRECORD
  5
13B
102
{ACAD_REACTORS
330
11D
102
}
100
AcDbXrecord
 10
0.0
 20
0.0
 30
0.0
  0
XRECORD
  5
138
102
{ACAD_REACTORS
330
11D
102
}
100
AcDbXrecord
 10
0.0
 20
0.0
 30
0.0
  0
XRECORD
  5
135
102
{ACAD_REACTORS
330
11D
102
}
100
AcDbXrecord
340
0
  0
XRECORD
  5
136
102
{ACAD_REACTORS
330
11D
102
}
100
AcDbXrecord
 70
     0
  0
XRECORD
  5
129
102
{ACAD_REACTORS
330
11D
102
}
100
AcDbXrecord
  1
{F5D44C6B-50ED-11D5-BBCF-006097BB053F}
  0
XRECORD
  5
141
102
{ACAD_REACTORS
330
140
102
}
100
AcDbXrecord
102
EXTNAMES
  1
LAYOUT2
  2
Layout2
  1
MODEL
  2
Model
  0
ENDSEC
  0
EOF
