  0
SECTION
  2
HEADER
  9
$ACADVER
  1
AC1014
  9
$ACADMAINTVER
 70
     0
  9
$DWGCODEPAGE
  3
ANSI_1250
  9
$INSBASE
 10
0.0
 20
0.0
 30
0.0
  9
$EXTMIN
 10
368.488645
 20
727.330513
 30
0.0
  9
$EXTMAX
 10
773.518779
 20
1137.640742
 30
0.0
  9
$LIMMIN
 10
0.0
 20
0.0
  9
$LIMMAX
 10
1200.0
 20
880.0
  9
$ORTHOMODE
 70
     1
  9
$REGENMODE
 70
     1
  9
$FILLMODE
 70
     1
  9
$QTEXTMODE
 70
     0
  9
$MIRRTEXT
 70
     0
  9
$DRAGMODE
 70
     2
  9
$LTSCALE
 40
5.0
  9
$OSMODE
 70
    35
  9
$ATTMODE
 70
     1
  9
$TEXTSIZE
 40
100.0
  9
$TRACEWID
 40
1.0
  9
$TEXTSTYLE
  7
TOM
  9
$CLAYER
  8
KOTY-UPLNE
  9
$CELTYPE
  6
BYLAYER
  9
$CECOLOR
 62
   256
  9
$CELTSCALE
 40
1.0
  9
$DELOBJ
 70
     1
  9
$DISPSILH
 70
     0
  9
$DIMSCALE
 40
5.0
  9
$DIMASZ
 40
1.5
  9
$DIMEXO
 40
1.0
  9
$DIMDLI
 40
10.0
  9
$DIMRND
 40
1.0
  9
$DIMDLE
 40
1.0
  9
$DIMEXE
 40
0.5
  9
$DIMTP
 40
0.0
  9
$DIMTM
 40
0.0
  9
$DIMTXT
 40
1.5
  9
$DIMCEN
 40
2.0
  9
$DIMTSZ
 40
0.0
  9
$DIMTOL
 70
     0
  9
$DIMLIM
 70
     0
  9
$DIMTIH
 70
     0
  9
$DIMTOH
 70
     0
  9
$DIMSE1
 70
     0
  9
$DIMSE2
 70
     0
  9
$DIMTAD
 70
     1
  9
$DIMZIN
 70
     9
  9
$DIMBLK
  1

  9
$DIMASO
 70
     1
  9
$DIMSHO
 70
     1
  9
$DIMPOST
  1

  9
$DIMAPOST
  1

  9
$DIMALT
 70
     0
  9
$DIMALTD
 70
     2
  9
$DIMALTF
 40
25.4
  9
$DIMLFAC
 40
1.0
  9
$DIMTOFL
 70
     1
  9
$DIMTVP
 40
0.0
  9
$DIMTIX
 70
     0
  9
$DIMSOXD
 70
     0
  9
$DIMSAH
 70
     0
  9
$DIMBLK1
  1

  9
$DIMBLK2
  1

  9
$DIMSTYLE
  2
KOTY-VELKE
  9
$DIMCLRD
 70
   256
  9
$DIMCLRE
 70
   256
  9
$DIMCLRT
 70
     1
  9
$DIMTFAC
 40
1.0
  9
$DIMGAP
 40
0.5
  9
$DIMJUST
 70
     0
  9
$DIMSD1
 70
     0
  9
$DIMSD2
 70
     0
  9
$DIMTOLJ
 70
     1
  9
$DIMTZIN
 70
     8
  9
$DIMALTZ
 70
     8
  9
$DIMALTTZ
 70
     8
  9
$DIMFIT
 70
     5
  9
$DIMUPT
 70
     0
  9
$DIMUNIT
 70
     2
  9
$DIMDEC
 70
     0
  9
$DIMTDEC
 70
     0
  9
$DIMALTU
 70
     2
  9
$DIMALTTD
 70
     2
  9
$DIMTXSTY
  7
TOM
  9
$DIMAUNIT
 70
     0
  9
$LUNITS
 70
     2
  9
$LUPREC
 70
     2
  9
$SKETCHINC
 40
1.0
  9
$FILLETRAD
 40
3.0
  9
$AUNITS
 70
     0
  9
$AUPREC
 70
     4
  9
$MENU
  1
acad
  9
$ELEVATION
 40
0.0
  9
$PELEVATION
 40
0.0
  9
$THICKNESS
 40
0.0
  9
$LIMCHECK
 70
     0
  9
$BLIPMODE
 70
     0
  9
$CHAMFERA
 40
0.0
  9
$CHAMFERB
 40
0.0
  9
$CHAMFERC
 40
0.0
  9
$CHAMFERD
 40
0.0
  9
$SKPOLY
 70
     0
  9
$TDCREATE
 40
2450098.461194791
  9
$TDUPDATE
 40
2452897.552069791
  9
$TDINDWG
 40
0.4682891204
  9
$TDUSRTIMER
 40
0.4682891204
  9
$USRTIMER
 70
     1
  9
$ANGBASE
 50
0.0
  9
$ANGDIR
 70
     0
  9
$PDMODE
 70
     0
  9
$PDSIZE
 40
0.0
  9
$PLINEWID
 40
0.0
  9
$COORDS
 70
     2
  9
$SPLFRAME
 70
     0
  9
$SPLINETYPE
 70
     6
  9
$SPLINESEGS
 70
     8
  9
$ATTDIA
 70
     0
  9
$ATTREQ
 70
     1
  9
$HANDLING
 70
     1
  9
$HANDSEED
  5
16BD
  9
$SURFTAB1
 70
     6
  9
$SURFTAB2
 70
     6
  9
$SURFTYPE
 70
     6
  9
$SURFU
 70
     6
  9
$SURFV
 70
     6
  9
$UCSNAME
  2

  9
$UCSORG
 10
0.0
 20
0.0
 30
0.0
  9
$UCSXDIR
 10
1.0
 20
0.0
 30
0.0
  9
$UCSYDIR
 10
0.0
 20
1.0
 30
0.0
  9
$PUCSNAME
  2

  9
$PUCSORG
 10
0.0
 20
0.0
 30
0.0
  9
$PUCSXDIR
 10
1.0
 20
0.0
 30
0.0
  9
$PUCSYDIR
 10
0.0
 20
1.0
 30
0.0
  9
$USERI1
 70
     0
  9
$USERI2
 70
     0
  9
$USERI3
 70
     0
  9
$USERI4
 70
     0
  9
$USERI5
 70
     0
  9
$USERR1
 40
0.0
  9
$USERR2
 40
0.0
  9
$USERR3
 40
0.0
  9
$USERR4
 40
0.0
  9
$USERR5
 40
0.0
  9
$WORLDVIEW
 70
     1
  9
$SHADEDGE
 70
     3
  9
$SHADEDIF
 70
    70
  9
$TILEMODE
 70
     1
  9
$MAXACTVP
 70
    16
  9
$PINSBASE
 10
0.0
 20
0.0
 30
0.0
  9
$PLIMCHECK
 70
     0
  9
$PEXTMIN
 10
27.943527
 20
19.928417
 30
0.0
  9
$PEXTMAX
 10
251.491745
 20
179.355751
 30
0.0
  9
$PLIMMIN
 10
-3.96875
 20
-7.14375
  9
$PLIMMAX
 10
292.929016
 20
202.900135
  9
$UNITMODE
 70
     0
  9
$VISRETAIN
 70
     0
  9
$PLINEGEN
 70
     0
  9
$PSLTSCALE
 70
     1
  9
$TREEDEPTH
 70
  3020
  9
$PICKSTYLE
 70
     3
  9
$CMLSTYLE
  2
STANDARD
  9
$CMLJUST
 70
     0
  9
$CMLSCALE
 40
1.0
  9
$PROXYGRAPHICS
 70
     1
  9
$MEASUREMENT
 70
     0
  0
ENDSEC
  0
SECTION
  2
CLASSES
  0
CLASS
  1
DICTIONARYVAR
  2
AcDbDictionaryVar
  3
"AutoCAD"
 90
        0
280
     0
281
     0
  0
CLASS
  1
LWPOLYLINE
  2
AcDbPolyline
  3
"AutoCAD"
 90
        0
280
     0
281
     1
  0
CLASS
  1
ACDBDICTIONARYWDFLT
  2
AcDbDictionaryWithDefault
  3
AutoCAD 2000
 90
        0
280
     0
281
     0
  0
CLASS
  1
ACDBPLACEHOLDER
  2
AcDbPlaceHolder
  3
AutoCAD 2000
 90
        0
280
     0
281
     0
  0
CLASS
  1
LAYOUT
  2
AcDbLayout
  3
AutoCAD 2000
 90
        0
280
     0
281
     0
  0
CLASS
  1
LONG_TRANSACTION
  2
AcDbLongTransaction
  3
AutoCAD 2000
 90
        0
280
     0
281
     0
  0
CLASS
  1
LWPOLYLINE
  2
AcDbPolyline
  3
"AutoCAD"
 90
        0
280
     0
281
     1
  0
CLASS
  1
HATCH
  2
AcDbHatch
  3
"ACAD_SEDONA"
 90
        0
280
     0
281
     1
  0
CLASS
  1
XRECORD
  2
AcDbXrecord
  3
"<Built In>"
 90
        0
280
     0
281
     0
  0
ENDSEC
  0
SECTION
  2
TABLES
  0
TABLE
  2
VPORT
  5
19
100
AcDbSymbolTable
 70
     1
  0
VPORT
  5
16BA
100
AcDbSymbolTableRecord
100
AcDbViewportTableRecord
  2
*ACTIVE
 70
     0
 10
0.0
 20
0.0
 11
1.0
 21
1.0
 12
501.325663
 22
941.859064
 13
0.0
 23
0.0
 14
1.0
 24
1.0
 15
1000.0
 25
1000.0
 16
0.0
 26
0.0
 36
1.0
 17
0.0
 27
0.0
 37
0.0
 40
502.57958
 41
2.059548
 42
50.0
 43
0.0
 44
0.0
 50
0.0
 51
0.0
 71
     0
 72
 20000
 73
     1
 74
     1
 75
     0
 76
     0
 77
     0
 78
     0
  0
ENDTAB
  0
TABLE
  2
LTYPE
  5
14
100
AcDbSymbolTable
 70
     2
  0
LTYPE
  5
15
100
AcDbSymbolTableRecord
100
AcDbLinetypeTableRecord
  2
BYBLOCK
 70
     0
  3

 72
    65
 73
     0
 40
0.0
  0
LTYPE
  5
16
100
AcDbSymbolTableRecord
100
AcDbLinetypeTableRecord
  2
BYLAYER
 70
     0
  3

 72
    65
 73
     0
 40
0.0
  0
LTYPE
  5
8
100
AcDbSymbolTableRecord
100
AcDbLinetypeTableRecord
  2
AUSGEZOGEN
 70
     0
  3
Ausgezogene Linie
 72
    65
 73
     0
 40
0.0
  0
LTYPE
  5
3D1
100
AcDbSymbolTableRecord
100
AcDbLinetypeTableRecord
  2
CONTINUOUS
 70
     0
  3
Solid line
 72
    65
 73
     0
 40
0.0
  0
ENDTAB
  0
TABLE
  2
LAYER
  5
10
100
AcDbSymbolTable
 70
     4
  0
LAYER
  5
4
100
AcDbSymbolTableRecord
100
AcDbLayerTableRecord
  2
0
 70
     0
 62
     7
  6
AUSGEZOGEN
  0
LAYER
  5
31
102
{ACAD_XDICTIONARY
360
147
102
}
100
AcDbSymbolTableRecord
100
AcDbLayerTableRecord
  2
DEFPOINTS
 70
     0
 62
     7
  6
AUSGEZOGEN
  0
LAYER
  5
ABF
100
AcDbSymbolTableRecord
100
AcDbLayerTableRecord
  2
KOTY-UPLNE
 70
     0
 62
     5
  6
CONTINUOUS
  0
LAYER
  5
AC0
100
AcDbSymbolTableRecord
100
AcDbLayerTableRecord
  2
LAMELA-VELKA
 70
     0
 62
     7
  6
CONTINUOUS
  0
ENDTAB
  0
TABLE
  2
STYLE
  5
11
100
AcDbSymbolTable
 70
     3
  0
STYLE
  5
12
100
AcDbSymbolTableRecord
100
AcDbTextStyleTableRecord
  2
STANDARD
 70
     0
 40
0.0
 41
1.0
 50
0.0
 71
     0
 42
2.0
  3
txt8.shx
  4

  0
STYLE
  5
1F
100
AcDbSymbolTableRecord
100
AcDbTextStyleTableRecord
  2
SIMPLEX8
 70
     0
 40
0.0
 41
1.0
 50
0.0
 71
     0
 42
100.0
  3
simplex8.shx
  4

  0
STYLE
  5
26
102
{ACAD_XDICTIONARY
360
117
102
}
100
AcDbSymbolTableRecord
100
AcDbTextStyleTableRecord
  2
TOM
 70
     0
 40
0.0
 41
0.9
 50
0.0
 71
     0
 42
100.0
  3
simplex.shx
  4

  0
ENDTAB
  0
TABLE
  2
VIEW
  5
17
100
AcDbSymbolTable
 70
     0
  0
ENDTAB
  0
TABLE
  2
UCS
  5
18
100
AcDbSymbolTable
 70
     0
  0
ENDTAB
  0
TABLE
  2
APPID
  5
1B
100
AcDbSymbolTable
 70
     2
  0
APPID
  5
1C
100
AcDbSymbolTableRecord
100
AcDbRegAppTableRecord
  2
ACAD
 70
     0
  0
APPID
  5
3DA
100
AcDbSymbolTableRecord
100
AcDbRegAppTableRecord
  2
DCO15
 70
     0
  0
ENDTAB
  0
TABLE
  2
DIMSTYLE
  5
1D
100
AcDbSymbolTable
 70
     3
  0
DIMSTYLE
105
20
102
{ACAD_XDICTIONARY
360
145
102
}
100
AcDbSymbolTableRecord
100
AcDbDimStyleTableRecord
  2
PFLAUM2-35
 70
     0
  3

  4

  5

  6

  7

 40
2.0
 41
0.0
 42
1.0
 43
7.0
 44
1.0
 45
1.0
 46
1.0
 47
0.0
 48
0.0
140
3.5
141
2.0
142
1.0
143
25.4
144
1.0
145
0.0
146
1.0
147
0.0
 71
     0
 72
     0
 73
     0
 74
     0
 75
     0
 76
     0
 77
     1
 78
     8
170
     0
171
     2
172
     1
173
     0
174
     0
175
     0
176
     7
177
     7
178
    30
270
     2
271
     2
272
     2
273
     2
274
     2
340
1F
275
     0
280
     0
281
     0
282
     0
283
     1
284
     8
285
     8
286
     8
287
     5
288
     0
  0
DIMSTYLE
105
3D9
100
AcDbSymbolTableRecord
100
AcDbDimStyleTableRecord
  2
STANDARD
 70
     0
  3

  4

  5

  6

  7

 40
1.0
 41
0.18
 42
0.0625
 43
0.38
 44
0.18
 45
0.0
 46
0.0
 47
0.0
 48
0.0
140
0.18
141
0.09
142
0.0
143
25.4
144
1.0
145
0.0
146
1.0
147
0.09
 71
     0
 72
     0
 73
     1
 74
     1
 75
     0
 76
     0
 77
     0
 78
     0
170
     0
171
     2
172
     0
173
     0
174
     0
175
     0
176
     0
177
     0
178
     0
270
     2
271
     4
272
     4
273
     2
274
     2
340
12
275
     0
280
     0
281
     0
282
     0
283
     1
284
     0
285
     0
286
     0
287
     3
288
     0
  0
DIMSTYLE
105
ACF
102
{ACAD_REACTORS
330
1296
330
1295
330
1298
330
1297
330
14BA
330
155D
330
1560
330
1563
330
1562
330
1561
330
155F
330
155E
330
155C
330
15CC
330
15CF
330
15CE
330
15D0
330
15D3
330
15D4
330
15D2
330
15D1
330
1691
330
16A2
102
}
100
AcDbSymbolTableRecord
100
AcDbDimStyleTableRecord
  2
KOTY-VELKE
 70
     0
  3

  4

  5

  6

  7

 40
3.0
 41
1.5
 42
1.0
 43
10.0
 44
0.0
 45
1.0
 46
1.0
 47
0.0
 48
0.0
140
1.5
141
2.0
142
0.0
143
25.4
144
1.0
145
0.0
146
1.0
147
1.5
 71
     0
 72
     0
 73
     0
 74
     0
 75
     0
 76
     0
 77
     1
 78
     9
170
     0
171
     2
172
     1
173
     0
174
     0
175
     0
176
   170
177
   170
178
    50
270
     2
271
     0
272
     0
273
     2
274
     2
340
26
275
     0
280
     0
281
     0
282
     0
283
     1
284
     8
285
     8
286
     8
287
     5
288
     0
  0
ENDTAB
  0
TABLE
  2
BLOCK_RECORD
  5
1
100
AcDbSymbolTable
 70
    28
  0
BLOCK_RECORD
  5
2
102
{ACAD_XDICTIONARY
360
13E
102
}
100
AcDbSymbolTableRecord
100
AcDbBlockTableRecord
  2
*MODEL_SPACE
  0
BLOCK_RECORD
  5
C
102
{ACAD_XDICTIONARY
360
111
102
}
100
AcDbSymbolTableRecord
100
AcDbBlockTableRecord
  2
*PAPER_SPACE
  0
BLOCK_RECORD
  5
F24
100
AcDbSymbolTableRecord
100
AcDbBlockTableRecord
  2
*D0
  0
BLOCK_RECORD
  5
F30
100
AcDbSymbolTableRecord
100
AcDbBlockTableRecord
  2
*D1
  0
BLOCK_RECORD
  5
F3C
100
AcDbSymbolTableRecord
100
AcDbBlockTableRecord
  2
*D2
  0
BLOCK_RECORD
  5
1203
100
AcDbSymbolTableRecord
100
AcDbBlockTableRecord
  2
_DOTSMALL
  0
BLOCK_RECORD
  5
1299
100
AcDbSymbolTableRecord
100
AcDbBlockTableRecord
  2
*D4
  0
BLOCK_RECORD
  5
12A8
100
AcDbSymbolTableRecord
100
AcDbBlockTableRecord
  2
*D5
  0
BLOCK_RECORD
  5
12B4
100
AcDbSymbolTableRecord
100
AcDbBlockTableRecord
  2
*D6
  0
BLOCK_RECORD
  5
12C0
100
AcDbSymbolTableRecord
100
AcDbBlockTableRecord
  2
*D7
  0
BLOCK_RECORD
  5
14AE
100
AcDbSymbolTableRecord
100
AcDbBlockTableRecord
  2
*D8
  0
BLOCK_RECORD
  5
1564
100
AcDbSymbolTableRecord
100
AcDbBlockTableRecord
  2
*D9
  0
BLOCK_RECORD
  5
1572
100
AcDbSymbolTableRecord
100
AcDbBlockTableRecord
  2
*D10
  0
BLOCK_RECORD
  5
157E
100
AcDbSymbolTableRecord
100
AcDbBlockTableRecord
  2
*D11
  0
BLOCK_RECORD
  5
158A
100
AcDbSymbolTableRecord
100
AcDbBlockTableRecord
  2
*D12
  0
BLOCK_RECORD
  5
1596
100
AcDbSymbolTableRecord
100
AcDbBlockTableRecord
  2
*D13
  0
BLOCK_RECORD
  5
15A5
100
AcDbSymbolTableRecord
100
AcDbBlockTableRecord
  2
*D14
  0
BLOCK_RECORD
  5
15B4
100
AcDbSymbolTableRecord
100
AcDbBlockTableRecord
  2
*D15
  0
BLOCK_RECORD
  5
15C0
100
AcDbSymbolTableRecord
100
AcDbBlockTableRecord
  2
*D16
  0
BLOCK_RECORD
  5
15D5
100
AcDbSymbolTableRecord
100
AcDbBlockTableRecord
  2
*D17
  0
BLOCK_RECORD
  5
15E1
100
AcDbSymbolTableRecord
100
AcDbBlockTableRecord
  2
*D18
  0
BLOCK_RECORD
  5
15EF
100
AcDbSymbolTableRecord
100
AcDbBlockTableRecord
  2
*D19
  0
BLOCK_RECORD
  5
15FB
100
AcDbSymbolTableRecord
100
AcDbBlockTableRecord
  2
*D20
  0
BLOCK_RECORD
  5
160A
100
AcDbSymbolTableRecord
100
AcDbBlockTableRecord
  2
*D21
  0
BLOCK_RECORD
  5
1616
100
AcDbSymbolTableRecord
100
AcDbBlockTableRecord
  2
*D22
  0
BLOCK_RECORD
  5
1625
100
AcDbSymbolTableRecord
100
AcDbBlockTableRecord
  2
*D23
  0
BLOCK_RECORD
  5
1631
100
AcDbSymbolTableRecord
100
AcDbBlockTableRecord
  2
*D24
  0
BLOCK_RECORD
  5
1682
100
AcDbSymbolTableRecord
100
AcDbBlockTableRecord
  2
*D25
  0
BLOCK_RECORD
  5
1693
100
AcDbSymbolTableRecord
100
AcDbBlockTableRecord
  2
*D26
  0
BLOCK_RECORD
  5
16A3
100
AcDbSymbolTableRecord
100
AcDbBlockTableRecord
  2
*D27
  0
ENDTAB
  0
ENDSEC
  0
SECTION
  2
BLOCKS
  0
BLOCK
  5
3
100
AcDbEntity
  8
0
100
AcDbBlockBegin
  2
*MODEL_SPACE
 70
     0
 10
0.0
 20
0.0
 30
0.0
  3
*MODEL_SPACE
  1

  0
ENDBLK
  5
9
100
AcDbEntity
  8
0
100
AcDbBlockEnd
  0
BLOCK
  5
D
100
AcDbEntity
 67
     1
  8
0
100
AcDbBlockBegin
  2
*PAPER_SPACE
 70
     0
 10
0.0
 20
0.0
 30
0.0
  3
*PAPER_SPACE
  1

  0
ENDBLK
  5
E
100
AcDbEntity
 67
     1
  8
0
100
AcDbBlockEnd
  0
BLOCK
  5
F25
100
AcDbEntity
  8
0
100
AcDbBlockBegin
  2
*D0
 70
     1
 10
0.0
 20
0.0
 30
0.0
  3
*D0
  1

  0
LINE
  5
F26
100
AcDbEntity
  8
0
  6
BYBLOCK
100
AcDbLine
 10
731.125141
 20
1193.255359
 30
0.0
 11
731.125141
 21
1260.503146
 31
0.0
  0
LINE
  5
F27
100
AcDbEntity
  8
0
  6
BYBLOCK
100
AcDbLine
 10
705.696023
 20
1213.673055
 30
0.0
 11
705.696023
 21
1260.503146
 31
0.0
  0
LINE
  5
F28
100
AcDbEntity
  8
0
  6
BYBLOCK
100
AcDbLine
 10
723.625141
 20
1258.003146
 30
0.0
 11
713.196023
 21
1258.003146
 31
0.0
  0
SOLID
  5
F29
100
AcDbEntity
  8
0
  6
BYBLOCK
100
AcDbTrace
 10
723.625141
 20
1259.253146
 30
0.0
 11
723.625141
 21
1256.753146
 31
0.0
 12
731.125141
 22
1258.003146
 32
0.0
 13
731.125141
 23
1258.003146
 33
0.0
  0
SOLID
  5
F2A
100
AcDbEntity
  8
0
  6
BYBLOCK
100
AcDbTrace
 10
713.196023
 20
1259.253146
 30
0.0
 11
713.196023
 21
1256.753146
 31
0.0
 12
705.696023
 22
1258.003146
 32
0.0
 13
705.696023
 23
1258.003146
 33
0.0
  0
MTEXT
  5
F2B
100
AcDbEntity
  8
0
  6
BYBLOCK
 62
     1
100
AcDbMText
 10
718.410582
 20
1264.253146
 30
0.0
 40
7.5
 41
0.0
 71
     5
 72
     1
  1
\A1;25
  7
TOM
  0
POINT
  5
F2C
100
AcDbEntity
  8
DEFPOINTS
  6
BYBLOCK
 62
     0
100
AcDbPoint
 10
731.125141
 20
1188.255359
 30
0.0
  0
POINT
  5
F2D
100
AcDbEntity
  8
DEFPOINTS
  6
BYBLOCK
 62
     0
100
AcDbPoint
 10
705.696023
 20
1208.673055
 30
0.0
  0
POINT
  5
F2E
100
AcDbEntity
  8
DEFPOINTS
  6
BYBLOCK
 62
     0
100
AcDbPoint
 10
705.696023
 20
1258.003146
 30
0.0
  0
ENDBLK
  5
F2F
100
AcDbEntity
  8
0
100
AcDbBlockEnd
  0
BLOCK
  5
F31
100
AcDbEntity
  8
0
100
AcDbBlockBegin
  2
*D1
 70
     1
 10
0.0
 20
0.0
 30
0.0
  3
*D1
  1

  0
LINE
  5
F32
100
AcDbEntity
  8
0
  6
BYBLOCK
100
AcDbLine
 10
708.125141
 20
1212.255359
 30
0.0
 11
773.518779
 21
1212.255359
 31
0.0
  0
LINE
  5
F33
100
AcDbEntity
  8
0
  6
BYBLOCK
100
AcDbLine
 10
736.125141
 20
1188.255359
 30
0.0
 11
773.518779
 21
1188.255359
 31
0.0
  0
LINE
  5
F34
100
AcDbEntity
  8
0
  6
BYBLOCK
100
AcDbLine
 10
771.018779
 20
1204.755359
 30
0.0
 11
771.018779
 21
1195.755359
 31
0.0
  0
SOLID
  5
F35
100
AcDbEntity
  8
0
  6
BYBLOCK
100
AcDbTrace
 10
769.768779
 20
1204.755359
 30
0.0
 11
772.268779
 21
1204.755359
 31
0.0
 12
771.018779
 22
1212.255359
 32
0.0
 13
771.018779
 23
1212.255359
 33
0.0
  0
SOLID
  5
F36
100
AcDbEntity
  8
0
  6
BYBLOCK
100
AcDbTrace
 10
769.768779
 20
1195.755359
 30
0.0
 11
772.268779
 21
1195.755359
 31
0.0
 12
771.018779
 22
1188.255359
 32
0.0
 13
771.018779
 23
1188.255359
 33
0.0
  0
MTEXT
  5
F37
100
AcDbEntity
  8
0
  6
BYBLOCK
 62
     1
100
AcDbMText
 10
764.768779
 20
1200.255359
 30
0.0
 40
7.5
 41
0.0
 71
     5
 72
     1
  1
\A1;24
  7
TOM
 11
0.0
 21
1.0
 31
0.0
  0
POINT
  5
F38
100
AcDbEntity
  8
DEFPOINTS
  6
BYBLOCK
 62
     0
100
AcDbPoint
 10
703.125141
 20
1212.255359
 30
0.0
  0
POINT
  5
F39
100
AcDbEntity
  8
DEFPOINTS
  6
BYBLOCK
 62
     0
100
AcDbPoint
 10
731.125141
 20
1188.255359
 30
0.0
  0
POINT
  5
F3A
100
AcDbEntity
  8
DEFPOINTS
  6
BYBLOCK
 62
     0
100
AcDbPoint
 10
771.018779
 20
1188.255359
 30
0.0
  0
ENDBLK
  5
F3B
100
AcDbEntity
  8
0
100
AcDbBlockEnd
  0
BLOCK
  5
154E
100
AcDbEntity
  8
0
100
AcDbBlockBegin
  2
*D2
 70
     1
 10
0.0
 20
0.0
 30
0.0
  3
*D2
  1

  0
LINE
  5
154F
100
AcDbEntity
  8
0
  6
BYBLOCK
100
AcDbLine
 10
405.625141
 20
1025.221107
 30
0.0
 11
405.625141
 21
1058.668159
 31
0.0
  0
LINE
  5
1550
100
AcDbEntity
  8
0
  6
BYBLOCK
100
AcDbLine
 10
420.399673
 20
1024.356224
 30
0.0
 11
420.399673
 21
1058.668159
 31
0.0
  0
LINE
  5
1551
100
AcDbEntity
  8
0
  6
BYBLOCK
100
AcDbLine
 10
398.125141
 20
1056.168159
 30
0.0
 11
390.625141
 21
1056.168159
 31
0.0
  0
LINE
  5
1552
100
AcDbEntity
  8
0
  6
BYBLOCK
100
AcDbLine
 10
427.899673
 20
1056.168159
 30
0.0
 11
435.399673
 21
1056.168159
 31
0.0
  0
LINE
  5
1553
100
AcDbEntity
  8
0
  6
BYBLOCK
100
AcDbLine
 10
405.625141
 20
1056.168159
 30
0.0
 11
420.399673
 21
1056.168159
 31
0.0
  0
SOLID
  5
1554
100
AcDbEntity
  8
0
  6
BYBLOCK
100
AcDbTrace
 10
398.125141
 20
1057.418159
 30
0.0
 11
398.125141
 21
1054.918159
 31
0.0
 12
405.625141
 22
1056.168159
 32
0.0
 13
405.625141
 23
1056.168159
 33
0.0
  0
SOLID
  5
1555
100
AcDbEntity
  8
0
  6
BYBLOCK
100
AcDbTrace
 10
427.899673
 20
1057.418159
 30
0.0
 11
427.899673
 21
1054.918159
 31
0.0
 12
420.399673
 22
1056.168159
 32
0.0
 13
420.399673
 23
1056.168159
 33
0.0
  0
MTEXT
  5
1556
100
AcDbEntity
  8
0
  6
BYBLOCK
 62
     1
100
AcDbMText
 10
413.012407
 20
1062.418159
 30
0.0
 40
7.5
 41
0.0
 71
     5
 72
     1
  1
\A1;15
  7
TOM
  0
POINT
  5
1557
100
AcDbEntity
  8
DEFPOINTS
  6
BYBLOCK
 62
     0
100
AcDbPoint
 10
405.625141
 20
1020.221107
 30
0.0
  0
POINT
  5
1558
100
AcDbEntity
  8
DEFPOINTS
  6
BYBLOCK
 62
     0
100
AcDbPoint
 10
420.399673
 20
1019.356224
 30
0.0
  0
POINT
  5
1559
100
AcDbEntity
  8
DEFPOINTS
  6
BYBLOCK
 62
     0
100
AcDbPoint
 10
420.399673
 20
1056.168159
 30
0.0
  0
ENDBLK
  5
155A
100
AcDbEntity
  8
0
100
AcDbBlockEnd
  0
BLOCK
  5
1204
100
AcDbEntity
  8
0
100
AcDbBlockBegin
  2
_DOTSMALL
 70
     0
 10
0.0
 20
0.0
 30
0.0
  3
_DOTSMALL
  1

  0
POLYLINE
  5
1205
100
AcDbEntity
  8
0
  6
BYBLOCK
 62
     0
100
AcDb2dPolyline
 66
     1
 10
0.0
 20
0.0
 30
0.0
 70
     1
 40
0.5
 41
0.5
  0
VERTEX
  5
1206
100
AcDbEntity
  8
0
  6
BYBLOCK
 62
     0
100
AcDbVertex
100
AcDb2dVertex
 10
-0.0625
 20
0.0
 30
0.0
 42
1.0
  0
VERTEX
  5
1207
100
AcDbEntity
  8
0
  6
BYBLOCK
 62
     0
100
AcDbVertex
100
AcDb2dVertex
 10
0.0625
 20
0.0
 30
0.0
 42
1.0
  0
SEQEND
  5
1208
100
AcDbEntity
  8
0
  6
BYBLOCK
 62
     0
  0
ENDBLK
  5
1209
100
AcDbEntity
  8
0
100
AcDbBlockEnd
  0
BLOCK
  5
129A
100
AcDbEntity
  8
0
100
AcDbBlockBegin
  2
*D4
 70
     1
 10
0.0
 20
0.0
 30
0.0
  3
*D4
  1

  0
LINE
  5
129B
100
AcDbEntity
  8
0
  6
BYBLOCK
100
AcDbLine
 10
736.125141
 20
1188.255359
 30
0.0
 11
756.296737
 21
1188.255359
 31
0.0
  0
LINE
  5
129C
100
AcDbEntity
  8
0
  6
BYBLOCK
100
AcDbLine
 10
708.125141
 20
1198.255359
 30
0.0
 11
756.296737
 21
1198.255359
 31
0.0
  0
LINE
  5
129D
100
AcDbEntity
  8
0
  6
BYBLOCK
100
AcDbLine
 10
753.796737
 20
1180.755359
 30
0.0
 11
753.796737
 21
1173.255359
 31
0.0
  0
LINE
  5
129E
100
AcDbEntity
  8
0
  6
BYBLOCK
100
AcDbLine
 10
753.796737
 20
1198.255359
 30
0.0
 11
753.796737
 21
1205.755359
 31
0.0
  0
MTEXT
  5
129F
100
AcDbEntity
  8
0
  6
BYBLOCK
 62
     1
100
AcDbMText
 10
746.017226
 20
1180.164906
 30
0.0
 40
7.5
 41
0.0
 71
     5
 72
     1
  1
\A1;10
  7
TOM
 11
0.0
 21
1.0
 31
0.0
  0
LINE
  5
12A0
100
AcDbEntity
  8
0
  6
BYBLOCK
100
AcDbLine
 10
753.796737
 20
1188.255359
 30
0.0
 11
753.796737
 21
1198.255359
 31
0.0
  0
LINE
  5
12A1
100
AcDbEntity
  8
0
  6
BYBLOCK
100
AcDbLine
 10
753.796737
 20
1188.255359
 30
0.0
 11
753.796737
 21
1198.255359
 31
0.0
  0
SOLID
  5
12A2
100
AcDbEntity
  8
0
  6
BYBLOCK
100
AcDbTrace
 10
752.546737
 20
1180.755359
 30
0.0
 11
755.046737
 21
1180.755359
 31
0.0
 12
753.796737
 22
1188.255359
 32
0.0
 13
753.796737
 23
1188.255359
 33
0.0
  0
INSERT
  5
12A3
100
AcDbEntity
  8
0
  6
BYBLOCK
100
AcDbBlockReference
  2
_DOTSMALL
 10
753.796737
 20
1198.255359
 30
0.0
 41
7.5
 42
7.5
 43
7.5
 50
270.0
  0
POINT
  5
12A4
100
AcDbEntity
  8
DEFPOINTS
  6
BYBLOCK
 62
     0
100
AcDbPoint
 10
731.125141
 20
1188.255359
 30
0.0
  0
POINT
  5
12A5
100
AcDbEntity
  8
DEFPOINTS
  6
BYBLOCK
 62
     0
100
AcDbPoint
 10
703.125141
 20
1198.255359
 30
0.0
  0
POINT
  5
12A6
100
AcDbEntity
  8
DEFPOINTS
  6
BYBLOCK
 62
     0
100
AcDbPoint
 10
753.796737
 20
1198.255359
 30
0.0
  0
ENDBLK
  5
12A7
100
AcDbEntity
  8
0
100
AcDbBlockEnd
  0
BLOCK
  5
12A9
100
AcDbEntity
  8
0
100
AcDbBlockBegin
  2
*D5
 70
     1
 10
0.0
 20
0.0
 30
0.0
  3
*D5
  1

  0
LINE
  5
12AA
100
AcDbEntity
  8
0
  6
BYBLOCK
100
AcDbLine
 10
708.125141
 20
1198.255359
 30
0.0
 11
756.296737
 21
1198.255359
 31
0.0
  0
LINE
  5
12AB
100
AcDbEntity
  8
0
  6
BYBLOCK
100
AcDbLine
 10
713.125141
 20
1212.255359
 30
0.0
 11
756.296737
 21
1212.255359
 31
0.0
  0
LINE
  5
12AC
100
AcDbEntity
  8
0
  6
BYBLOCK
100
AcDbLine
 10
753.796737
 20
1193.255359
 30
0.0
 11
753.796737
 21
1204.755359
 31
0.0
  0
MTEXT
  5
12AD
100
AcDbEntity
  8
0
  6
BYBLOCK
 62
     1
100
AcDbMText
 10
745.486804
 20
1205.255359
 30
0.0
 40
7.5
 41
0.0
 71
     5
 72
     1
  1
\A1;14
  7
TOM
 11
0.0
 21
1.0
 31
0.0
  0
INSERT
  5
12AE
100
AcDbEntity
  8
0
  6
BYBLOCK
100
AcDbBlockReference
  2
_DOTSMALL
 10
753.796737
 20
1198.255359
 30
0.0
 41
7.5
 42
7.5
 43
7.5
 50
270.0
  0
SOLID
  5
12AF
100
AcDbEntity
  8
0
  6
BYBLOCK
100
AcDbTrace
 10
752.546737
 20
1204.755359
 30
0.0
 11
755.046737
 21
1204.755359
 31
0.0
 12
753.796737
 22
1212.255359
 32
0.0
 13
753.796737
 23
1212.255359
 33
0.0
  0
POINT
  5
12B0
100
AcDbEntity
  8
DEFPOINTS
  6
BYBLOCK
 62
     0
100
AcDbPoint
 10
703.125141
 20
1198.255359
 30
0.0
  0
POINT
  5
12B1
100
AcDbEntity
  8
DEFPOINTS
  6
BYBLOCK
 62
     0
100
AcDbPoint
 10
708.125141
 20
1212.255359
 30
0.0
  0
POINT
  5
12B2
100
AcDbEntity
  8
DEFPOINTS
  6
BYBLOCK
 62
     0
100
AcDbPoint
 10
753.796737
 20
1212.255359
 30
0.0
  0
ENDBLK
  5
12B3
100
AcDbEntity
  8
0
100
AcDbBlockEnd
  0
BLOCK
  5
151E
100
AcDbEntity
  8
0
100
AcDbBlockBegin
  2
*D6
 70
     1
 10
0.0
 20
0.0
 30
0.0
  3
*D6
  1

  0
LINE
  5
151F
100
AcDbEntity
  8
0
  6
BYBLOCK
100
AcDbLine
 10
427.899673
 20
1035.056711
 30
0.0
 11
376.948079
 21
1035.056711
 31
0.0
  0
LINE
  5
1520
100
AcDbEntity
  8
0
  6
BYBLOCK
100
AcDbLine
 10
404.882891
 20
1020.056711
 30
0.0
 11
376.948079
 21
1020.056711
 31
0.0
  0
LINE
  5
1521
100
AcDbEntity
  8
0
  6
BYBLOCK
100
AcDbLine
 10
379.448079
 20
1027.556711
 30
0.0
 11
379.448079
 21
1015.056711
 31
0.0
  0
SOLID
  5
1522
100
AcDbEntity
  8
0
  6
BYBLOCK
100
AcDbTrace
 10
378.198079
 20
1027.556711
 30
0.0
 11
380.698079
 21
1027.556711
 31
0.0
 12
379.448079
 22
1035.056711
 32
0.0
 13
379.448079
 23
1035.056711
 33
0.0
  0
INSERT
  5
1523
100
AcDbEntity
  8
0
  6
BYBLOCK
100
AcDbBlockReference
  2
_DOTSMALL
 10
379.448079
 20
1020.056711
 30
0.0
 41
7.5
 42
7.5
 43
7.5
 50
270.0
  0
MTEXT
  5
1524
100
AcDbEntity
  8
0
  6
BYBLOCK
 62
     1
100
AcDbMText
 10
373.198079
 20
1023.806711
 30
0.0
 40
7.5
 41
0.0
 71
     5
 72
     1
  1
\A1;15
  7
TOM
 11
0.0
 21
1.0
 31
0.0
  0
POINT
  5
1525
100
AcDbEntity
  8
DEFPOINTS
  6
BYBLOCK
 62
     0
100
AcDbPoint
 10
432.899673
 20
1035.056711
 30
0.0
  0
POINT
  5
1526
100
AcDbEntity
  8
DEFPOINTS
  6
BYBLOCK
 62
     0
100
AcDbPoint
 10
409.882891
 20
1020.056711
 30
0.0
  0
POINT
  5
1527
100
AcDbEntity
  8
DEFPOINTS
  6
BYBLOCK
 62
     0
100
AcDbPoint
 10
379.448079
 20
1020.056711
 30
0.0
  0
ENDBLK
  5
1528
100
AcDbEntity
  8
0
100
AcDbBlockEnd
  0
BLOCK
  5
1510
100
AcDbEntity
  8
0
100
AcDbBlockBegin
  2
*D7
 70
     1
 10
0.0
 20
0.0
 30
0.0
  3
*D7
  1

  0
LINE
  5
1511
100
AcDbEntity
  8
0
  6
BYBLOCK
100
AcDbLine
 10
404.882891
 20
1020.056711
 30
0.0
 11
376.948079
 21
1020.056711
 31
0.0
  0
LINE
  5
1512
100
AcDbEntity
  8
0
  6
BYBLOCK
100
AcDbLine
 10
393.625141
 20
1012.056711
 30
0.0
 11
376.948079
 21
1012.056711
 31
0.0
  0
LINE
  5
1513
100
AcDbEntity
  8
0
  6
BYBLOCK
100
AcDbLine
 10
379.448079
 20
1020.056711
 30
0.0
 11
379.448079
 21
1027.556711
 31
0.0
  0
LINE
  5
1514
100
AcDbEntity
  8
0
  6
BYBLOCK
100
AcDbLine
 10
379.448079
 20
1004.556711
 30
0.0
 11
379.448079
 21
997.056711
 31
0.0
  0
MTEXT
  5
1515
100
AcDbEntity
  8
0
  6
BYBLOCK
 62
     1
100
AcDbMText
 10
372.238645
 20
1007.017497
 30
0.0
 40
7.5
 41
0.0
 71
     5
 72
     1
  1
\A1;8
  7
TOM
 11
0.0
 21
1.0
 31
0.0
  0
LINE
  5
1516
100
AcDbEntity
  8
0
  6
BYBLOCK
100
AcDbLine
 10
379.448079
 20
1020.056711
 30
0.0
 11
379.448079
 21
1012.056711
 31
0.0
  0
LINE
  5
1517
100
AcDbEntity
  8
0
  6
BYBLOCK
100
AcDbLine
 10
379.448079
 20
1020.056711
 30
0.0
 11
379.448079
 21
1012.056711
 31
0.0
  0
INSERT
  5
1518
100
AcDbEntity
  8
0
  6
BYBLOCK
100
AcDbBlockReference
  2
_DOTSMALL
 10
379.448079
 20
1020.056711
 30
0.0
 41
7.5
 42
7.5
 43
7.5
 50
270.0
  0
SOLID
  5
1519
100
AcDbEntity
  8
0
  6
BYBLOCK
100
AcDbTrace
 10
378.198079
 20
1004.556711
 30
0.0
 11
380.698079
 21
1004.556711
 31
0.0
 12
379.448079
 22
1012.056711
 32
0.0
 13
379.448079
 23
1012.056711
 33
0.0
  0
POINT
  5
151A
100
AcDbEntity
  8
DEFPOINTS
  6
BYBLOCK
 62
     0
100
AcDbPoint
 10
409.882891
 20
1020.056711
 30
0.0
  0
POINT
  5
151B
100
AcDbEntity
  8
DEFPOINTS
  6
BYBLOCK
 62
     0
100
AcDbPoint
 10
398.625141
 20
1012.056711
 30
0.0
  0
POINT
  5
151C
100
AcDbEntity
  8
DEFPOINTS
  6
BYBLOCK
 62
     0
100
AcDbPoint
 10
379.448079
 20
1012.056711
 30
0.0
  0
ENDBLK
  5
151D
100
AcDbEntity
  8
0
100
AcDbBlockEnd
  0
BLOCK
  5
1672
100
AcDbEntity
  8
0
100
AcDbBlockBegin
  2
*D8
 70
     1
 10
0.0
 20
0.0
 30
0.0
  3
*D8
  1

  0
LINE
  5
1673
100
AcDbEntity
  8
0
  6
BYBLOCK
100
AcDbLine
 10
405.625141
 20
1039.333751
 30
0.0
 11
405.625141
 21
1083.304499
 31
0.0
  0
LINE
  5
1674
100
AcDbEntity
  8
0
  6
BYBLOCK
100
AcDbLine
 10
605.696023
 20
1040.751448
 30
0.0
 11
605.696023
 21
1083.304499
 31
0.0
  0
LINE
  5
1675
100
AcDbEntity
  8
0
  6
BYBLOCK
100
AcDbLine
 10
413.125141
 20
1080.804499
 30
0.0
 11
598.196023
 21
1080.804499
 31
0.0
  0
SOLID
  5
1676
100
AcDbEntity
  8
0
  6
BYBLOCK
100
AcDbTrace
 10
413.125141
 20
1082.054499
 30
0.0
 11
413.125141
 21
1079.554499
 31
0.0
 12
405.625141
 22
1080.804499
 32
0.0
 13
405.625141
 23
1080.804499
 33
0.0
  0
SOLID
  5
1677
100
AcDbEntity
  8
0
  6
BYBLOCK
100
AcDbTrace
 10
598.196023
 20
1082.054499
 30
0.0
 11
598.196023
 21
1079.554499
 31
0.0
 12
605.696023
 22
1080.804499
 32
0.0
 13
605.696023
 23
1080.804499
 33
0.0
  0
MTEXT
  5
1678
100
AcDbEntity
  8
0
  6
BYBLOCK
 62
     1
100
AcDbMText
 10
505.660582
 20
1087.054499
 30
0.0
 40
7.5
 41
0.0
 71
     5
 72
     1
  1
\A1;200
  7
TOM
  0
POINT
  5
1679
100
AcDbEntity
  8
DEFPOINTS
  6
BYBLOCK
 62
     0
100
AcDbPoint
 10
405.625141
 20
1034.333751
 30
0.0
  0
POINT
  5
167A
100
AcDbEntity
  8
DEFPOINTS
  6
BYBLOCK
 62
     0
100
AcDbPoint
 10
605.696023
 20
1035.751448
 30
0.0
  0
POINT
  5
167B
100
AcDbEntity
  8
DEFPOINTS
  6
BYBLOCK
 62
     0
100
AcDbPoint
 10
605.696023
 20
1080.804499
 30
0.0
  0
ENDBLK
  5
167C
100
AcDbEntity
  8
0
100
AcDbBlockEnd
  0
BLOCK
  5
1565
100
AcDbEntity
  8
0
100
AcDbBlockBegin
  2
*D9
 70
     1
 10
0.0
 20
0.0
 30
0.0
  3
*D9
  1

  0
LINE
  5
1566
100
AcDbEntity
  8
0
  6
BYBLOCK
100
AcDbLine
 10
405.625141
 20
1025.221107
 30
0.0
 11
405.625141
 21
1058.668159
 31
0.0
  0
LINE
  5
1567
100
AcDbEntity
  8
0
  6
BYBLOCK
100
AcDbLine
 10
420.399673
 20
1024.356224
 30
0.0
 11
420.399673
 21
1058.668159
 31
0.0
  0
LINE
  5
1568
100
AcDbEntity
  8
0
  6
BYBLOCK
100
AcDbLine
 10
398.125141
 20
1056.168159
 30
0.0
 11
390.625141
 21
1056.168159
 31
0.0
  0
LINE
  5
1569
100
AcDbEntity
  8
0
  6
BYBLOCK
100
AcDbLine
 10
427.899673
 20
1056.168159
 30
0.0
 11
435.399673
 21
1056.168159
 31
0.0
  0
LINE
  5
156A
100
AcDbEntity
  8
0
  6
BYBLOCK
100
AcDbLine
 10
405.625141
 20
1056.168159
 30
0.0
 11
420.399673
 21
1056.168159
 31
0.0
  0
SOLID
  5
156B
100
AcDbEntity
  8
0
  6
BYBLOCK
100
AcDbTrace
 10
398.125141
 20
1057.418159
 30
0.0
 11
398.125141
 21
1054.918159
 31
0.0
 12
405.625141
 22
1056.168159
 32
0.0
 13
405.625141
 23
1056.168159
 33
0.0
  0
SOLID
  5
156C
100
AcDbEntity
  8
0
  6
BYBLOCK
100
AcDbTrace
 10
427.899673
 20
1057.418159
 30
0.0
 11
427.899673
 21
1054.918159
 31
0.0
 12
420.399673
 22
1056.168159
 32
0.0
 13
420.399673
 23
1056.168159
 33
0.0
  0
MTEXT
  5
156D
100
AcDbEntity
  8
0
  6
BYBLOCK
 62
     1
100
AcDbMText
 10
413.012407
 20
1062.418159
 30
0.0
 40
7.5
 41
0.0
 71
     5
 72
     1
  1
\A1;15
  7
TOM
  0
POINT
  5
156E
100
AcDbEntity
  8
DEFPOINTS
  6
BYBLOCK
 62
     0
100
AcDbPoint
 10
405.625141
 20
1020.221107
 30
0.0
  0
POINT
  5
156F
100
AcDbEntity
  8
DEFPOINTS
  6
BYBLOCK
 62
     0
100
AcDbPoint
 10
420.399673
 20
1019.356224
 30
0.0
  0
POINT
  5
1570
100
AcDbEntity
  8
DEFPOINTS
  6
BYBLOCK
 62
     0
100
AcDbPoint
 10
420.399673
 20
1056.168159
 30
0.0
  0
ENDBLK
  5
1571
100
AcDbEntity
  8
0
100
AcDbBlockEnd
  0
BLOCK
  5
1573
100
AcDbEntity
  8
0
100
AcDbBlockBegin
  2
*D10
 70
     1
 10
0.0
 20
0.0
 30
0.0
  3
*D10
  1

  0
LINE
  5
1574
100
AcDbEntity
  8
0
  6
BYBLOCK
100
AcDbLine
 10
731.125141
 20
1016.056711
 30
0.0
 11
731.125141
 21
1083.304499
 31
0.0
  0
LINE
  5
1575
100
AcDbEntity
  8
0
  6
BYBLOCK
100
AcDbLine
 10
705.696023
 20
1036.474408
 30
0.0
 11
705.696023
 21
1083.304499
 31
0.0
  0
LINE
  5
1576
100
AcDbEntity
  8
0
  6
BYBLOCK
100
AcDbLine
 10
723.625141
 20
1080.804499
 30
0.0
 11
713.196023
 21
1080.804499
 31
0.0
  0
SOLID
  5
1577
100
AcDbEntity
  8
0
  6
BYBLOCK
100
AcDbTrace
 10
723.625141
 20
1082.054499
 30
0.0
 11
723.625141
 21
1079.554499
 31
0.0
 12
731.125141
 22
1080.804499
 32
0.0
 13
731.125141
 23
1080.804499
 33
0.0
  0
SOLID
  5
1578
100
AcDbEntity
  8
0
  6
BYBLOCK
100
AcDbTrace
 10
713.196023
 20
1082.054499
 30
0.0
 11
713.196023
 21
1079.554499
 31
0.0
 12
705.696023
 22
1080.804499
 32
0.0
 13
705.696023
 23
1080.804499
 33
0.0
  0
MTEXT
  5
1579
100
AcDbEntity
  8
0
  6
BYBLOCK
 62
     1
100
AcDbMText
 10
718.410582
 20
1087.054499
 30
0.0
 40
7.5
 41
0.0
 71
     5
 72
     1
  1
\A1;25
  7
TOM
  0
POINT
  5
157A
100
AcDbEntity
  8
DEFPOINTS
  6
BYBLOCK
 62
     0
100
AcDbPoint
 10
731.125141
 20
1011.056711
 30
0.0
  0
POINT
  5
157B
100
AcDbEntity
  8
DEFPOINTS
  6
BYBLOCK
 62
     0
100
AcDbPoint
 10
705.696023
 20
1031.474408
 30
0.0
  0
POINT
  5
157C
100
AcDbEntity
  8
DEFPOINTS
  6
BYBLOCK
 62
     0
100
AcDbPoint
 10
705.696023
 20
1080.804499
 30
0.0
  0
ENDBLK
  5
157D
100
AcDbEntity
  8
0
100
AcDbBlockEnd
  0
BLOCK
  5
157F
100
AcDbEntity
  8
0
100
AcDbBlockBegin
  2
*D11
 70
     1
 10
0.0
 20
0.0
 30
0.0
  3
*D11
  1

  0
LINE
  5
1580
100
AcDbEntity
  8
0
  6
BYBLOCK
100
AcDbLine
 10
708.125141
 20
1035.056711
 30
0.0
 11
773.518779
 21
1035.056711
 31
0.0
  0
LINE
  5
1581
100
AcDbEntity
  8
0
  6
BYBLOCK
100
AcDbLine
 10
736.125141
 20
1011.056711
 30
0.0
 11
773.518779
 21
1011.056711
 31
0.0
  0
LINE
  5
1582
100
AcDbEntity
  8
0
  6
BYBLOCK
100
AcDbLine
 10
771.018779
 20
1027.556711
 30
0.0
 11
771.018779
 21
1018.556711
 31
0.0
  0
SOLID
  5
1583
100
AcDbEntity
  8
0
  6
BYBLOCK
100
AcDbTrace
 10
769.768779
 20
1027.556711
 30
0.0
 11
772.268779
 21
1027.556711
 31
0.0
 12
771.018779
 22
1035.056711
 32
0.0
 13
771.018779
 23
1035.056711
 33
0.0
  0
SOLID
  5
1584
100
AcDbEntity
  8
0
  6
BYBLOCK
100
AcDbTrace
 10
769.768779
 20
1018.556711
 30
0.0
 11
772.268779
 21
1018.556711
 31
0.0
 12
771.018779
 22
1011.056711
 32
0.0
 13
771.018779
 23
1011.056711
 33
0.0
  0
MTEXT
  5
1585
100
AcDbEntity
  8
0
  6
BYBLOCK
 62
     1
100
AcDbMText
 10
764.768779
 20
1023.056711
 30
0.0
 40
7.5
 41
0.0
 71
     5
 72
     1
  1
\A1;24
  7
TOM
 11
0.0
 21
1.0
 31
0.0
  0
POINT
  5
1586
100
AcDbEntity
  8
DEFPOINTS
  6
BYBLOCK
 62
     0
100
AcDbPoint
 10
703.125141
 20
1035.056711
 30
0.0
  0
POINT
  5
1587
100
AcDbEntity
  8
DEFPOINTS
  6
BYBLOCK
 62
     0
100
AcDbPoint
 10
731.125141
 20
1011.056711
 30
0.0
  0
POINT
  5
1588
100
AcDbEntity
  8
DEFPOINTS
  6
BYBLOCK
 62
     0
100
AcDbPoint
 10
771.018779
 20
1011.056711
 30
0.0
  0
ENDBLK
  5
1589
100
AcDbEntity
  8
0
100
AcDbBlockEnd
  0
BLOCK
  5
158B
100
AcDbEntity
  8
0
100
AcDbBlockBegin
  2
*D12
 70
     1
 10
0.0
 20
0.0
 30
0.0
  3
*D12
  1

  0
LINE
  5
158C
100
AcDbEntity
  8
0
  6
BYBLOCK
100
AcDbLine
 10
708.125141
 20
1021.056711
 30
0.0
 11
756.296737
 21
1021.056711
 31
0.0
  0
LINE
  5
158D
100
AcDbEntity
  8
0
  6
BYBLOCK
100
AcDbLine
 10
713.125141
 20
1035.056711
 30
0.0
 11
756.296737
 21
1035.056711
 31
0.0
  0
LINE
  5
158E
100
AcDbEntity
  8
0
  6
BYBLOCK
100
AcDbLine
 10
753.796737
 20
1016.056711
 30
0.0
 11
753.796737
 21
1027.556711
 31
0.0
  0
MTEXT
  5
158F
100
AcDbEntity
  8
0
  6
BYBLOCK
 62
     1
100
AcDbMText
 10
745.486804
 20
1028.056711
 30
0.0
 40
7.5
 41
0.0
 71
     5
 72
     1
  1
\A1;14
  7
TOM
 11
0.0
 21
1.0
 31
0.0
  0
INSERT
  5
1590
100
AcDbEntity
  8
0
  6
BYBLOCK
100
AcDbBlockReference
  2
_DOTSMALL
 10
753.796737
 20
1021.056711
 30
0.0
 41
7.5
 42
7.5
 43
7.5
 50
270.0
  0
SOLID
  5
1591
100
AcDbEntity
  8
0
  6
BYBLOCK
100
AcDbTrace
 10
752.546737
 20
1027.556711
 30
0.0
 11
755.046737
 21
1027.556711
 31
0.0
 12
753.796737
 22
1035.056711
 32
0.0
 13
753.796737
 23
1035.056711
 33
0.0
  0
POINT
  5
1592
100
AcDbEntity
  8
DEFPOINTS
  6
BYBLOCK
 62
     0
100
AcDbPoint
 10
703.125141
 20
1021.056711
 30
0.0
  0
POINT
  5
1593
100
AcDbEntity
  8
DEFPOINTS
  6
BYBLOCK
 62
     0
100
AcDbPoint
 10
708.125141
 20
1035.056711
 30
0.0
  0
POINT
  5
1594
100
AcDbEntity
  8
DEFPOINTS
  6
BYBLOCK
 62
     0
100
AcDbPoint
 10
753.796737
 20
1035.056711
 30
0.0
  0
ENDBLK
  5
1595
100
AcDbEntity
  8
0
100
AcDbBlockEnd
  0
BLOCK
  5
1597
100
AcDbEntity
  8
0
100
AcDbBlockBegin
  2
*D13
 70
     1
 10
0.0
 20
0.0
 30
0.0
  3
*D13
  1

  0
LINE
  5
1598
100
AcDbEntity
  8
0
  6
BYBLOCK
100
AcDbLine
 10
736.125141
 20
1011.056711
 30
0.0
 11
756.296737
 21
1011.056711
 31
0.0
  0
LINE
  5
1599
100
AcDbEntity
  8
0
  6
BYBLOCK
100
AcDbLine
 10
708.125141
 20
1021.056711
 30
0.0
 11
756.296737
 21
1021.056711
 31
0.0
  0
LINE
  5
159A
100
AcDbEntity
  8
0
  6
BYBLOCK
100
AcDbLine
 10
753.796737
 20
1003.556711
 30
0.0
 11
753.796737
 21
996.056711
 31
0.0
  0
LINE
  5
159B
100
AcDbEntity
  8
0
  6
BYBLOCK
100
AcDbLine
 10
753.796737
 20
1021.056711
 30
0.0
 11
753.796737
 21
1028.556711
 31
0.0
  0
MTEXT
  5
159C
100
AcDbEntity
  8
0
  6
BYBLOCK
 62
     1
100
AcDbMText
 10
746.017226
 20
1002.966259
 30
0.0
 40
7.5
 41
0.0
 71
     5
 72
     1
  1
\A1;10
  7
TOM
 11
0.0
 21
1.0
 31
0.0
  0
LINE
  5
159D
100
AcDbEntity
  8
0
  6
BYBLOCK
100
AcDbLine
 10
753.796737
 20
1011.056711
 30
0.0
 11
753.796737
 21
1021.056711
 31
0.0
  0
LINE
  5
159E
100
AcDbEntity
  8
0
  6
BYBLOCK
100
AcDbLine
 10
753.796737
 20
1011.056711
 30
0.0
 11
753.796737
 21
1021.056711
 31
0.0
  0
SOLID
  5
159F
100
AcDbEntity
  8
0
  6
BYBLOCK
100
AcDbTrace
 10
752.546737
 20
1003.556711
 30
0.0
 11
755.046737
 21
1003.556711
 31
0.0
 12
753.796737
 22
1011.056711
 32
0.0
 13
753.796737
 23
1011.056711
 33
0.0
  0
INSERT
  5
15A0
100
AcDbEntity
  8
0
  6
BYBLOCK
100
AcDbBlockReference
  2
_DOTSMALL
 10
753.796737
 20
1021.056711
 30
0.0
 41
7.5
 42
7.5
 43
7.5
 50
270.0
  0
POINT
  5
15A1
100
AcDbEntity
  8
DEFPOINTS
  6
BYBLOCK
 62
     0
100
AcDbPoint
 10
731.125141
 20
1011.056711
 30
0.0
  0
POINT
  5
15A2
100
AcDbEntity
  8
DEFPOINTS
  6
BYBLOCK
 62
     0
100
AcDbPoint
 10
703.125141
 20
1021.056711
 30
0.0
  0
POINT
  5
15A3
100
AcDbEntity
  8
DEFPOINTS
  6
BYBLOCK
 62
     0
100
AcDbPoint
 10
753.796737
 20
1021.056711
 30
0.0
  0
ENDBLK
  5
15A4
100
AcDbEntity
  8
0
100
AcDbBlockEnd
  0
BLOCK
  5
15A6
100
AcDbEntity
  8
0
100
AcDbBlockBegin
  2
*D14
 70
     1
 10
0.0
 20
0.0
 30
0.0
  3
*D14
  1

  0
LINE
  5
15A7
100
AcDbEntity
  8
0
  6
BYBLOCK
100
AcDbLine
 10
404.882891
 20
1020.056711
 30
0.0
 11
376.948079
 21
1020.056711
 31
0.0
  0
LINE
  5
15A8
100
AcDbEntity
  8
0
  6
BYBLOCK
100
AcDbLine
 10
393.625141
 20
1012.056711
 30
0.0
 11
376.948079
 21
1012.056711
 31
0.0
  0
LINE
  5
15A9
100
AcDbEntity
  8
0
  6
BYBLOCK
100
AcDbLine
 10
379.448079
 20
1020.056711
 30
0.0
 11
379.448079
 21
1027.556711
 31
0.0
  0
LINE
  5
15AA
100
AcDbEntity
  8
0
  6
BYBLOCK
100
AcDbLine
 10
379.448079
 20
1004.556711
 30
0.0
 11
379.448079
 21
997.056711
 31
0.0
  0
MTEXT
  5
15AB
100
AcDbEntity
  8
0
  6
BYBLOCK
 62
     1
100
AcDbMText
 10
372.238645
 20
1007.017497
 30
0.0
 40
7.5
 41
0.0
 71
     5
 72
     1
  1
\A1;8
  7
TOM
 11
0.0
 21
1.0
 31
0.0
  0
LINE
  5
15AC
100
AcDbEntity
  8
0
  6
BYBLOCK
100
AcDbLine
 10
379.448079
 20
1020.056711
 30
0.0
 11
379.448079
 21
1012.056711
 31
0.0
  0
LINE
  5
15AD
100
AcDbEntity
  8
0
  6
BYBLOCK
100
AcDbLine
 10
379.448079
 20
1020.056711
 30
0.0
 11
379.448079
 21
1012.056711
 31
0.0
  0
INSERT
  5
15AE
100
AcDbEntity
  8
0
  6
BYBLOCK
100
AcDbBlockReference
  2
_DOTSMALL
 10
379.448079
 20
1020.056711
 30
0.0
 41
7.5
 42
7.5
 43
7.5
 50
270.0
  0
SOLID
  5
15AF
100
AcDbEntity
  8
0
  6
BYBLOCK
100
AcDbTrace
 10
378.198079
 20
1004.556711
 30
0.0
 11
380.698079
 21
1004.556711
 31
0.0
 12
379.448079
 22
1012.056711
 32
0.0
 13
379.448079
 23
1012.056711
 33
0.0
  0
POINT
  5
15B0
100
AcDbEntity
  8
DEFPOINTS
  6
BYBLOCK
 62
     0
100
AcDbPoint
 10
409.882891
 20
1020.056711
 30
0.0
  0
POINT
  5
15B1
100
AcDbEntity
  8
DEFPOINTS
  6
BYBLOCK
 62
     0
100
AcDbPoint
 10
398.625141
 20
1012.056711
 30
0.0
  0
POINT
  5
15B2
100
AcDbEntity
  8
DEFPOINTS
  6
BYBLOCK
 62
     0
100
AcDbPoint
 10
379.448079
 20
1012.056711
 30
0.0
  0
ENDBLK
  5
15B3
100
AcDbEntity
  8
0
100
AcDbBlockEnd
  0
BLOCK
  5
15B5
100
AcDbEntity
  8
0
100
AcDbBlockBegin
  2
*D15
 70
     1
 10
0.0
 20
0.0
 30
0.0
  3
*D15
  1

  0
LINE
  5
15B6
100
AcDbEntity
  8
0
  6
BYBLOCK
100
AcDbLine
 10
427.899673
 20
1035.056711
 30
0.0
 11
376.948079
 21
1035.056711
 31
0.0
  0
LINE
  5
15B7
100
AcDbEntity
  8
0
  6
BYBLOCK
100
AcDbLine
 10
404.882891
 20
1020.056711
 30
0.0
 11
376.948079
 21
1020.056711
 31
0.0
  0
LINE
  5
15B8
100
AcDbEntity
  8
0
  6
BYBLOCK
100
AcDbLine
 10
379.448079
 20
1027.556711
 30
0.0
 11
379.448079
 21
1015.056711
 31
0.0
  0
SOLID
  5
15B9
100
AcDbEntity
  8
0
  6
BYBLOCK
100
AcDbTrace
 10
378.198079
 20
1027.556711
 30
0.0
 11
380.698079
 21
1027.556711
 31
0.0
 12
379.448079
 22
1035.056711
 32
0.0
 13
379.448079
 23
1035.056711
 33
0.0
  0
INSERT
  5
15BA
100
AcDbEntity
  8
0
  6
BYBLOCK
100
AcDbBlockReference
  2
_DOTSMALL
 10
379.448079
 20
1020.056711
 30
0.0
 41
7.5
 42
7.5
 43
7.5
 50
270.0
  0
MTEXT
  5
15BB
100
AcDbEntity
  8
0
  6
BYBLOCK
 62
     1
100
AcDbMText
 10
373.198079
 20
1023.806711
 30
0.0
 40
7.5
 41
0.0
 71
     5
 72
     1
  1
\A1;15
  7
TOM
 11
0.0
 21
1.0
 31
0.0
  0
POINT
  5
15BC
100
AcDbEntity
  8
DEFPOINTS
  6
BYBLOCK
 62
     0
100
AcDbPoint
 10
432.899673
 20
1035.056711
 30
0.0
  0
POINT
  5
15BD
100
AcDbEntity
  8
DEFPOINTS
  6
BYBLOCK
 62
     0
100
AcDbPoint
 10
409.882891
 20
1020.056711
 30
0.0
  0
POINT
  5
15BE
100
AcDbEntity
  8
DEFPOINTS
  6
BYBLOCK
 62
     0
100
AcDbPoint
 10
379.448079
 20
1020.056711
 30
0.0
  0
ENDBLK
  5
15BF
100
AcDbEntity
  8
0
100
AcDbBlockEnd
  0
BLOCK
  5
164C
100
AcDbEntity
  8
0
100
AcDbBlockBegin
  2
*D16
 70
     1
 10
0.0
 20
0.0
 30
0.0
  3
*D16
  1

  0
LINE
  5
164D
100
AcDbEntity
  8
0
  6
BYBLOCK
100
AcDbLine
 10
405.625141
 20
904.970652
 30
0.0
 11
405.625141
 21
948.9414
 31
0.0
  0
LINE
  5
164E
100
AcDbEntity
  8
0
  6
BYBLOCK
100
AcDbLine
 10
655.696023
 20
906.388349
 30
0.0
 11
655.696023
 21
948.9414
 31
0.0
  0
LINE
  5
164F
100
AcDbEntity
  8
0
  6
BYBLOCK
100
AcDbLine
 10
413.125141
 20
946.4414
 30
0.0
 11
648.196023
 21
946.4414
 31
0.0
  0
SOLID
  5
1650
100
AcDbEntity
  8
0
  6
BYBLOCK
100
AcDbTrace
 10
413.125141
 20
947.6914
 30
0.0
 11
413.125141
 21
945.1914
 31
0.0
 12
405.625141
 22
946.4414
 32
0.0
 13
405.625141
 23
946.4414
 33
0.0
  0
SOLID
  5
1651
100
AcDbEntity
  8
0
  6
BYBLOCK
100
AcDbTrace
 10
648.196023
 20
947.6914
 30
0.0
 11
648.196023
 21
945.1914
 31
0.0
 12
655.696023
 22
946.4414
 32
0.0
 13
655.696023
 23
946.4414
 33
0.0
  0
MTEXT
  5
1652
100
AcDbEntity
  8
0
  6
BYBLOCK
 62
     1
100
AcDbMText
 10
530.660582
 20
952.6914
 30
0.0
 40
7.5
 41
0.0
 71
     5
 72
     1
  1
\A1;250
  7
TOM
  0
POINT
  5
1653
100
AcDbEntity
  8
DEFPOINTS
  6
BYBLOCK
 62
     0
100
AcDbPoint
 10
405.625141
 20
899.970652
 30
0.0
  0
POINT
  5
1654
100
AcDbEntity
  8
DEFPOINTS
  6
BYBLOCK
 62
     0
100
AcDbPoint
 10
655.696023
 20
901.388349
 30
0.0
  0
POINT
  5
1655
100
AcDbEntity
  8
DEFPOINTS
  6
BYBLOCK
 62
     0
100
AcDbPoint
 10
655.696023
 20
946.4414
 30
0.0
  0
ENDBLK
  5
1656
100
AcDbEntity
  8
0
100
AcDbBlockEnd
  0
BLOCK
  5
15D6
100
AcDbEntity
  8
0
100
AcDbBlockBegin
  2
*D17
 70
     1
 10
0.0
 20
0.0
 30
0.0
  3
*D17
  1

  0
LINE
  5
15D7
100
AcDbEntity
  8
0
  6
BYBLOCK
100
AcDbLine
 10
405.625141
 20
904.970652
 30
0.0
 11
405.625141
 21
948.9414
 31
0.0
  0
LINE
  5
15D8
100
AcDbEntity
  8
0
  6
BYBLOCK
100
AcDbLine
 10
705.696023
 20
906.388349
 30
0.0
 11
705.696023
 21
948.9414
 31
0.0
  0
LINE
  5
15D9
100
AcDbEntity
  8
0
  6
BYBLOCK
100
AcDbLine
 10
413.125141
 20
946.4414
 30
0.0
 11
698.196023
 21
946.4414
 31
0.0
  0
SOLID
  5
15DA
100
AcDbEntity
  8
0
  6
BYBLOCK
100
AcDbTrace
 10
413.125141
 20
947.6914
 30
0.0
 11
413.125141
 21
945.1914
 31
0.0
 12
405.625141
 22
946.4414
 32
0.0
 13
405.625141
 23
946.4414
 33
0.0
  0
SOLID
  5
15DB
100
AcDbEntity
  8
0
  6
BYBLOCK
100
AcDbTrace
 10
698.196023
 20
947.6914
 30
0.0
 11
698.196023
 21
945.1914
 31
0.0
 12
705.696023
 22
946.4414
 32
0.0
 13
705.696023
 23
946.4414
 33
0.0
  0
MTEXT
  5
15DC
100
AcDbEntity
  8
0
  6
BYBLOCK
 62
     1
100
AcDbMText
 10
555.660582
 20
952.6914
 30
0.0
 40
7.5
 41
0.0
 71
     5
 72
     1
  1
\A1;300
  7
TOM
  0
POINT
  5
15DD
100
AcDbEntity
  8
DEFPOINTS
  6
BYBLOCK
 62
     0
100
AcDbPoint
 10
405.625141
 20
899.970652
 30
0.0
  0
POINT
  5
15DE
100
AcDbEntity
  8
DEFPOINTS
  6
BYBLOCK
 62
     0
100
AcDbPoint
 10
705.696023
 20
901.388349
 30
0.0
  0
POINT
  5
15DF
100
AcDbEntity
  8
DEFPOINTS
  6
BYBLOCK
 62
     0
100
AcDbPoint
 10
705.696023
 20
946.4414
 30
0.0
  0
ENDBLK
  5
15E0
100
AcDbEntity
  8
0
100
AcDbBlockEnd
  0
BLOCK
  5
15E2
100
AcDbEntity
  8
0
100
AcDbBlockBegin
  2
*D18
 70
     1
 10
0.0
 20
0.0
 30
0.0
  3
*D18
  1

  0
LINE
  5
15E3
100
AcDbEntity
  8
0
  6
BYBLOCK
100
AcDbLine
 10
405.625141
 20
890.858008
 30
0.0
 11
405.625141
 21
924.30506
 31
0.0
  0
LINE
  5
15E4
100
AcDbEntity
  8
0
  6
BYBLOCK
100
AcDbLine
 10
420.399673
 20
889.993125
 30
0.0
 11
420.399673
 21
924.30506
 31
0.0
  0
LINE
  5
15E5
100
AcDbEntity
  8
0
  6
BYBLOCK
100
AcDbLine
 10
398.125141
 20
921.80506
 30
0.0
 11
390.625141
 21
921.80506
 31
0.0
  0
LINE
  5
15E6
100
AcDbEntity
  8
0
  6
BYBLOCK
100
AcDbLine
 10
427.899673
 20
921.80506
 30
0.0
 11
435.399673
 21
921.80506
 31
0.0
  0
LINE
  5
15E7
100
AcDbEntity
  8
0
  6
BYBLOCK
100
AcDbLine
 10
405.625141
 20
921.80506
 30
0.0
 11
420.399673
 21
921.80506
 31
0.0
  0
SOLID
  5
15E8
100
AcDbEntity
  8
0
  6
BYBLOCK
100
AcDbTrace
 10
398.125141
 20
923.05506
 30
0.0
 11
398.125141
 21
920.55506
 31
0.0
 12
405.625141
 22
921.80506
 32
0.0
 13
405.625141
 23
921.80506
 33
0.0
  0
SOLID
  5
15E9
100
AcDbEntity
  8
0
  6
BYBLOCK
100
AcDbTrace
 10
427.899673
 20
923.05506
 30
0.0
 11
427.899673
 21
920.55506
 31
0.0
 12
420.399673
 22
921.80506
 32
0.0
 13
420.399673
 23
921.80506
 33
0.0
  0
MTEXT
  5
15EA
100
AcDbEntity
  8
0
  6
BYBLOCK
 62
     1
100
AcDbMText
 10
413.012407
 20
928.05506
 30
0.0
 40
7.5
 41
0.0
 71
     5
 72
     1
  1
\A1;15
  7
TOM
  0
POINT
  5
15EB
100
AcDbEntity
  8
DEFPOINTS
  6
BYBLOCK
 62
     0
100
AcDbPoint
 10
405.625141
 20
885.858008
 30
0.0
  0
POINT
  5
15EC
100
AcDbEntity
  8
DEFPOINTS
  6
BYBLOCK
 62
     0
100
AcDbPoint
 10
420.399673
 20
884.993125
 30
0.0
  0
POINT
  5
15ED
100
AcDbEntity
  8
DEFPOINTS
  6
BYBLOCK
 62
     0
100
AcDbPoint
 10
420.399673
 20
921.80506
 30
0.0
  0
ENDBLK
  5
15EE
100
AcDbEntity
  8
0
100
AcDbBlockEnd
  0
BLOCK
  5
15F0
100
AcDbEntity
  8
0
100
AcDbBlockBegin
  2
*D19
 70
     1
 10
0.0
 20
0.0
 30
0.0
  3
*D19
  1

  0
LINE
  5
15F1
100
AcDbEntity
  8
0
  6
BYBLOCK
100
AcDbLine
 10
427.899673
 20
900.693612
 30
0.0
 11
376.948079
 21
900.693612
 31
0.0
  0
LINE
  5
15F2
100
AcDbEntity
  8
0
  6
BYBLOCK
100
AcDbLine
 10
404.882891
 20
885.693612
 30
0.0
 11
376.948079
 21
885.693612
 31
0.0
  0
LINE
  5
15F3
100
AcDbEntity
  8
0
  6
BYBLOCK
100
AcDbLine
 10
379.448079
 20
893.193612
 30
0.0
 11
379.448079
 21
880.693612
 31
0.0
  0
SOLID
  5
15F4
100
AcDbEntity
  8
0
  6
BYBLOCK
100
AcDbTrace
 10
378.198079
 20
893.193612
 30
0.0
 11
380.698079
 21
893.193612
 31
0.0
 12
379.448079
 22
900.693612
 32
0.0
 13
379.448079
 23
900.693612
 33
0.0
  0
INSERT
  5
15F5
100
AcDbEntity
  8
0
  6
BYBLOCK
100
AcDbBlockReference
  2
_DOTSMALL
 10
379.448079
 20
885.693612
 30
0.0
 41
7.5
 42
7.5
 43
7.5
 50
270.0
  0
MTEXT
  5
15F6
100
AcDbEntity
  8
0
  6
BYBLOCK
 62
     1
100
AcDbMText
 10
373.198079
 20
889.443612
 30
0.0
 40
7.5
 41
0.0
 71
     5
 72
     1
  1
\A1;15
  7
TOM
 11
0.0
 21
1.0
 31
0.0
  0
POINT
  5
15F7
100
AcDbEntity
  8
DEFPOINTS
  6
BYBLOCK
 62
     0
100
AcDbPoint
 10
432.899673
 20
900.693612
 30
0.0
  0
POINT
  5
15F8
100
AcDbEntity
  8
DEFPOINTS
  6
BYBLOCK
 62
     0
100
AcDbPoint
 10
409.882891
 20
885.693612
 30
0.0
  0
POINT
  5
15F9
100
AcDbEntity
  8
DEFPOINTS
  6
BYBLOCK
 62
     0
100
AcDbPoint
 10
379.448079
 20
885.693612
 30
0.0
  0
ENDBLK
  5
15FA
100
AcDbEntity
  8
0
100
AcDbBlockEnd
  0
BLOCK
  5
15FC
100
AcDbEntity
  8
0
100
AcDbBlockBegin
  2
*D20
 70
     1
 10
0.0
 20
0.0
 30
0.0
  3
*D20
  1

  0
LINE
  5
15FD
100
AcDbEntity
  8
0
  6
BYBLOCK
100
AcDbLine
 10
404.882891
 20
885.693612
 30
0.0
 11
376.948079
 21
885.693612
 31
0.0
  0
LINE
  5
15FE
100
AcDbEntity
  8
0
  6
BYBLOCK
100
AcDbLine
 10
393.625141
 20
877.693612
 30
0.0
 11
376.948079
 21
877.693612
 31
0.0
  0
LINE
  5
15FF
100
AcDbEntity
  8
0
  6
BYBLOCK
100
AcDbLine
 10
379.448079
 20
885.693612
 30
0.0
 11
379.448079
 21
893.193612
 31
0.0
  0
LINE
  5
1600
100
AcDbEntity
  8
0
  6
BYBLOCK
100
AcDbLine
 10
379.448079
 20
870.193612
 30
0.0
 11
379.448079
 21
862.693612
 31
0.0
  0
MTEXT
  5
1601
100
AcDbEntity
  8
0
  6
BYBLOCK
 62
     1
100
AcDbMText
 10
372.238645
 20
872.654398
 30
0.0
 40
7.5
 41
0.0
 71
     5
 72
     1
  1
\A1;8
  7
TOM
 11
0.0
 21
1.0
 31
0.0
  0
LINE
  5
1602
100
AcDbEntity
  8
0
  6
BYBLOCK
100
AcDbLine
 10
379.448079
 20
885.693612
 30
0.0
 11
379.448079
 21
877.693612
 31
0.0
  0
LINE
  5
1603
100
AcDbEntity
  8
0
  6
BYBLOCK
100
AcDbLine
 10
379.448079
 20
885.693612
 30
0.0
 11
379.448079
 21
877.693612
 31
0.0
  0
INSERT
  5
1604
100
AcDbEntity
  8
0
  6
BYBLOCK
100
AcDbBlockReference
  2
_DOTSMALL
 10
379.448079
 20
885.693612
 30
0.0
 41
7.5
 42
7.5
 43
7.5
 50
270.0
  0
SOLID
  5
1605
100
AcDbEntity
  8
0
  6
BYBLOCK
100
AcDbTrace
 10
378.198079
 20
870.193612
 30
0.0
 11
380.698079
 21
870.193612
 31
0.0
 12
379.448079
 22
877.693612
 32
0.0
 13
379.448079
 23
877.693612
 33
0.0
  0
POINT
  5
1606
100
AcDbEntity
  8
DEFPOINTS
  6
BYBLOCK
 62
     0
100
AcDbPoint
 10
409.882891
 20
885.693612
 30
0.0
  0
POINT
  5
1607
100
AcDbEntity
  8
DEFPOINTS
  6
BYBLOCK
 62
     0
100
AcDbPoint
 10
398.625141
 20
877.693612
 30
0.0
  0
POINT
  5
1608
100
AcDbEntity
  8
DEFPOINTS
  6
BYBLOCK
 62
     0
100
AcDbPoint
 10
379.448079
 20
877.693612
 30
0.0
  0
ENDBLK
  5
1609
100
AcDbEntity
  8
0
100
AcDbBlockEnd
  0
BLOCK
  5
160B
100
AcDbEntity
  8
0
100
AcDbBlockBegin
  2
*D21
 70
     1
 10
0.0
 20
0.0
 30
0.0
  3
*D21
  1

  0
LINE
  5
160C
100
AcDbEntity
  8
0
  6
BYBLOCK
100
AcDbLine
 10
731.125141
 20
881.693612
 30
0.0
 11
731.125141
 21
948.9414
 31
0.0
  0
LINE
  5
160D
100
AcDbEntity
  8
0
  6
BYBLOCK
100
AcDbLine
 10
705.696023
 20
902.111309
 30
0.0
 11
705.696023
 21
948.9414
 31
0.0
  0
LINE
  5
160E
100
AcDbEntity
  8
0
  6
BYBLOCK
100
AcDbLine
 10
723.625141
 20
946.4414
 30
0.0
 11
713.196023
 21
946.4414
 31
0.0
  0
SOLID
  5
160F
100
AcDbEntity
  8
0
  6
BYBLOCK
100
AcDbTrace
 10
723.625141
 20
947.6914
 30
0.0
 11
723.625141
 21
945.1914
 31
0.0
 12
731.125141
 22
946.4414
 32
0.0
 13
731.125141
 23
946.4414
 33
0.0
  0
SOLID
  5
1610
100
AcDbEntity
  8
0
  6
BYBLOCK
100
AcDbTrace
 10
713.196023
 20
947.6914
 30
0.0
 11
713.196023
 21
945.1914
 31
0.0
 12
705.696023
 22
946.4414
 32
0.0
 13
705.696023
 23
946.4414
 33
0.0
  0
MTEXT
  5
1611
100
AcDbEntity
  8
0
  6
BYBLOCK
 62
     1
100
AcDbMText
 10
718.410582
 20
952.6914
 30
0.0
 40
7.5
 41
0.0
 71
     5
 72
     1
  1
\A1;25
  7
TOM
  0
POINT
  5
1612
100
AcDbEntity
  8
DEFPOINTS
  6
BYBLOCK
 62
     0
100
AcDbPoint
 10
731.125141
 20
876.693612
 30
0.0
  0
POINT
  5
1613
100
AcDbEntity
  8
DEFPOINTS
  6
BYBLOCK
 62
     0
100
AcDbPoint
 10
705.696023
 20
897.111309
 30
0.0
  0
POINT
  5
1614
100
AcDbEntity
  8
DEFPOINTS
  6
BYBLOCK
 62
     0
100
AcDbPoint
 10
705.696023
 20
946.4414
 30
0.0
  0
ENDBLK
  5
1615
100
AcDbEntity
  8
0
100
AcDbBlockEnd
  0
BLOCK
  5
1617
100
AcDbEntity
  8
0
100
AcDbBlockBegin
  2
*D22
 70
     1
 10
0.0
 20
0.0
 30
0.0
  3
*D22
  1

  0
LINE
  5
1618
100
AcDbEntity
  8
0
  6
BYBLOCK
100
AcDbLine
 10
736.125141
 20
876.693612
 30
0.0
 11
756.296737
 21
876.693612
 31
0.0
  0
LINE
  5
1619
100
AcDbEntity
  8
0
  6
BYBLOCK
100
AcDbLine
 10
708.125141
 20
886.693612
 30
0.0
 11
756.296737
 21
886.693612
 31
0.0
  0
LINE
  5
161A
100
AcDbEntity
  8
0
  6
BYBLOCK
100
AcDbLine
 10
753.796737
 20
869.193612
 30
0.0
 11
753.796737
 21
861.693612
 31
0.0
  0
LINE
  5
161B
100
AcDbEntity
  8
0
  6
BYBLOCK
100
AcDbLine
 10
753.796737
 20
886.693612
 30
0.0
 11
753.796737
 21
894.193612
 31
0.0
  0
MTEXT
  5
161C
100
AcDbEntity
  8
0
  6
BYBLOCK
 62
     1
100
AcDbMText
 10
746.017226
 20
868.60316
 30
0.0
 40
7.5
 41
0.0
 71
     5
 72
     1
  1
\A1;10
  7
TOM
 11
0.0
 21
1.0
 31
0.0
  0
LINE
  5
161D
100
AcDbEntity
  8
0
  6
BYBLOCK
100
AcDbLine
 10
753.796737
 20
876.693612
 30
0.0
 11
753.796737
 21
886.693612
 31
0.0
  0
LINE
  5
161E
100
AcDbEntity
  8
0
  6
BYBLOCK
100
AcDbLine
 10
753.796737
 20
876.693612
 30
0.0
 11
753.796737
 21
886.693612
 31
0.0
  0
SOLID
  5
161F
100
AcDbEntity
  8
0
  6
BYBLOCK
100
AcDbTrace
 10
752.546737
 20
869.193612
 30
0.0
 11
755.046737
 21
869.193612
 31
0.0
 12
753.796737
 22
876.693612
 32
0.0
 13
753.796737
 23
876.693612
 33
0.0
  0
INSERT
  5
1620
100
AcDbEntity
  8
0
  6
BYBLOCK
100
AcDbBlockReference
  2
_DOTSMALL
 10
753.796737
 20
886.693612
 30
0.0
 41
7.5
 42
7.5
 43
7.5
 50
270.0
  0
POINT
  5
1621
100
AcDbEntity
  8
DEFPOINTS
  6
BYBLOCK
 62
     0
100
AcDbPoint
 10
731.125141
 20
876.693612
 30
0.0
  0
POINT
  5
1622
100
AcDbEntity
  8
DEFPOINTS
  6
BYBLOCK
 62
     0
100
AcDbPoint
 10
703.125141
 20
886.693612
 30
0.0
  0
POINT
  5
1623
100
AcDbEntity
  8
DEFPOINTS
  6
BYBLOCK
 62
     0
100
AcDbPoint
 10
753.796737
 20
886.693612
 30
0.0
  0
ENDBLK
  5
1624
100
AcDbEntity
  8
0
100
AcDbBlockEnd
  0
BLOCK
  5
1626
100
AcDbEntity
  8
0
100
AcDbBlockBegin
  2
*D23
 70
     1
 10
0.0
 20
0.0
 30
0.0
  3
*D23
  1

  0
LINE
  5
1627
100
AcDbEntity
  8
0
  6
BYBLOCK
100
AcDbLine
 10
708.125141
 20
886.693612
 30
0.0
 11
756.296737
 21
886.693612
 31
0.0
  0
LINE
  5
1628
100
AcDbEntity
  8
0
  6
BYBLOCK
100
AcDbLine
 10
713.125141
 20
900.693612
 30
0.0
 11
756.296737
 21
900.693612
 31
0.0
  0
LINE
  5
1629
100
AcDbEntity
  8
0
  6
BYBLOCK
100
AcDbLine
 10
753.796737
 20
881.693612
 30
0.0
 11
753.796737
 21
893.193612
 31
0.0
  0
MTEXT
  5
162A
100
AcDbEntity
  8
0
  6
BYBLOCK
 62
     1
100
AcDbMText
 10
745.486804
 20
893.693612
 30
0.0
 40
7.5
 41
0.0
 71
     5
 72
     1
  1
\A1;14
  7
TOM
 11
0.0
 21
1.0
 31
0.0
  0
INSERT
  5
162B
100
AcDbEntity
  8
0
  6
BYBLOCK
100
AcDbBlockReference
  2
_DOTSMALL
 10
753.796737
 20
886.693612
 30
0.0
 41
7.5
 42
7.5
 43
7.5
 50
270.0
  0
SOLID
  5
162C
100
AcDbEntity
  8
0
  6
BYBLOCK
100
AcDbTrace
 10
752.546737
 20
893.193612
 30
0.0
 11
755.046737
 21
893.193612
 31
0.0
 12
753.796737
 22
900.693612
 32
0.0
 13
753.796737
 23
900.693612
 33
0.0
  0
POINT
  5
162D
100
AcDbEntity
  8
DEFPOINTS
  6
BYBLOCK
 62
     0
100
AcDbPoint
 10
703.125141
 20
886.693612
 30
0.0
  0
POINT
  5
162E
100
AcDbEntity
  8
DEFPOINTS
  6
BYBLOCK
 62
     0
100
AcDbPoint
 10
708.125141
 20
900.693612
 30
0.0
  0
POINT
  5
162F
100
AcDbEntity
  8
DEFPOINTS
  6
BYBLOCK
 62
     0
100
AcDbPoint
 10
753.796737
 20
900.693612
 30
0.0
  0
ENDBLK
  5
1630
100
AcDbEntity
  8
0
100
AcDbBlockEnd
  0
BLOCK
  5
1632
100
AcDbEntity
  8
0
100
AcDbBlockBegin
  2
*D24
 70
     1
 10
0.0
 20
0.0
 30
0.0
  3
*D24
  1

  0
LINE
  5
1633
100
AcDbEntity
  8
0
  6
BYBLOCK
100
AcDbLine
 10
708.125141
 20
900.693612
 30
0.0
 11
773.518779
 21
900.693612
 31
0.0
  0
LINE
  5
1634
100
AcDbEntity
  8
0
  6
BYBLOCK
100
AcDbLine
 10
736.125141
 20
876.693612
 30
0.0
 11
773.518779
 21
876.693612
 31
0.0
  0
LINE
  5
1635
100
AcDbEntity
  8
0
  6
BYBLOCK
100
AcDbLine
 10
771.018779
 20
893.193612
 30
0.0
 11
771.018779
 21
884.193612
 31
0.0
  0
SOLID
  5
1636
100
AcDbEntity
  8
0
  6
BYBLOCK
100
AcDbTrace
 10
769.768779
 20
893.193612
 30
0.0
 11
772.268779
 21
893.193612
 31
0.0
 12
771.018779
 22
900.693612
 32
0.0
 13
771.018779
 23
900.693612
 33
0.0
  0
SOLID
  5
1637
100
AcDbEntity
  8
0
  6
BYBLOCK
100
AcDbTrace
 10
769.768779
 20
884.193612
 30
0.0
 11
772.268779
 21
884.193612
 31
0.0
 12
771.018779
 22
876.693612
 32
0.0
 13
771.018779
 23
876.693612
 33
0.0
  0
MTEXT
  5
1638
100
AcDbEntity
  8
0
  6
BYBLOCK
 62
     1
100
AcDbMText
 10
764.768779
 20
888.693612
 30
0.0
 40
7.5
 41
0.0
 71
     5
 72
     1
  1
\A1;24
  7
TOM
 11
0.0
 21
1.0
 31
0.0
  0
POINT
  5
1639
100
AcDbEntity
  8
DEFPOINTS
  6
BYBLOCK
 62
     0
100
AcDbPoint
 10
703.125141
 20
900.693612
 30
0.0
  0
POINT
  5
163A
100
AcDbEntity
  8
DEFPOINTS
  6
BYBLOCK
 62
     0
100
AcDbPoint
 10
731.125141
 20
876.693612
 30
0.0
  0
POINT
  5
163B
100
AcDbEntity
  8
DEFPOINTS
  6
BYBLOCK
 62
     0
100
AcDbPoint
 10
771.018779
 20
876.693612
 30
0.0
  0
ENDBLK
  5
163C
100
AcDbEntity
  8
0
100
AcDbBlockEnd
  0
BLOCK
  5
1683
100
AcDbEntity
  8
0
100
AcDbBlockBegin
  2
*D25
 70
     1
 10
0.0
 20
0.0
 30
0.0
  3
*D25
  1

  0
LINE
  5
1684
100
AcDbEntity
  8
0
  6
BYBLOCK
100
AcDbLine
 10
394.625141
 20
1022.556711
 30
0.0
 11
394.625141
 21
1083.304499
 31
0.0
  0
LINE
  5
1685
100
AcDbEntity
  8
0
  6
BYBLOCK
100
AcDbLine
 10
405.625141
 20
1030.221107
 30
0.0
 11
405.625141
 21
1083.304499
 31
0.0
  0
LINE
  5
1686
100
AcDbEntity
  8
0
  6
BYBLOCK
100
AcDbLine
 10
387.125141
 20
1080.804499
 30
0.0
 11
379.625141
 21
1080.804499
 31
0.0
  0
LINE
  5
1687
100
AcDbEntity
  8
0
  6
BYBLOCK
100
AcDbLine
 10
413.125141
 20
1080.804499
 30
0.0
 11
420.625141
 21
1080.804499
 31
0.0
  0
MTEXT
  5
1688
100
AcDbEntity
  8
0
  6
BYBLOCK
 62
     1
100
AcDbMText
 10
400.125141
 20
1090.804499
 30
0.0
 40
7.5
 41
0.0
 71
     5
 72
     1
  1
\A1;11
  7
TOM
  0
LINE
  5
1689
100
AcDbEntity
  8
0
  6
BYBLOCK
100
AcDbLine
 10
394.625141
 20
1080.804499
 30
0.0
 11
405.625141
 21
1080.804499
 31
0.0
  0
LINE
  5
168A
100
AcDbEntity
  8
0
  6
BYBLOCK
100
AcDbLine
 10
394.625141
 20
1080.804499
 30
0.0
 11
405.625141
 21
1080.804499
 31
0.0
  0
SOLID
  5
168B
100
AcDbEntity
  8
0
  6
BYBLOCK
100
AcDbTrace
 10
387.125141
 20
1082.054499
 30
0.0
 11
387.125141
 21
1079.554499
 31
0.0
 12
394.625141
 22
1080.804499
 32
0.0
 13
394.625141
 23
1080.804499
 33
0.0
  0
SOLID
  5
168C
100
AcDbEntity
  8
0
  6
BYBLOCK
100
AcDbTrace
 10
413.125141
 20
1082.054499
 30
0.0
 11
413.125141
 21
1079.554499
 31
0.0
 12
405.625141
 22
1080.804499
 32
0.0
 13
405.625141
 23
1080.804499
 33
0.0
  0
POINT
  5
168D
100
AcDbEntity
  8
DEFPOINTS
  6
BYBLOCK
 62
     0
100
AcDbPoint
 10
394.625141
 20
1017.556711
 30
0.0
  0
POINT
  5
168E
100
AcDbEntity
  8
DEFPOINTS
  6
BYBLOCK
 62
     0
100
AcDbPoint
 10
405.625141
 20
1025.221107
 30
0.0
  0
POINT
  5
168F
100
AcDbEntity
  8
DEFPOINTS
  6
BYBLOCK
 62
     0
100
AcDbPoint
 10
405.625141
 20
1080.804499
 30
0.0
  0
ENDBLK
  5
1690
100
AcDbEntity
  8
0
100
AcDbBlockEnd
  0
BLOCK
  5
1694
100
AcDbEntity
  8
0
100
AcDbBlockBegin
  2
*D26
 70
     1
 10
0.0
 20
0.0
 30
0.0
  3
*D26
  1

  0
LINE
  5
1695
100
AcDbEntity
  8
0
  6
BYBLOCK
100
AcDbLine
 10
394.625141
 20
1022.556711
 30
0.0
 11
394.625141
 21
1083.304499
 31
0.0
  0
LINE
  5
1696
100
AcDbEntity
  8
0
  6
BYBLOCK
100
AcDbLine
 10
405.625141
 20
1030.221107
 30
0.0
 11
405.625141
 21
1083.304499
 31
0.0
  0
LINE
  5
1697
100
AcDbEntity
  8
0
  6
BYBLOCK
100
AcDbLine
 10
387.125141
 20
1080.804499
 30
0.0
 11
379.625141
 21
1080.804499
 31
0.0
  0
LINE
  5
1698
100
AcDbEntity
  8
0
  6
BYBLOCK
100
AcDbLine
 10
413.125141
 20
1080.804499
 30
0.0
 11
420.625141
 21
1080.804499
 31
0.0
  0
MTEXT
  5
1699
100
AcDbEntity
  8
0
  6
BYBLOCK
 62
     1
100
AcDbMText
 10
400.125141
 20
1090.804499
 30
0.0
 40
7.5
 41
0.0
 71
     5
 72
     1
  1
\A1;11
  7
TOM
  0
LINE
  5
169A
100
AcDbEntity
  8
0
  6
BYBLOCK
100
AcDbLine
 10
394.625141
 20
1080.804499
 30
0.0
 11
405.625141
 21
1080.804499
 31
0.0
  0
LINE
  5
169B
100
AcDbEntity
  8
0
  6
BYBLOCK
100
AcDbLine
 10
394.625141
 20
1080.804499
 30
0.0
 11
405.625141
 21
1080.804499
 31
0.0
  0
SOLID
  5
169C
100
AcDbEntity
  8
0
  6
BYBLOCK
100
AcDbTrace
 10
387.125141
 20
1082.054499
 30
0.0
 11
387.125141
 21
1079.554499
 31
0.0
 12
394.625141
 22
1080.804499
 32
0.0
 13
394.625141
 23
1080.804499
 33
0.0
  0
SOLID
  5
169D
100
AcDbEntity
  8
0
  6
BYBLOCK
100
AcDbTrace
 10
413.125141
 20
1082.054499
 30
0.0
 11
413.125141
 21
1079.554499
 31
0.0
 12
405.625141
 22
1080.804499
 32
0.0
 13
405.625141
 23
1080.804499
 33
0.0
  0
POINT
  5
169E
100
AcDbEntity
  8
DEFPOINTS
  6
BYBLOCK
 62
     0
100
AcDbPoint
 10
394.625141
 20
1017.556711
 30
0.0
  0
POINT
  5
169F
100
AcDbEntity
  8
DEFPOINTS
  6
BYBLOCK
 62
     0
100
AcDbPoint
 10
405.625141
 20
1025.221107
 30
0.0
  0
POINT
  5
16A0
100
AcDbEntity
  8
DEFPOINTS
  6
BYBLOCK
 62
     0
100
AcDbPoint
 10
405.625141
 20
1080.804499
 30
0.0
  0
ENDBLK
  5
16A1
100
AcDbEntity
  8
0
100
AcDbBlockEnd
  0
BLOCK
  5
16A4
100
AcDbEntity
  8
0
100
AcDbBlockBegin
  2
*D27
 70
     1
 10
0.0
 20
0.0
 30
0.0
  3
*D27
  1

  0
LINE
  5
16A5
100
AcDbEntity
  8
0
  6
BYBLOCK
100
AcDbLine
 10
394.625141
 20
888.193612
 30
0.0
 11
394.625141
 21
948.9414
 31
0.0
  0
LINE
  5
16A6
100
AcDbEntity
  8
0
  6
BYBLOCK
100
AcDbLine
 10
405.625141
 20
895.858008
 30
0.0
 11
405.625141
 21
948.9414
 31
0.0
  0
LINE
  5
16A7
100
AcDbEntity
  8
0
  6
BYBLOCK
100
AcDbLine
 10
387.125141
 20
946.4414
 30
0.0
 11
379.625141
 21
946.4414
 31
0.0
  0
LINE
  5
16A8
100
AcDbEntity
  8
0
  6
BYBLOCK
100
AcDbLine
 10
413.125141
 20
946.4414
 30
0.0
 11
420.625141
 21
946.4414
 31
0.0
  0
MTEXT
  5
16A9
100
AcDbEntity
  8
0
  6
BYBLOCK
 62
     1
100
AcDbMText
 10
400.125141
 20
956.4414
 30
0.0
 40
7.5
 41
0.0
 71
     5
 72
     1
  1
\A1;11
  7
TOM
  0
LINE
  5
16AA
100
AcDbEntity
  8
0
  6
BYBLOCK
100
AcDbLine
 10
394.625141
 20
946.4414
 30
0.0
 11
405.625141
 21
946.4414
 31
0.0
  0
LINE
  5
16AB
100
AcDbEntity
  8
0
  6
BYBLOCK
100
AcDbLine
 10
394.625141
 20
946.4414
 30
0.0
 11
405.625141
 21
946.4414
 31
0.0
  0
SOLID
  5
16AC
100
AcDbEntity
  8
0
  6
BYBLOCK
100
AcDbTrace
 10
387.125141
 20
947.6914
 30
0.0
 11
387.125141
 21
945.1914
 31
0.0
 12
394.625141
 22
946.4414
 32
0.0
 13
394.625141
 23
946.4414
 33
0.0
  0
SOLID
  5
16AD
100
AcDbEntity
  8
0
  6
BYBLOCK
100
AcDbTrace
 10
413.125141
 20
947.6914
 30
0.0
 11
413.125141
 21
945.1914
 31
0.0
 12
405.625141
 22
946.4414
 32
0.0
 13
405.625141
 23
946.4414
 33
0.0
  0
POINT
  5
16AE
100
AcDbEntity
  8
DEFPOINTS
  6
BYBLOCK
 62
     0
100
AcDbPoint
 10
394.625141
 20
883.193612
 30
0.0
  0
POINT
  5
16AF
100
AcDbEntity
  8
DEFPOINTS
  6
BYBLOCK
 62
     0
100
AcDbPoint
 10
405.625141
 20
890.858008
 30
0.0
  0
POINT
  5
16B0
100
AcDbEntity
  8
DEFPOINTS
  6
BYBLOCK
 62
     0
100
AcDbPoint
 10
405.625141
 20
946.4414
 30
0.0
  0
ENDBLK
  5
16B1
100
AcDbEntity
  8
0
100
AcDbBlockEnd
  0
ENDSEC
  0
SECTION
  2
ENTITIES
  0
MTEXT
  5
4C8
100
AcDbEntity
  8
0
100
AcDbMText
 10
442.567419
 20
1137.640742
 30
0.0
 40
10.0
 41
133.99
 71
     1
 72
     5
  1
ML 26 F - micro
  7
TOM
1001
ACAD
1000
MTEXTBEGIN
1070
    73
1070
     1
1070
    44
1040
1.0
1070
    74
1070
     0
1000
MTEXTEND
  0
LWPOLYLINE
  5
AC1
100
AcDbEntity
  8
LAMELA-VELKA
100
AcDbPolyline
 90
       17
 70
     0
 43
2.0
 10
631.125141
 20
1011.056711
 10
594.125141
 20
1011.056711
 42
-0.414214
 10
591.625141
 20
1013.556711
 10
591.625141
 20
1018.556711
 42
-0.414214
 10
594.125141
 20
1021.056711
 10
603.125141
 20
1021.056711
 42
0.414214
 10
605.625141
 20
1023.556711
 10
605.625141
 20
1032.556711
 42
0.414214
 10
603.125141
 20
1035.056711
 10
596.625141
 20
1035.056711
 10
593.844907
 20
1035.056711
 42
-0.049389
 10
593.256558
 20
1035.114969
 10
590.136196
 20
1035.739042
 42
0.09902
 10
588.9595
 20
1035.739042
 10
582.136196
 20
1034.374381
 42
-0.09902
 10
580.9595
 20
1034.374381
 10
577.547848
 20
1035.056711
  0
DIMENSION
  5
F14
100
AcDbEntity
  8
KOTY-UPLNE
100
AcDbDimension
  2
*D2
 10
420.399673
 20
1056.168159
 30
0.0
 11
413.012407
 21
1062.418159
 31
0.0
 70
    32
  3
KOTY-VELKE
100
AcDbAlignedDimension
 13
405.625141
 23
1020.221107
 33
0.0
 14
420.399673
 24
1019.356224
 34
0.0
100
AcDbRotatedDimension
1001
ACAD
1000
DSTYLE
1002
{
1070
    40
1040
5.0
1070
   147
1040
0.5
1070
    44
1040
0.5
1070
   178
1070
     1
1070
   177
1070
   256
1070
   176
1070
   256
1002
}
  0
DIMENSION
  5
F16
100
AcDbEntity
  8
KOTY-UPLNE
100
AcDbDimension
  2
*D0
 10
605.696023
 20
1080.804499
 30
0.0
 11
718.410582
 21
1087.054499
 31
0.0
 12
-100.0
 22
-177.198647
 32
0.0
 70
    32
  3
KOTY-VELKE
100
AcDbAlignedDimension
 13
631.125141
 23
1011.056711
 33
0.0
 14
605.696023
 24
1031.474408
 34
0.0
100
AcDbRotatedDimension
1001
ACAD
1000
DSTYLE
1002
{
1070
    40
1040
5.0
1070
   147
1040
0.5
1070
    44
1040
0.5
1070
   178
1070
     1
1070
   177
1070
   256
1070
   176
1070
   256
1002
}
  0
DIMENSION
  5
F17
100
AcDbEntity
  8
KOTY-UPLNE
100
AcDbDimension
  2
*D1
 10
671.018779
 20
1011.056711
 30
0.0
 11
764.768779
 21
1023.056711
 31
0.0
 12
-100.0
 22
-177.198647
 32
0.0
 70
    32
  3
KOTY-VELKE
100
AcDbAlignedDimension
 13
603.125141
 23
1035.056711
 33
0.0
 14
631.125141
 24
1011.056711
 34
0.0
 50
90.0
100
AcDbRotatedDimension
1001
ACAD
1000
DSTYLE
1002
{
1070
    40
1040
5.0
1070
   147
1040
0.5
1070
    44
1040
0.5
1070
   178
1070
     1
1070
   177
1070
   256
1070
   176
1070
   256
1002
}
  0
DIMENSION
  5
1295
100
AcDbEntity
  8
KOTY-UPLNE
100
AcDbDimension
  2
*D5
 10
653.796737
 20
1035.056711
 30
0.0
 11
645.486804
 21
1028.056711
 31
0.0
 12
-100.0
 22
-177.198647
 32
0.0
 70
   160
  3
KOTY-VELKE
100
AcDbAlignedDimension
 13
603.125141
 23
1021.056711
 33
0.0
 14
608.125141
 24
1035.056711
 34
0.0
 50
90.0
100
AcDbRotatedDimension
1001
ACAD
1000
DSTYLE
1002
{
1070
    40
1040
5.0
1070
   173
1070
     1
1070
   147
1040
0.5
1070
    44
1040
0.5
1070
   178
1070
     1
1070
   177
1070
   256
1070
   176
1070
   256
1070
     6
1000
_DOTSMALL
1002
}
  0
DIMENSION
  5
1296
100
AcDbEntity
  8
KOTY-UPLNE
100
AcDbDimension
  2
*D4
 10
653.796737
 20
1021.056711
 30
0.0
 11
646.017226
 21
1002.966259
 31
0.0
 12
-100.0
 22
-177.198647
 32
0.0
 70
   160
  3
KOTY-VELKE
100
AcDbAlignedDimension
 13
631.125141
 23
1011.056711
 33
0.0
 14
603.125141
 24
1021.056711
 34
0.0
 50
90.0
100
AcDbRotatedDimension
1001
ACAD
1000
DSTYLE
1002
{
1070
    40
1040
5.0
1070
   173
1070
     1
1070
   147
1040
0.5
1070
    44
1040
0.5
1070
   178
1070
     1
1070
   177
1070
   256
1070
   176
1070
   256
1070
     7
1000
_DOTSMALL
1002
}
  0
DIMENSION
  5
1297
100
AcDbEntity
  8
KOTY-UPLNE
100
AcDbDimension
  2
*D7
 10
379.448079
 20
1012.056711
 30
0.0
 11
372.238645
 21
1007.017497
 31
0.0
 70
   160
  3
KOTY-VELKE
100
AcDbAlignedDimension
 13
409.882891
 23
1020.056711
 33
0.0
 14
398.625141
 24
1012.056711
 34
0.0
 50
90.0
100
AcDbRotatedDimension
1001
ACAD
1000
DSTYLE
1002
{
1070
    40
1040
5.0
1070
   173
1070
     1
1070
   147
1040
0.5
1070
    44
1040
0.5
1070
   178
1070
     1
1070
   177
1070
   256
1070
   176
1070
   256
1070
     6
1000
_DOTSMALL
1002
}
  0
DIMENSION
  5
1298
100
AcDbEntity
  8
KOTY-UPLNE
100
AcDbDimension
  2
*D6
 10
379.448079
 20
1020.056711
 30
0.0
 11
373.198079
 21
1023.806711
 31
0.0
 70
    32
  3
KOTY-VELKE
100
AcDbAlignedDimension
 13
432.899673
 23
1035.056711
 33
0.0
 14
409.882891
 24
1020.056711
 34
0.0
 50
90.0
100
AcDbRotatedDimension
1001
ACAD
1000
DSTYLE
1002
{
1070
    40
1040
5.0
1070
   173
1070
     1
1070
   147
1040
0.5
1070
    44
1040
0.5
1070
   178
1070
     1
1070
   177
1070
   256
1070
   176
1070
   256
1070
     7
1000
_DOTSMALL
1002
}
  0
DIMENSION
  5
14BA
100
AcDbEntity
  8
KOTY-UPLNE
100
AcDbDimension
  2
*D8
 10
605.696023
 20
1080.804499
 30
0.0
 11
505.660582
 21
1087.054499
 31
0.0
 70
    32
  3
KOTY-VELKE
100
AcDbAlignedDimension
 13
405.625141
 23
1034.333751
 33
0.0
 14
605.696023
 24
1035.751448
 34
0.0
100
AcDbRotatedDimension
1001
ACAD
1000
DSTYLE
1002
{
1070
    40
1040
5.0
1070
   147
1040
0.5
1070
    44
1040
0.5
1070
   178
1070
     1
1070
   177
1070
   256
1070
   176
1070
   256
1002
}
  0
LWPOLYLINE
  5
155B
100
AcDbEntity
  8
LAMELA-VELKA
100
AcDbPolyline
 90
       21
 70
     0
 43
2.0
 10
681.125141
 20
876.693612
 10
644.125141
 20
876.693612
 42
-0.414214
 10
641.625141
 20
879.193612
 10
641.625141
 20
884.193612
 42
-0.414214
 10
644.125141
 20
886.693612
 10
653.125141
 20
886.693612
 42
0.414214
 10
655.625141
 20
889.193612
 10
655.625141
 20
898.193612
 42
0.414214
 10
653.125141
 20
900.693612
 10
646.625141
 20
900.693612
 10
643.844907
 20
900.693612
 42
-0.049389
 10
643.256558
 20
900.75187
 10
640.136196
 20
901.375943
 42
0.09902
 10
638.9595
 20
901.375943
 10
632.136196
 20
900.011282
 42
-0.09902
 10
630.9595
 20
900.011282
 10
624.136196
 20
901.375943
 42
0.09902
 10
622.9595
 20
901.375943
 10
616.136196
 20
900.011282
 42
-0.09902
 10
614.9595
 20
900.011282
 10
611.547848
 20
900.693612
  0
DIMENSION
  5
155C
100
AcDbEntity
  8
KOTY-UPLNE
100
AcDbDimension
  2
*D16
 10
655.696023
 20
946.4414
 30
0.0
 11
530.660582
 21
952.6914
 31
0.0
 70
    32
  3
KOTY-VELKE
100
AcDbAlignedDimension
 13
405.625141
 23
899.970652
 33
0.0
 14
655.696023
 24
901.388349
 34
0.0
100
AcDbRotatedDimension
1001
ACAD
1000
DSTYLE
1002
{
1070
    40
1040
5.0
1070
   147
1040
0.5
1070
    44
1040
0.5
1070
   178
1070
     1
1070
   177
1070
   256
1070
   176
1070
   256
1002
}
  0
DIMENSION
  5
155D
100
AcDbEntity
  8
KOTY-UPLNE
100
AcDbDimension
  2
*D9
 10
420.399673
 20
921.80506
 30
0.0
 11
413.012407
 21
928.05506
 31
0.0
 12
0.0
 22
-134.363099
 32
0.0
 70
    32
  3
KOTY-VELKE
100
AcDbAlignedDimension
 13
405.625141
 23
885.858008
 33
0.0
 14
420.399673
 24
884.993125
 34
0.0
100
AcDbRotatedDimension
1001
ACAD
1000
DSTYLE
1002
{
1070
    40
1040
5.0
1070
   147
1040
0.5
1070
    44
1040
0.5
1070
   178
1070
     1
1070
   177
1070
   256
1070
   176
1070
   256
1002
}
  0
DIMENSION
  5
155E
100
AcDbEntity
  8
KOTY-UPLNE
100
AcDbDimension
  2
*D15
 10
379.448079
 20
885.693612
 30
0.0
 11
373.198079
 21
889.443612
 31
0.0
 12
0.0
 22
-134.363099
 32
0.0
 70
    32
  3
KOTY-VELKE
100
AcDbAlignedDimension
 13
432.899673
 23
900.693612
 33
0.0
 14
409.882891
 24
885.693612
 34
0.0
 50
90.0
100
AcDbRotatedDimension
1001
ACAD
1000
DSTYLE
1002
{
1070
    40
1040
5.0
1070
   173
1070
     1
1070
   147
1040
0.5
1070
    44
1040
0.5
1070
   178
1070
     1
1070
   177
1070
   256
1070
   176
1070
   256
1070
     7
1000
_DOTSMALL
1002
}
  0
DIMENSION
  5
155F
100
AcDbEntity
  8
KOTY-UPLNE
100
AcDbDimension
  2
*D14
 10
379.448079
 20
877.693612
 30
0.0
 11
372.238645
 21
872.654398
 31
0.0
 12
0.0
 22
-134.363099
 32
0.0
 70
   160
  3
KOTY-VELKE
100
AcDbAlignedDimension
 13
409.882891
 23
885.693612
 33
0.0
 14
398.625141
 24
877.693612
 34
0.0
 50
90.0
100
AcDbRotatedDimension
1001
ACAD
1000
DSTYLE
1002
{
1070
    40
1040
5.0
1070
   173
1070
     1
1070
   147
1040
0.5
1070
    44
1040
0.5
1070
   178
1070
     1
1070
   177
1070
   256
1070
   176
1070
   256
1070
     6
1000
_DOTSMALL
1002
}
  0
DIMENSION
  5
1560
100
AcDbEntity
  8
KOTY-UPLNE
100
AcDbDimension
  2
*D10
 10
655.696023
 20
946.4414
 30
0.0
 11
718.410582
 21
952.6914
 31
0.0
 12
-50.0
 22
-134.363099
 32
0.0
 70
    32
  3
KOTY-VELKE
100
AcDbAlignedDimension
 13
681.125141
 23
876.693612
 33
0.0
 14
655.696023
 24
897.111309
 34
0.0
100
AcDbRotatedDimension
1001
ACAD
1000
DSTYLE
1002
{
1070
    40
1040
5.0
1070
   147
1040
0.5
1070
    44
1040
0.5
1070
   178
1070
     1
1070
   177
1070
   256
1070
   176
1070
   256
1002
}
  0
DIMENSION
  5
1561
100
AcDbEntity
  8
KOTY-UPLNE
100
AcDbDimension
  2
*D13
 10
703.796737
 20
886.693612
 30
0.0
 11
696.017226
 21
868.60316
 31
0.0
 12
-50.0
 22
-134.363099
 32
0.0
 70
   160
  3
KOTY-VELKE
100
AcDbAlignedDimension
 13
681.125141
 23
876.693612
 33
0.0
 14
653.125141
 24
886.693612
 34
0.0
 50
90.0
100
AcDbRotatedDimension
1001
ACAD
1000
DSTYLE
1002
{
1070
    40
1040
5.0
1070
   173
1070
     1
1070
   147
1040
0.5
1070
    44
1040
0.5
1070
   178
1070
     1
1070
   177
1070
   256
1070
   176
1070
   256
1070
     7
1000
_DOTSMALL
1002
}
  0
DIMENSION
  5
1562
100
AcDbEntity
  8
KOTY-UPLNE
100
AcDbDimension
  2
*D12
 10
703.796737
 20
900.693612
 30
0.0
 11
695.486804
 21
893.693612
 31
0.0
 12
-50.0
 22
-134.363099
 32
0.0
 70
   160
  3
KOTY-VELKE
100
AcDbAlignedDimension
 13
653.125141
 23
886.693612
 33
0.0
 14
658.125141
 24
900.693612
 34
0.0
 50
90.0
100
AcDbRotatedDimension
1001
ACAD
1000
DSTYLE
1002
{
1070
    40
1040
5.0
1070
   173
1070
     1
1070
   147
1040
0.5
1070
    44
1040
0.5
1070
   178
1070
     1
1070
   177
1070
   256
1070
   176
1070
   256
1070
     6
1000
_DOTSMALL
1002
}
  0
DIMENSION
  5
1563
100
AcDbEntity
  8
KOTY-UPLNE
100
AcDbDimension
  2
*D11
 10
721.018779
 20
876.693612
 30
0.0
 11
764.768779
 21
888.693612
 31
0.0
 12
-50.0
 22
-134.363099
 32
0.0
 70
    32
  3
KOTY-VELKE
100
AcDbAlignedDimension
 13
653.125141
 23
900.693612
 33
0.0
 14
681.125141
 24
876.693612
 34
0.0
 50
90.0
100
AcDbRotatedDimension
1001
ACAD
1000
DSTYLE
1002
{
1070
    40
1040
5.0
1070
   147
1040
0.5
1070
    44
1040
0.5
1070
   178
1070
     1
1070
   177
1070
   256
1070
   176
1070
   256
1002
}
  0
DIMENSION
  5
15CC
100
AcDbEntity
  8
KOTY-UPLNE
100
AcDbDimension
  2
*D17
 10
705.696023
 20
812.078301
 30
0.0
 11
555.660582
 21
818.328301
 31
0.0
 12
0.0
 22
-134.363099
 32
0.0
 70
    32
  3
KOTY-VELKE
100
AcDbAlignedDimension
 13
405.625141
 23
765.607553
 33
0.0
 14
705.696023
 24
767.02525
 34
0.0
100
AcDbRotatedDimension
1001
ACAD
1000
DSTYLE
1002
{
1070
    40
1040
5.0
1070
   147
1040
0.5
1070
    44
1040
0.5
1070
   178
1070
     1
1070
   177
1070
   256
1070
   176
1070
   256
1002
}
  0
LWPOLYLINE
  5
15CD
100
AcDbEntity
  8
LAMELA-VELKA
100
AcDbPolyline
 90
       88
 70
     0
 43
2.0
 10
731.125141
 20
742.330513
 10
694.125141
 20
742.330513
 42
-0.414214
 10
691.625141
 20
744.830513
 10
691.625141
 20
749.830513
 42
-0.414214
 10
694.125141
 20
752.330513
 10
703.125141
 20
752.330513
 42
0.414214
 10
705.625141
 20
754.830513
 10
705.625141
 20
763.830513
 42
0.414214
 10
703.125141
 20
766.330513
 10
694.625141
 20
766.330513
 10
691.844907
 20
766.330513
 42
-0.049389
 10
691.256558
 20
766.388771
 10
688.136196
 20
767.012844
 42
0.09902
 10
686.9595
 20
767.012844
 10
680.136196
 20
765.648183
 42
-0.09902
 10
678.9595
 20
765.648183
 10
672.136196
 20
767.012844
 42
0.09902
 10
670.9595
 20
767.012844
 10
664.136196
 20
765.648183
 42
-0.09902
 10
662.9595
 20
765.648183
 10
656.136196
 20
767.012844
 42
0.09902
 10
654.9595
 20
767.012844
 10
648.136196
 20
765.648183
 42
-0.09902
 10
646.9595
 20
765.648183
 10
640.136196
 20
767.012844
 42
0.09902
 10
638.9595
 20
767.012844
 10
632.136196
 20
765.648183
 42
-0.09902
 10
630.9595
 20
765.648183
 10
624.136196
 20
767.012844
 42
0.09902
 10
622.9595
 20
767.012844
 10
616.136196
 20
765.648183
 42
-0.09902
 10
614.9595
 20
765.648183
 10
608.136196
 20
767.012844
 42
0.09902
 10
606.9595
 20
767.012844
 10
600.136196
 20
765.648183
 42
-0.09902
 10
598.9595
 20
765.648183
 10
592.136196
 20
767.012844
 42
0.09902
 10
590.9595
 20
767.012844
 10
584.136196
 20
765.648183
 42
-0.09902
 10
582.9595
 20
765.648183
 10
576.136196
 20
767.012844
 42
0.09902
 10
574.9595
 20
767.012844
 10
568.136196
 20
765.648183
 42
-0.09902
 10
566.9595
 20
765.648183
 10
560.136196
 20
767.012844
 42
0.09902
 10
558.9595
 20
767.012844
 10
552.136196
 20
765.648183
 42
-0.09902
 10
550.9595
 20
765.648183
 10
544.136196
 20
767.012844
 42
0.09902
 10
542.9595
 20
767.012844
 10
536.136196
 20
765.648183
 42
-0.09902
 10
534.9595
 20
765.648183
 10
528.136196
 20
767.012844
 42
0.09902
 10
526.9595
 20
767.012844
 10
520.136196
 20
765.648183
 42
-0.09902
 10
518.9595
 20
765.648183
 10
512.136196
 20
767.012844
 42
0.09902
 10
510.9595
 20
767.012844
 10
504.136196
 20
765.648183
 42
-0.09902
 10
502.9595
 20
765.648183
 10
496.136196
 20
767.012844
 42
0.09902
 10
494.9595
 20
767.012844
 10
488.136196
 20
765.648183
 42
-0.09902
 10
486.9595
 20
765.648183
 10
480.136196
 20
767.012844
 42
0.09902
 10
478.9595
 20
767.012844
 10
472.136196
 20
765.648183
 42
-0.09902
 10
470.9595
 20
765.648183
 10
464.136196
 20
767.012844
 42
0.09902
 10
462.9595
 20
767.012844
 10
456.136196
 20
765.648183
 42
-0.09902
 10
454.9595
 20
765.648183
 10
448.136196
 20
767.012844
 42
0.09902
 10
446.9595
 20
767.012844
 10
440.136196
 20
765.648183
 42
-0.09902
 10
438.9595
 20
765.648183
 10
435.839138
 20
766.272255
 42
0.049389
 10
435.250789
 20
766.330513
 10
432.899673
 20
766.330513
 10
423.125141
 20
766.330513
 42
0.414214
 10
420.625141
 20
763.830513
 10
420.625141
 20
753.830513
 42
-0.414214
 10
418.125141
 20
751.330513
 10
397.125141
 20
751.330513
 42
0.414214
 10
394.625141
 20
748.830513
 10
394.625141
 20
745.830513
 42
0.414214
 10
397.125141
 20
743.330513
 10
400.125141
 20
743.330513
  0
DIMENSION
  5
15CE
100
AcDbEntity
  8
KOTY-UPLNE
100
AcDbDimension
  2
*D19
 10
379.448079
 20
751.330513
 30
0.0
 11
373.198079
 21
755.080513
 31
0.0
 12
0.0
 22
-134.363099
 32
0.0
 70
    32
  3
KOTY-VELKE
100
AcDbAlignedDimension
 13
432.899673
 23
766.330513
 33
0.0
 14
409.882891
 24
751.330513
 34
0.0
 50
90.0
100
AcDbRotatedDimension
1001
ACAD
1000
DSTYLE
1002
{
1070
    40
1040
5.0
1070
   173
1070
     1
1070
   147
1040
0.5
1070
    44
1040
0.5
1070
   178
1070
     1
1070
   177
1070
   256
1070
   176
1070
   256
1070
     7
1000
_DOTSMALL
1002
}
  0
DIMENSION
  5
15CF
100
AcDbEntity
  8
KOTY-UPLNE
100
AcDbDimension
  2
*D18
 10
420.399673
 20
787.441961
 30
0.0
 11
413.012407
 21
793.691961
 31
0.0
 12
0.0
 22
-134.363099
 32
0.0
 70
    32
  3
KOTY-VELKE
100
AcDbAlignedDimension
 13
405.625141
 23
751.494909
 33
0.0
 14
420.399673
 24
750.630026
 34
0.0
100
AcDbRotatedDimension
1001
ACAD
1000
DSTYLE
1002
{
1070
    40
1040
5.0
1070
   147
1040
0.5
1070
    44
1040
0.5
1070
   178
1070
     1
1070
   177
1070
   256
1070
   176
1070
   256
1002
}
  0
DIMENSION
  5
15D0
100
AcDbEntity
  8
KOTY-UPLNE
100
AcDbDimension
  2
*D20
 10
379.448079
 20
743.330513
 30
0.0
 11
372.238645
 21
738.291299
 31
0.0
 12
0.0
 22
-134.363099
 32
0.0
 70
   160
  3
KOTY-VELKE
100
AcDbAlignedDimension
 13
409.882891
 23
751.330513
 33
0.0
 14
398.625141
 24
743.330513
 34
0.0
 50
90.0
100
AcDbRotatedDimension
1001
ACAD
1000
DSTYLE
1002
{
1070
    40
1040
5.0
1070
   173
1070
     1
1070
   147
1040
0.5
1070
    44
1040
0.5
1070
   178
1070
     1
1070
   177
1070
   256
1070
   176
1070
   256
1070
     6
1000
_DOTSMALL
1002
}
  0
DIMENSION
  5
15D1
100
AcDbEntity
  8
KOTY-UPLNE
100
AcDbDimension
  2
*D24
 10
771.018779
 20
742.330513
 30
0.0
 11
764.768779
 21
754.330513
 31
0.0
 12
0.0
 22
-134.363099
 32
0.0
 70
    32
  3
KOTY-VELKE
100
AcDbAlignedDimension
 13
703.125141
 23
766.330513
 33
0.0
 14
731.125141
 24
742.330513
 34
0.0
 50
90.0
100
AcDbRotatedDimension
1001
ACAD
1000
DSTYLE
1002
{
1070
    40
1040
5.0
1070
   147
1040
0.5
1070
    44
1040
0.5
1070
   178
1070
     1
1070
   177
1070
   256
1070
   176
1070
   256
1002
}
  0
DIMENSION
  5
15D2
100
AcDbEntity
  8
KOTY-UPLNE
100
AcDbDimension
  2
*D23
 10
753.796737
 20
766.330513
 30
0.0
 11
745.486804
 21
759.330513
 31
0.0
 12
0.0
 22
-134.363099
 32
0.0
 70
   160
  3
KOTY-VELKE
100
AcDbAlignedDimension
 13
703.125141
 23
752.330513
 33
0.0
 14
708.125141
 24
766.330513
 34
0.0
 50
90.0
100
AcDbRotatedDimension
1001
ACAD
1000
DSTYLE
1002
{
1070
    40
1040
5.0
1070
   173
1070
     1
1070
   147
1040
0.5
1070
    44
1040
0.5
1070
   178
1070
     1
1070
   177
1070
   256
1070
   176
1070
   256
1070
     6
1000
_DOTSMALL
1002
}
  0
DIMENSION
  5
15D3
100
AcDbEntity
  8
KOTY-UPLNE
100
AcDbDimension
  2
*D21
 10
705.696023
 20
812.078301
 30
0.0
 11
718.410582
 21
818.328301
 31
0.0
 12
0.0
 22
-134.363099
 32
0.0
 70
    32
  3
KOTY-VELKE
100
AcDbAlignedDimension
 13
731.125141
 23
742.330513
 33
0.0
 14
705.696023
 24
762.74821
 34
0.0
100
AcDbRotatedDimension
1001
ACAD
1000
DSTYLE
1002
{
1070
    40
1040
5.0
1070
   147
1040
0.5
1070
    44
1040
0.5
1070
   178
1070
     1
1070
   177
1070
   256
1070
   176
1070
   256
1002
}
  0
DIMENSION
  5
15D4
100
AcDbEntity
  8
KOTY-UPLNE
100
AcDbDimension
  2
*D22
 10
753.796737
 20
752.330513
 30
0.0
 11
746.017226
 21
734.240061
 31
0.0
 12
0.0
 22
-134.363099
 32
0.0
 70
   160
  3
KOTY-VELKE
100
AcDbAlignedDimension
 13
731.125141
 23
742.330513
 33
0.0
 14
703.125141
 24
752.330513
 34
0.0
 50
90.0
100
AcDbRotatedDimension
1001
ACAD
1000
DSTYLE
1002
{
1070
    40
1040
5.0
1070
   173
1070
     1
1070
   147
1040
0.5
1070
    44
1040
0.5
1070
   178
1070
     1
1070
   177
1070
   256
1070
   176
1070
   256
1070
     7
1000
_DOTSMALL
1002
}
  0
LWPOLYLINE
  5
1640
100
AcDbEntity
  8
LAMELA-VELKA
100
AcDbPolyline
 90
       57
 70
     0
 43
2.0
 10
611.547848
 20
900.693612
 10
608.136196
 20
901.375943
 42
0.09902
 10
606.9595
 20
901.375943
 10
600.136196
 20
900.011282
 42
-0.09902
 10
598.9595
 20
900.011282
 10
592.136196
 20
901.375943
 42
0.09902
 10
590.9595
 20
901.375943
 10
584.136196
 20
900.011282
 42
-0.09902
 10
582.9595
 20
900.011282
 10
576.136196
 20
901.375943
 42
0.09902
 10
574.9595
 20
901.375943
 10
568.136196
 20
900.011282
 42
-0.09902
 10
566.9595
 20
900.011282
 10
560.136196
 20
901.375943
 42
0.09902
 10
558.9595
 20
901.375943
 10
552.136196
 20
900.011282
 42
-0.09902
 10
550.9595
 20
900.011282
 10
544.136196
 20
901.375943
 42
0.09902
 10
542.9595
 20
901.375943
 10
536.136196
 20
900.011282
 42
-0.09902
 10
534.9595
 20
900.011282
 10
528.136196
 20
901.375943
 42
0.09902
 10
526.9595
 20
901.375943
 10
520.136196
 20
900.011282
 42
-0.09902
 10
518.9595
 20
900.011282
 10
512.136196
 20
901.375943
 42
0.09902
 10
510.9595
 20
901.375943
 10
504.136196
 20
900.011282
 42
-0.09902
 10
502.9595
 20
900.011282
 10
496.136196
 20
901.375943
 42
0.09902
 10
494.9595
 20
901.375943
 10
488.136196
 20
900.011282
 42
-0.09902
 10
486.9595
 20
900.011282
 10
480.136196
 20
901.375943
 42
0.09902
 10
478.9595
 20
901.375943
 10
472.136196
 20
900.011282
 42
-0.09902
 10
470.9595
 20
900.011282
 10
464.136196
 20
901.375943
 42
0.09902
 10
462.9595
 20
901.375943
 10
456.136196
 20
900.011282
 42
-0.09902
 10
454.9595
 20
900.011282
 10
448.136196
 20
901.375943
 42
0.09902
 10
446.9595
 20
901.375943
 10
440.136196
 20
900.011282
 42
-0.09902
 10
438.9595
 20
900.011282
 10
435.839138
 20
900.635354
 42
0.049389
 10
435.250789
 20
900.693612
 10
432.899673
 20
900.693612
 10
423.125141
 20
900.693612
 42
0.414214
 10
420.625141
 20
898.193612
 10
420.625141
 20
888.193612
 42
-0.414214
 10
418.125141
 20
885.693612
 10
397.125141
 20
885.693612
 42
0.414214
 10
394.625141
 20
883.193612
 10
394.625141
 20
880.193612
 42
0.414214
 10
397.125141
 20
877.693612
 10
400.125141
 20
877.693612
  0
LWPOLYLINE
  5
1671
100
AcDbEntity
  8
LAMELA-VELKA
100
AcDbPolyline
 90
       49
 70
     0
 43
2.0
 10
577.547848
 20
1035.056711
 10
574.136196
 20
1035.739042
 42
0.09902
 10
572.9595
 20
1035.739042
 10
566.136196
 20
1034.374381
 42
-0.09902
 10
564.9595
 20
1034.374381
 10
558.136196
 20
1035.739042
 42
0.09902
 10
556.9595
 20
1035.739042
 10
550.136196
 20
1034.374381
 42
-0.09902
 10
548.9595
 20
1034.374381
 10
542.136196
 20
1035.739042
 42
0.09902
 10
540.9595
 20
1035.739042
 10
534.136196
 20
1034.374381
 42
-0.09902
 10
532.9595
 20
1034.374381
 10
526.136196
 20
1035.739042
 42
0.09902
 10
524.9595
 20
1035.739042
 10
518.136196
 20
1034.374381
 42
-0.09902
 10
516.9595
 20
1034.374381
 10
510.136196
 20
1035.739042
 42
0.09902
 10
508.9595
 20
1035.739042
 10
502.136196
 20
1034.374381
 42
-0.09902
 10
500.9595
 20
1034.374381
 10
494.136196
 20
1035.739042
 42
0.09902
 10
492.9595
 20
1035.739042
 10
486.136196
 20
1034.374381
 42
-0.09902
 10
484.9595
 20
1034.374381
 10
478.136196
 20
1035.739042
 42
0.09902
 10
476.9595
 20
1035.739042
 10
470.136196
 20
1034.374381
 42
-0.09902
 10
468.9595
 20
1034.374381
 10
462.136196
 20
1035.739042
 42
0.09902
 10
460.9595
 20
1035.739042
 10
454.136196
 20
1034.374381
 42
-0.09902
 10
452.9595
 20
1034.374381
 10
446.136196
 20
1035.739042
 42
0.09902
 10
444.9595
 20
1035.739042
 10
438.136196
 20
1034.374381
 42
-0.09902
 10
436.9595
 20
1034.374381
 10
433.839138
 20
1034.998453
 42
0.049389
 10
433.250789
 20
1035.056711
 10
432.899673
 20
1035.056711
 10
423.125141
 20
1035.056711
 42
0.414214
 10
420.625141
 20
1032.556711
 10
420.625141
 20
1022.556711
 42
-0.414214
 10
418.125141
 20
1020.056711
 10
397.125141
 20
1020.056711
 42
0.414214
 10
394.625141
 20
1017.556711
 10
394.625141
 20
1014.556711
 42
0.414214
 10
397.125141
 20
1012.056711
 10
400.125141
 20
1012.056711
  0
DIMENSION
  5
1691
100
AcDbEntity
  8
KOTY-UPLNE
100
AcDbDimension
  2
*D25
 10
405.625141
 20
1080.804499
 30
0.0
 11
400.125141
 21
1090.804499
 31
0.0
 70
    32
  3
KOTY-VELKE
100
AcDbAlignedDimension
 13
394.625141
 23
1017.556711
 33
0.0
 14
405.625141
 24
1025.221107
 34
0.0
100
AcDbRotatedDimension
1001
ACAD
1000
DSTYLE
1002
{
1070
    40
1040
5.0
1070
   147
1040
0.5
1070
    44
1040
0.5
1070
   178
1070
     1
1070
   177
1070
   256
1070
   176
1070
   256
1002
}
  0
DIMENSION
  5
1692
100
AcDbEntity
  8
KOTY-UPLNE
100
AcDbDimension
  2
*D26
 10
405.625141
 20
946.4414
 30
0.0
 11
400.125141
 21
956.4414
 31
0.0
 12
0.0
 22
-134.363099
 32
0.0
 70
    32
  3
KOTY-VELKE
100
AcDbAlignedDimension
 13
394.625141
 23
883.193612
 33
0.0
 14
405.625141
 24
890.858008
 34
0.0
100
AcDbRotatedDimension
1001
ACAD
1000
DSTYLE
1002
{
1070
    40
1040
5.0
1070
   147
1040
0.5
1070
    44
1040
0.5
1070
   178
1070
     1
1070
   177
1070
   256
1070
   176
1070
   256
1002
}
  0
DIMENSION
  5
16A2
100
AcDbEntity
  8
KOTY-UPLNE
100
AcDbDimension
  2
*D27
 10
405.625141
 20
812.078301
 30
0.0
 11
400.125141
 21
822.078301
 31
0.0
 12
0.0
 22
-134.363099
 32
0.0
 70
    32
  3
KOTY-VELKE
100
AcDbAlignedDimension
 13
394.625141
 23
748.830513
 33
0.0
 14
405.625141
 24
756.494909
 34
0.0
100
AcDbRotatedDimension
1001
ACAD
1000
DSTYLE
1002
{
1070
    40
1040
5.0
1070
   147
1040
0.5
1070
    44
1040
0.5
1070
   178
1070
     1
1070
   177
1070
   256
1070
   176
1070
   256
1002
}
  0
ENDSEC
  0
SECTION
  2
OBJECTS
  0
DICTIONARY
  5
7
100
AcDbDictionary
  3
ACAD_GROUP
350
22
  3
ACAD_LAYOUT
350
B
  3
ACAD_MLINESTYLE
350
23
  3
ACAD_PLOTSETTINGS
350
24
  3
ACAD_PLOTSTYLENAME
350
6
  3
ACDBHEADERROUNDTRIPXREC
350
11D
  3
DWGPROPS
350
52
  0
DICTIONARY
  5
147
100
AcDbDictionary
280
     1
  3
ACAD_XREC_ROUNDTRIP
360
148
  0
DICTIONARY
  5
117
100
AcDbDictionary
280
     1
  3
ACAD_XREC_ROUNDTRIP
360
118
  0
DICTIONARY
  5
145
100
AcDbDictionary
280
     1
  3
ACAD_XREC_ROUNDTRIP
360
146
  0
DICTIONARY
  5
13E
100
AcDbDictionary
280
     1
  3
ACAD_LAYOUTSELFREF
360
13F
  0
DICTIONARY
  5
111
100
AcDbDictionary
280
     1
  3
ACAD_LAYOUTSELFREF
360
142
  3
ACAD_XREC_ROUNDTRIP
360
112
  0
DICTIONARY
  5
22
102
{ACAD_REACTORS
330
7
102
}
100
AcDbDictionary
  0
DICTIONARY
  5
B
102
{ACAD_XDICTIONARY
360
140
102
}
102
{ACAD_REACTORS
330
7
102
}
100
AcDbDictionary
  3
LAYOUT2
350
F
  3
MODEL
350
A
  0
DICTIONARY
  5
23
102
{ACAD_REACTORS
330
7
102
}
100
AcDbDictionary
  3
STANDARD
350
27
  0
DICTIONARY
  5
24
102
{ACAD_REACTORS
330
7
102
}
100
AcDbDictionary
  0
ACAD_PROXY_OBJECT
  5
6
102
{ACAD_REACTORS
330
7
102
}
100
AcDbProxyObject
 90
      499
 91
      502
 93
       86
310
405010041939BDC9B585B0
350
5
340
5
 94
        0
  0
DICTIONARY
  5
11D
102
{ACAD_REACTORS
330
7
102
}
100
AcDbDictionary
  3
CEPSNTYPE
350
127
  3
DIMSTYLEDATA
350
12B
  3
FINGERPRINTGUID
350
128
  3
HYPERLINKBASE
350
120
  3
INSUNITS
350
126
  3
LAYOUTDICT
350
122
  3
LWETCUNION
350
125
  3
PLOTSETDICT
350
123
  3
PLOTSTYLNAMDICT
350
124
  3
PSVPSCALE
350
12A
  3
PUCSBASE
350
12E
  3
PUCSORGBACK
350
134
  3
PUCSORGBOTTOM
350
130
  3
PUCSORGFRONT
350
133
  3
PUCSORGLEFT
350
131
  3
PUCSORGRIGHT
350
132
  3
PUCSORGTOP
350
12F
  3
PUCSORTHOREF
350
12C
  3
PUCSORTHOVIEW
350
12D
  3
STYLESHEET
350
121
  3
TSTACKALIGN
350
11E
  3
TSTACKSIZE
350
11F
  3
UCSBASE
350
137
  3
UCSORGBACK
350
13D
  3
UCSORGBOTTOM
350
139
  3
UCSORGFRONT
350
13C
  3
UCSORGLEFT
350
13A
  3
UCSORGRIGHT
350
13B
  3
UCSORGTOP
350
138
  3
UCSORTHOREF
350
135
  3
UCSORTHOVIEW
350
136
  3
VERSIONGUID
350
129
  0
XRECORD
  5
52
102
{ACAD_REACTORS
330
7
102
}
100
AcDbXrecord
  1
DWGPROPS COOKIE
  2

  3

  4

  6

  7

  8
tom
  9

300
=
301
=
302
=
303
=
304
=
305
=
306
=
307
=
308
=
309
=
 40
0.356595
 41
2450098.461195
 42
2452040.602766
  1

 90
        0
  0
XRECORD
  5
148
102
{ACAD_REACTORS
330
147
102
}
100
AcDbXrecord
102
PLOTBIT
280
     0
  0
XRECORD
  5
118
102
{ACAD_REACTORS
330
117
102
}
100
AcDbXrecord
102
EXTNAMES
  1
TOM
  2
tom
  0
XRECORD
  5
146
102
{ACAD_REACTORS
330
145
102
}
100
AcDbXrecord
102
ACADR14ROUNDTRIP
1000
DSTYLE
1002
{
1070
   279
 70
     2
1002
}
  0
XRECORD
  5
13F
102
{ACAD_REACTORS
330
13E
102
}
100
AcDbXrecord
340
2
  0
XRECORD
  5
142
102
{ACAD_REACTORS
330
111
102
}
100
AcDbXrecord
340
C
  0
XRECORD
  5
112
102
{ACAD_REACTORS
330
111
102
}
100
AcDbXrecord
102
EXTNAMES
  1
*PAPER_SPACE
  2
*Paper_Space
  0
DICTIONARY
  5
140
100
AcDbDictionary
280
     1
  3
ACAD_XREC_ROUNDTRIP
360
141
  0
ACAD_PROXY_OBJECT
  5
F
102
{ACAD_REACTORS
330
B
102
}
100
AcDbProxyObject
 90
      499
 91
      504
 93
     1484
310
91943616E6F6E20427562626C652D4A657420424A432D343030302C8080000002033931C4000000000333F0A9000000000080ED0C4000000000003003D000000008067416A400000001017639C901024134A40501416AA543D513D34C4B5CDA591A5B99CB98DD1891069074C61796F75743240501A80000000003003F00000
310
00080CE4C7300000001037539C9000000039F3571A502A6A6A0000000022FC4ED00D0CCCCB8ACED3340800000060BC6F6F401999B993D89AD99020
330
C
330
0
340
0
340
0
 94
        0
  0
ACAD_PROXY_OBJECT
  5
A
102
{ACAD_REACTORS
330
B
102
}
100
AcDbProxyObject
 90
      499
 91
      504
 93
     1796
310
9144B796F63657261204D6974612046532D31383030290B8000000C067381B40000000102F06C51000000000068381B40000000002E06C510000000080253F6A400000003834239C90102413400000000002012100AE47E17A148E5E40405014100055D792FC8379401026BDF13AE5E0500049AA63FFE6283402D878F5E855
310
EE41024000000000000144043D513D34C4B5CDA591A5B99CB98DD18A26A666666666724FC0055D792FC8379C01026BDF13AE5E0701054D6F64656C901A800000000000000000000000000000000000000000000A1000000000000008902A6A6AAAA0
330
2
330
0
340
0
340
0
 94
        0
  0
MLINESTYLE
  5
27
102
{ACAD_REACTORS
330
23
102
}
100
AcDbMlineStyle
  2
STANDARD
 70
     0
  3

 62
   256
 51
90.0
 52
90.0
 71
     2
 49
0.5
 62
   256
  6
BYLAYER
 49
-0.5
 62
   256
  6
BYLAYER
  0
ACAD_PROXY_OBJECT
  5
5
102
{ACAD_REACTORS
330
6
102
}
100
AcDbProxyObject
 90
      499
 91
      503
 93
        0
 94
        0
  0
XRECORD
  5
127
102
{ACAD_REACTORS
330
11D
102
}
100
AcDbXrecord
 90
        0
  0
XRECORD
  5
12B
102
{ACAD_REACTORS
330
11D
102
}
100
AcDbXrecord
1000
DSTYLE
1002
{
1070
   179
 70
     4
1070
   278
 70
    44
1070
   279
 70
     2
1070
   289
 70
     1
1002
}
  0
XRECORD
  5
128
102
{ACAD_REACTORS
330
11D
102
}
100
AcDbXrecord
  1
{986116A0-451F-11D5-BBCF-006097BB053F}
  0
XRECORD
  5
120
102
{ACAD_REACTORS
330
11D
102
}
100
AcDbXrecord
  1

  0
XRECORD
  5
126
102
{ACAD_REACTORS
330
11D
102
}
100
AcDbXrecord
 90
        0
  0
XRECORD
  5
122
102
{ACAD_REACTORS
330
11D
102
}
100
AcDbXrecord
340
B
  0
XRECORD
  5
125
102
{ACAD_REACTORS
330
11D
102
}
100
AcDbXrecord
 90
    10781
  0
XRECORD
  5
123
102
{ACAD_REACTORS
330
11D
102
}
100
AcDbXrecord
340
24
  0
XRECORD
  5
124
102
{ACAD_REACTORS
330
11D
102
}
100
AcDbXrecord
340
6
  0
XRECORD
  5
12A
102
{ACAD_REACTORS
330
11D
102
}
100
AcDbXrecord
 40
0.0
  0
XRECORD
  5
12E
102
{ACAD_REACTORS
330
11D
102
}
100
AcDbXrecord
340
0
  0
XRECORD
  5
134
102
{ACAD_REACTORS
330
11D
102
}
100
AcDbXrecord
 10
0.0
 20
0.0
 30
0.0
  0
XRECORD
  5
130
102
{ACAD_REACTORS
330
11D
102
}
100
AcDbXrecord
 10
0.0
 20
0.0
 30
0.0
  0
XRECORD
  5
133
102
{ACAD_REACTORS
330
11D
102
}
100
AcDbXrecord
 10
0.0
 20
0.0
 30
0.0
  0
XRECORD
  5
131
102
{ACAD_REACTORS
330
11D
102
}
100
AcDbXrecord
 10
0.0
 20
0.0
 30
0.0
  0
XRECORD
  5
132
102
{ACAD_REACTORS
330
11D
102
}
100
AcDbXrecord
 10
0.0
 20
0.0
 30
0.0
  0
XRECORD
  5
12F
102
{ACAD_REACTORS
330
11D
102
}
100
AcDbXrecord
 10
0.0
 20
0.0
 30
0.0
  0
XRECORD
  5
12C
102
{ACAD_REACTORS
330
11D
102
}
100
AcDbXrecord
340
0
  0
XRECORD
  5
12D
102
{ACAD_REACTORS
330
11D
102
}
100
AcDbXrecord
 70
     0
  0
XRECORD
  5
121
102
{ACAD_REACTORS
330
11D
102
}
100
AcDbXrecord
  1
TOM1-siding.ctb
  0
XRECORD
  5
11E
102
{ACAD_REACTORS
330
11D
102
}
100
AcDbXrecord
 90
        1
  0
XRECORD
  5
11F
102
{ACAD_REACTORS
330
11D
102
}
100
AcDbXrecord
 90
       70
  0
XRECORD
  5
137
102
{ACAD_REACTORS
330
11D
102
}
100
AcDbXrecord
340
0
  0
XRECORD
  5
13D
102
{ACAD_REACTORS
330
11D
102
}
100
AcDbXrecord
 10
0.0
 20
0.0
 30
0.0
  0
XRECORD
  5
139
102
{ACAD_REACTORS
330
11D
102
}
100
AcDbXrecord
 10
0.0
 20
0.0
 30
0.0
  0
XRECORD
  5
13C
102
{ACAD_REACTORS
330
11D
102
}
100
AcDbXrecord
 10
0.0
 20
0.0
 30
0.0
  0
XRECORD
  5
13A
102
{ACAD_REACTORS
330
11D
102
}
100
AcDbXrecord
 10
0.0
 20
0.0
 30
0.0
  0
XRECORD
  5
13B
102
{ACAD_REACTORS
330
11D
102
}
100
AcDbXrecord
 10
0.0
 20
0.0
 30
0.0
  0
XRECORD
  5
138
102
{ACAD_REACTORS
330
11D
102
}
100
AcDbXrecord
 10
0.0
 20
0.0
 30
0.0
  0
XRECORD
  5
135
102
{ACAD_REACTORS
330
11D
102
}
100
AcDbXrecord
340
0
  0
XRECORD
  5
136
102
{ACAD_REACTORS
330
11D
102
}
100
AcDbXrecord
 70
     0
  0
XRECORD
  5
129
102
{ACAD_REACTORS
330
11D
102
}
100
AcDbXrecord
  1
{F5D44C6B-50ED-11D5-BBCF-006097BB053F}
  0
XRECORD
  5
141
102
{ACAD_REACTORS
330
140
102
}
100
AcDbXrecord
102
EXTNAMES
  1
LAYOUT2
  2
Layout2
  1
MODEL
  2
Model
  0
ENDSEC
  0
EOF
