  0
SECTION
  2
HEADER
  9
$ACADVER
  1
AC1014
  9
$ACADMAINTVER
 70
     0
  9
$DWGCODEPAGE
  3
ANSI_1250
  9
$INSBASE
 10
0.0
 20
0.0
 30
0.0
  9
$EXTMIN
 10
368.488645
 20
754.911261
 30
0.0
  9
$EXTMAX
 10
773.518779
 20
1125.610607
 30
0.0
  9
$LIMMIN
 10
0.0
 20
0.0
  9
$LIMMAX
 10
1200.0
 20
880.0
  9
$ORTHOMODE
 70
     1
  9
$REGENMODE
 70
     1
  9
$FILLMODE
 70
     1
  9
$QTEXTMODE
 70
     0
  9
$MIRRTEXT
 70
     0
  9
$DRAGMODE
 70
     2
  9
$LTSCALE
 40
5.0
  9
$OSMODE
 70
    35
  9
$ATTMODE
 70
     1
  9
$TEXTSIZE
 40
100.0
  9
$TRACEWID
 40
1.0
  9
$TEXTSTYLE
  7
TOM
  9
$CLAYER
  8
KOTY-UPLNE
  9
$CELTYPE
  6
BYLAYER
  9
$CECOLOR
 62
   256
  9
$CELTSCALE
 40
1.0
  9
$DELOBJ
 70
     1
  9
$DISPSILH
 70
     0
  9
$DIMSCALE
 40
5.0
  9
$DIMASZ
 40
1.5
  9
$DIMEXO
 40
1.0
  9
$DIMDLI
 40
10.0
  9
$DIMRND
 40
1.0
  9
$DIMDLE
 40
1.0
  9
$DIMEXE
 40
0.5
  9
$DIMTP
 40
0.0
  9
$DIMTM
 40
0.0
  9
$DIMTXT
 40
1.5
  9
$DIMCEN
 40
2.0
  9
$DIMTSZ
 40
0.0
  9
$DIMTOL
 70
     0
  9
$DIMLIM
 70
     0
  9
$DIMTIH
 70
     0
  9
$DIMTOH
 70
     0
  9
$DIMSE1
 70
     0
  9
$DIMSE2
 70
     0
  9
$DIMTAD
 70
     1
  9
$DIMZIN
 70
     9
  9
$DIMBLK
  1

  9
$DIMASO
 70
     1
  9
$DIMSHO
 70
     1
  9
$DIMPOST
  1

  9
$DIMAPOST
  1

  9
$DIMALT
 70
     0
  9
$DIMALTD
 70
     2
  9
$DIMALTF
 40
25.4
  9
$DIMLFAC
 40
1.0
  9
$DIMTOFL
 70
     1
  9
$DIMTVP
 40
0.0
  9
$DIMTIX
 70
     0
  9
$DIMSOXD
 70
     0
  9
$DIMSAH
 70
     0
  9
$DIMBLK1
  1

  9
$DIMBLK2
  1

  9
$DIMSTYLE
  2
KOTY-VELKE
  9
$DIMCLRD
 70
   256
  9
$DIMCLRE
 70
   256
  9
$DIMCLRT
 70
     1
  9
$DIMTFAC
 40
1.0
  9
$DIMGAP
 40
0.5
  9
$DIMJUST
 70
     0
  9
$DIMSD1
 70
     0
  9
$DIMSD2
 70
     0
  9
$DIMTOLJ
 70
     1
  9
$DIMTZIN
 70
     8
  9
$DIMALTZ
 70
     8
  9
$DIMALTTZ
 70
     8
  9
$DIMFIT
 70
     5
  9
$DIMUPT
 70
     0
  9
$DIMUNIT
 70
     2
  9
$DIMDEC
 70
     0
  9
$DIMTDEC
 70
     0
  9
$DIMALTU
 70
     2
  9
$DIMALTTD
 70
     2
  9
$DIMTXSTY
  7
TOM
  9
$DIMAUNIT
 70
     0
  9
$LUNITS
 70
     2
  9
$LUPREC
 70
     2
  9
$SKETCHINC
 40
1.0
  9
$FILLETRAD
 40
3.0
  9
$AUNITS
 70
     0
  9
$AUPREC
 70
     4
  9
$MENU
  1
acad
  9
$ELEVATION
 40
0.0
  9
$PELEVATION
 40
0.0
  9
$THICKNESS
 40
0.0
  9
$LIMCHECK
 70
     0
  9
$BLIPMODE
 70
     0
  9
$CHAMFERA
 40
0.0
  9
$CHAMFERB
 40
0.0
  9
$CHAMFERC
 40
0.0
  9
$CHAMFERD
 40
0.0
  9
$SKPOLY
 70
     0
  9
$TDCREATE
 40
2450098.461194791
  9
$TDUPDATE
 40
2452897.548356018
  9
$TDINDWG
 40
0.4619440972
  9
$TDUSRTIMER
 40
0.4619440972
  9
$USRTIMER
 70
     1
  9
$ANGBASE
 50
0.0
  9
$ANGDIR
 70
     0
  9
$PDMODE
 70
     0
  9
$PDSIZE
 40
0.0
  9
$PLINEWID
 40
0.0
  9
$COORDS
 70
     2
  9
$SPLFRAME
 70
     0
  9
$SPLINETYPE
 70
     6
  9
$SPLINESEGS
 70
     8
  9
$ATTDIA
 70
     0
  9
$ATTREQ
 70
     1
  9
$HANDLING
 70
     1
  9
$HANDSEED
  5
1615
  9
$SURFTAB1
 70
     6
  9
$SURFTAB2
 70
     6
  9
$SURFTYPE
 70
     6
  9
$SURFU
 70
     6
  9
$SURFV
 70
     6
  9
$UCSNAME
  2

  9
$UCSORG
 10
0.0
 20
0.0
 30
0.0
  9
$UCSXDIR
 10
1.0
 20
0.0
 30
0.0
  9
$UCSYDIR
 10
0.0
 20
1.0
 30
0.0
  9
$PUCSNAME
  2

  9
$PUCSORG
 10
0.0
 20
0.0
 30
0.0
  9
$PUCSXDIR
 10
1.0
 20
0.0
 30
0.0
  9
$PUCSYDIR
 10
0.0
 20
1.0
 30
0.0
  9
$USERI1
 70
     0
  9
$USERI2
 70
     0
  9
$USERI3
 70
     0
  9
$USERI4
 70
     0
  9
$USERI5
 70
     0
  9
$USERR1
 40
0.0
  9
$USERR2
 40
0.0
  9
$USERR3
 40
0.0
  9
$USERR4
 40
0.0
  9
$USERR5
 40
0.0
  9
$WORLDVIEW
 70
     1
  9
$SHADEDGE
 70
     3
  9
$SHADEDIF
 70
    70
  9
$TILEMODE
 70
     1
  9
$MAXACTVP
 70
    16
  9
$PINSBASE
 10
0.0
 20
0.0
 30
0.0
  9
$PLIMCHECK
 70
     0
  9
$PEXTMIN
 10
27.943527
 20
19.928417
 30
0.0
  9
$PEXTMAX
 10
251.491745
 20
179.355751
 30
0.0
  9
$PLIMMIN
 10
-3.96875
 20
-7.14375
  9
$PLIMMAX
 10
292.929016
 20
202.900135
  9
$UNITMODE
 70
     0
  9
$VISRETAIN
 70
     0
  9
$PLINEGEN
 70
     0
  9
$PSLTSCALE
 70
     1
  9
$TREEDEPTH
 70
  3020
  9
$PICKSTYLE
 70
     3
  9
$CMLSTYLE
  2
STANDARD
  9
$CMLJUST
 70
     0
  9
$CMLSCALE
 40
1.0
  9
$PROXYGRAPHICS
 70
     1
  9
$MEASUREMENT
 70
     0
  0
ENDSEC
  0
SECTION
  2
CLASSES
  0
CLASS
  1
DICTIONARYVAR
  2
AcDbDictionaryVar
  3
"AutoCAD"
 90
        0
280
     0
281
     0
  0
CLASS
  1
LWPOLYLINE
  2
AcDbPolyline
  3
"AutoCAD"
 90
        0
280
     0
281
     1
  0
CLASS
  1
ACDBDICTIONARYWDFLT
  2
AcDbDictionaryWithDefault
  3
AutoCAD 2000
 90
        0
280
     0
281
     0
  0
CLASS
  1
ACDBPLACEHOLDER
  2
AcDbPlaceHolder
  3
AutoCAD 2000
 90
        0
280
     0
281
     0
  0
CLASS
  1
LAYOUT
  2
AcDbLayout
  3
AutoCAD 2000
 90
        0
280
     0
281
     0
  0
CLASS
  1
LONG_TRANSACTION
  2
AcDbLongTransaction
  3
AutoCAD 2000
 90
        0
280
     0
281
     0
  0
CLASS
  1
LWPOLYLINE
  2
AcDbPolyline
  3
"AutoCAD"
 90
        0
280
     0
281
     1
  0
CLASS
  1
HATCH
  2
AcDbHatch
  3
"ACAD_SEDONA"
 90
        0
280
     0
281
     1
  0
CLASS
  1
XRECORD
  2
AcDbXrecord
  3
"<Built In>"
 90
        0
280
     0
281
     0
  0
ENDSEC
  0
SECTION
  2
TABLES
  0
TABLE
  2
VPORT
  5
19
100
AcDbSymbolTable
 70
     2
  0
VPORT
  5
1614
100
AcDbSymbolTableRecord
100
AcDbViewportTableRecord
  2
*ACTIVE
 70
     0
 10
0.0
 20
0.0
 11
1.0
 21
1.0
 12
658.688487
 22
933.434838
 13
0.0
 23
0.0
 14
1.0
 24
1.0
 15
1000.0
 25
1000.0
 16
0.0
 26
0.0
 36
1.0
 17
0.0
 27
0.0
 37
0.0
 40
401.424453
 41
2.059548
 42
50.0
 43
0.0
 44
0.0
 50
0.0
 51
0.0
 71
     0
 72
 20000
 73
     1
 74
     1
 75
     0
 76
     0
 77
     0
 78
     0
  0
ENDTAB
  0
TABLE
  2
LTYPE
  5
14
100
AcDbSymbolTable
 70
     2
  0
LTYPE
  5
15
100
AcDbSymbolTableRecord
100
AcDbLinetypeTableRecord
  2
BYBLOCK
 70
     0
  3

 72
    65
 73
     0
 40
0.0
  0
LTYPE
  5
16
100
AcDbSymbolTableRecord
100
AcDbLinetypeTableRecord
  2
BYLAYER
 70
     0
  3

 72
    65
 73
     0
 40
0.0
  0
LTYPE
  5
8
100
AcDbSymbolTableRecord
100
AcDbLinetypeTableRecord
  2
AUSGEZOGEN
 70
     0
  3
Ausgezogene Linie
 72
    65
 73
     0
 40
0.0
  0
LTYPE
  5
3D1
100
AcDbSymbolTableRecord
100
AcDbLinetypeTableRecord
  2
CONTINUOUS
 70
     0
  3
Solid line
 72
    65
 73
     0
 40
0.0
  0
ENDTAB
  0
TABLE
  2
LAYER
  5
10
100
AcDbSymbolTable
 70
     4
  0
LAYER
  5
4
100
AcDbSymbolTableRecord
100
AcDbLayerTableRecord
  2
0
 70
     0
 62
     7
  6
AUSGEZOGEN
  0
LAYER
  5
31
102
{ACAD_XDICTIONARY
360
147
102
}
100
AcDbSymbolTableRecord
100
AcDbLayerTableRecord
  2
DEFPOINTS
 70
     0
 62
     7
  6
AUSGEZOGEN
  0
LAYER
  5
ABF
100
AcDbSymbolTableRecord
100
AcDbLayerTableRecord
  2
KOTY-UPLNE
 70
     0
 62
     5
  6
CONTINUOUS
  0
LAYER
  5
AC0
100
AcDbSymbolTableRecord
100
AcDbLayerTableRecord
  2
LAMELA-VELKA
 70
     0
 62
     7
  6
CONTINUOUS
  0
ENDTAB
  0
TABLE
  2
STYLE
  5
11
100
AcDbSymbolTable
 70
     3
  0
STYLE
  5
12
100
AcDbSymbolTableRecord
100
AcDbTextStyleTableRecord
  2
STANDARD
 70
     0
 40
0.0
 41
1.0
 50
0.0
 71
     0
 42
2.0
  3
txt8.shx
  4

  0
STYLE
  5
1F
100
AcDbSymbolTableRecord
100
AcDbTextStyleTableRecord
  2
SIMPLEX8
 70
     0
 40
0.0
 41
1.0
 50
0.0
 71
     0
 42
100.0
  3
simplex8.shx
  4

  0
STYLE
  5
26
102
{ACAD_XDICTIONARY
360
117
102
}
100
AcDbSymbolTableRecord
100
AcDbTextStyleTableRecord
  2
TOM
 70
     0
 40
0.0
 41
0.9
 50
0.0
 71
     0
 42
100.0
  3
simplex.shx
  4

  0
ENDTAB
  0
TABLE
  2
VIEW
  5
17
100
AcDbSymbolTable
 70
     0
  0
ENDTAB
  0
TABLE
  2
UCS
  5
18
100
AcDbSymbolTable
 70
     0
  0
ENDTAB
  0
TABLE
  2
APPID
  5
1B
100
AcDbSymbolTable
 70
     2
  0
APPID
  5
1C
100
AcDbSymbolTableRecord
100
AcDbRegAppTableRecord
  2
ACAD
 70
     0
  0
APPID
  5
3DA
100
AcDbSymbolTableRecord
100
AcDbRegAppTableRecord
  2
DCO15
 70
     0
  0
ENDTAB
  0
TABLE
  2
DIMSTYLE
  5
1D
100
AcDbSymbolTable
 70
     3
  0
DIMSTYLE
105
20
102
{ACAD_XDICTIONARY
360
145
102
}
100
AcDbSymbolTableRecord
100
AcDbDimStyleTableRecord
  2
PFLAUM2-35
 70
     0
  3

  4

  5

  6

  7

 40
2.0
 41
0.0
 42
1.0
 43
7.0
 44
1.0
 45
1.0
 46
1.0
 47
0.0
 48
0.0
140
3.5
141
2.0
142
1.0
143
25.4
144
1.0
145
0.0
146
1.0
147
0.0
 71
     0
 72
     0
 73
     0
 74
     0
 75
     0
 76
     0
 77
     1
 78
     8
170
     0
171
     2
172
     1
173
     0
174
     0
175
     0
176
     7
177
     7
178
    30
270
     2
271
     2
272
     2
273
     2
274
     2
340
1F
275
     0
280
     0
281
     0
282
     0
283
     1
284
     8
285
     8
286
     8
287
     5
288
     0
  0
DIMSTYLE
105
3D9
100
AcDbSymbolTableRecord
100
AcDbDimStyleTableRecord
  2
STANDARD
 70
     0
  3

  4

  5

  6

  7

 40
1.0
 41
0.18
 42
0.0625
 43
0.38
 44
0.18
 45
0.0
 46
0.0
 47
0.0
 48
0.0
140
0.18
141
0.09
142
0.0
143
25.4
144
1.0
145
0.0
146
1.0
147
0.09
 71
     0
 72
     0
 73
     1
 74
     1
 75
     0
 76
     0
 77
     0
 78
     0
170
     0
171
     2
172
     0
173
     0
174
     0
175
     0
176
     0
177
     0
178
     0
270
     2
271
     4
272
     4
273
     2
274
     2
340
12
275
     0
280
     0
281
     0
282
     0
283
     1
284
     0
285
     0
286
     0
287
     3
288
     0
  0
DIMSTYLE
105
ACF
102
{ACAD_REACTORS
330
1296
330
1295
330
1298
330
1297
330
14BD
330
14C0
330
14C3
330
14C6
330
14C5
330
14C4
330
14C2
330
14C1
330
1531
330
1533
330
1532
330
1534
330
1538
330
1537
330
1536
330
1535
102
}
100
AcDbSymbolTableRecord
100
AcDbDimStyleTableRecord
  2
KOTY-VELKE
 70
     0
  3

  4

  5

  6

  7

 40
3.0
 41
1.5
 42
1.0
 43
10.0
 44
0.0
 45
1.0
 46
1.0
 47
0.0
 48
0.0
140
1.5
141
2.0
142
0.0
143
25.4
144
1.0
145
0.0
146
1.0
147
1.5
 71
     0
 72
     0
 73
     0
 74
     0
 75
     0
 76
     0
 77
     1
 78
     9
170
     0
171
     2
172
     1
173
     0
174
     0
175
     0
176
   170
177
   170
178
    50
270
     2
271
     0
272
     0
273
     2
274
     2
340
26
275
     0
280
     0
281
     0
282
     0
283
     1
284
     8
285
     8
286
     8
287
     5
288
     0
  0
ENDTAB
  0
TABLE
  2
BLOCK_RECORD
  5
1
100
AcDbSymbolTable
 70
    25
  0
BLOCK_RECORD
  5
2
102
{ACAD_XDICTIONARY
360
13E
102
}
100
AcDbSymbolTableRecord
100
AcDbBlockTableRecord
  2
*MODEL_SPACE
  0
BLOCK_RECORD
  5
C
102
{ACAD_XDICTIONARY
360
111
102
}
100
AcDbSymbolTableRecord
100
AcDbBlockTableRecord
  2
*PAPER_SPACE
  0
BLOCK_RECORD
  5
F24
100
AcDbSymbolTableRecord
100
AcDbBlockTableRecord
  2
*D0
  0
BLOCK_RECORD
  5
F30
100
AcDbSymbolTableRecord
100
AcDbBlockTableRecord
  2
*D1
  0
BLOCK_RECORD
  5
F3C
100
AcDbSymbolTableRecord
100
AcDbBlockTableRecord
  2
*D2
  0
BLOCK_RECORD
  5
1203
100
AcDbSymbolTableRecord
100
AcDbBlockTableRecord
  2
_DOTSMALL
  0
BLOCK_RECORD
  5
1299
100
AcDbSymbolTableRecord
100
AcDbBlockTableRecord
  2
*D4
  0
BLOCK_RECORD
  5
12A8
100
AcDbSymbolTableRecord
100
AcDbBlockTableRecord
  2
*D5
  0
BLOCK_RECORD
  5
12B4
100
AcDbSymbolTableRecord
100
AcDbBlockTableRecord
  2
*D6
  0
BLOCK_RECORD
  5
12C0
100
AcDbSymbolTableRecord
100
AcDbBlockTableRecord
  2
*D7
  0
BLOCK_RECORD
  5
14B1
100
AcDbSymbolTableRecord
100
AcDbBlockTableRecord
  2
*D8
  0
BLOCK_RECORD
  5
14C7
100
AcDbSymbolTableRecord
100
AcDbBlockTableRecord
  2
*D9
  0
BLOCK_RECORD
  5
14D6
100
AcDbSymbolTableRecord
100
AcDbBlockTableRecord
  2
*D10
  0
BLOCK_RECORD
  5
14E2
100
AcDbSymbolTableRecord
100
AcDbBlockTableRecord
  2
*D11
  0
BLOCK_RECORD
  5
14EE
100
AcDbSymbolTableRecord
100
AcDbBlockTableRecord
  2
*D12
  0
BLOCK_RECORD
  5
14FA
100
AcDbSymbolTableRecord
100
AcDbBlockTableRecord
  2
*D13
  0
BLOCK_RECORD
  5
1509
100
AcDbSymbolTableRecord
100
AcDbBlockTableRecord
  2
*D14
  0
BLOCK_RECORD
  5
1518
100
AcDbSymbolTableRecord
100
AcDbBlockTableRecord
  2
*D15
  0
BLOCK_RECORD
  5
1524
100
AcDbSymbolTableRecord
100
AcDbBlockTableRecord
  2
*D16
  0
BLOCK_RECORD
  5
1539
100
AcDbSymbolTableRecord
100
AcDbBlockTableRecord
  2
*D17
  0
BLOCK_RECORD
  5
1545
100
AcDbSymbolTableRecord
100
AcDbBlockTableRecord
  2
*D18
  0
BLOCK_RECORD
  5
1554
100
AcDbSymbolTableRecord
100
AcDbBlockTableRecord
  2
*D19
  0
BLOCK_RECORD
  5
1560
100
AcDbSymbolTableRecord
100
AcDbBlockTableRecord
  2
*D20
  0
BLOCK_RECORD
  5
156F
100
AcDbSymbolTableRecord
100
AcDbBlockTableRecord
  2
*D21
  0
BLOCK_RECORD
  5
157B
100
AcDbSymbolTableRecord
100
AcDbBlockTableRecord
  2
*D22
  0
BLOCK_RECORD
  5
158A
100
AcDbSymbolTableRecord
100
AcDbBlockTableRecord
  2
*D23
  0
BLOCK_RECORD
  5
1596
100
AcDbSymbolTableRecord
100
AcDbBlockTableRecord
  2
*D24
  0
ENDTAB
  0
ENDSEC
  0
SECTION
  2
BLOCKS
  0
BLOCK
  5
3
100
AcDbEntity
  8
0
100
AcDbBlockBegin
  2
*MODEL_SPACE
 70
     0
 10
0.0
 20
0.0
 30
0.0
  3
*MODEL_SPACE
  1

  0
ENDBLK
  5
9
100
AcDbEntity
  8
0
100
AcDbBlockEnd
  0
BLOCK
  5
D
100
AcDbEntity
 67
     1
  8
0
100
AcDbBlockBegin
  2
*PAPER_SPACE
 70
     0
 10
0.0
 20
0.0
 30
0.0
  3
*PAPER_SPACE
  1

  0
ENDBLK
  5
E
100
AcDbEntity
 67
     1
  8
0
100
AcDbBlockEnd
  0
BLOCK
  5
F25
100
AcDbEntity
  8
0
100
AcDbBlockBegin
  2
*D0
 70
     1
 10
0.0
 20
0.0
 30
0.0
  3
*D0
  1

  0
LINE
  5
F26
100
AcDbEntity
  8
0
  6
BYBLOCK
100
AcDbLine
 10
731.125141
 20
1193.255359
 30
0.0
 11
731.125141
 21
1260.503146
 31
0.0
  0
LINE
  5
F27
100
AcDbEntity
  8
0
  6
BYBLOCK
100
AcDbLine
 10
705.696023
 20
1213.673055
 30
0.0
 11
705.696023
 21
1260.503146
 31
0.0
  0
LINE
  5
F28
100
AcDbEntity
  8
0
  6
BYBLOCK
100
AcDbLine
 10
723.625141
 20
1258.003146
 30
0.0
 11
713.196023
 21
1258.003146
 31
0.0
  0
SOLID
  5
F29
100
AcDbEntity
  8
0
  6
BYBLOCK
100
AcDbTrace
 10
723.625141
 20
1259.253146
 30
0.0
 11
723.625141
 21
1256.753146
 31
0.0
 12
731.125141
 22
1258.003146
 32
0.0
 13
731.125141
 23
1258.003146
 33
0.0
  0
SOLID
  5
F2A
100
AcDbEntity
  8
0
  6
BYBLOCK
100
AcDbTrace
 10
713.196023
 20
1259.253146
 30
0.0
 11
713.196023
 21
1256.753146
 31
0.0
 12
705.696023
 22
1258.003146
 32
0.0
 13
705.696023
 23
1258.003146
 33
0.0
  0
MTEXT
  5
F2B
100
AcDbEntity
  8
0
  6
BYBLOCK
 62
     1
100
AcDbMText
 10
718.410582
 20
1264.253146
 30
0.0
 40
7.5
 41
0.0
 71
     5
 72
     1
  1
\A1;25
  7
TOM
  0
POINT
  5
F2C
100
AcDbEntity
  8
DEFPOINTS
  6
BYBLOCK
 62
     0
100
AcDbPoint
 10
731.125141
 20
1188.255359
 30
0.0
  0
POINT
  5
F2D
100
AcDbEntity
  8
DEFPOINTS
  6
BYBLOCK
 62
     0
100
AcDbPoint
 10
705.696023
 20
1208.673055
 30
0.0
  0
POINT
  5
F2E
100
AcDbEntity
  8
DEFPOINTS
  6
BYBLOCK
 62
     0
100
AcDbPoint
 10
705.696023
 20
1258.003146
 30
0.0
  0
ENDBLK
  5
F2F
100
AcDbEntity
  8
0
100
AcDbBlockEnd
  0
BLOCK
  5
F31
100
AcDbEntity
  8
0
100
AcDbBlockBegin
  2
*D1
 70
     1
 10
0.0
 20
0.0
 30
0.0
  3
*D1
  1

  0
LINE
  5
F32
100
AcDbEntity
  8
0
  6
BYBLOCK
100
AcDbLine
 10
708.125141
 20
1212.255359
 30
0.0
 11
773.518779
 21
1212.255359
 31
0.0
  0
LINE
  5
F33
100
AcDbEntity
  8
0
  6
BYBLOCK
100
AcDbLine
 10
736.125141
 20
1188.255359
 30
0.0
 11
773.518779
 21
1188.255359
 31
0.0
  0
LINE
  5
F34
100
AcDbEntity
  8
0
  6
BYBLOCK
100
AcDbLine
 10
771.018779
 20
1204.755359
 30
0.0
 11
771.018779
 21
1195.755359
 31
0.0
  0
SOLID
  5
F35
100
AcDbEntity
  8
0
  6
BYBLOCK
100
AcDbTrace
 10
769.768779
 20
1204.755359
 30
0.0
 11
772.268779
 21
1204.755359
 31
0.0
 12
771.018779
 22
1212.255359
 32
0.0
 13
771.018779
 23
1212.255359
 33
0.0
  0
SOLID
  5
F36
100
AcDbEntity
  8
0
  6
BYBLOCK
100
AcDbTrace
 10
769.768779
 20
1195.755359
 30
0.0
 11
772.268779
 21
1195.755359
 31
0.0
 12
771.018779
 22
1188.255359
 32
0.0
 13
771.018779
 23
1188.255359
 33
0.0
  0
MTEXT
  5
F37
100
AcDbEntity
  8
0
  6
BYBLOCK
 62
     1
100
AcDbMText
 10
764.768779
 20
1200.255359
 30
0.0
 40
7.5
 41
0.0
 71
     5
 72
     1
  1
\A1;24
  7
TOM
 11
0.0
 21
1.0
 31
0.0
  0
POINT
  5
F38
100
AcDbEntity
  8
DEFPOINTS
  6
BYBLOCK
 62
     0
100
AcDbPoint
 10
703.125141
 20
1212.255359
 30
0.0
  0
POINT
  5
F39
100
AcDbEntity
  8
DEFPOINTS
  6
BYBLOCK
 62
     0
100
AcDbPoint
 10
731.125141
 20
1188.255359
 30
0.0
  0
POINT
  5
F3A
100
AcDbEntity
  8
DEFPOINTS
  6
BYBLOCK
 62
     0
100
AcDbPoint
 10
771.018779
 20
1188.255359
 30
0.0
  0
ENDBLK
  5
F3B
100
AcDbEntity
  8
0
100
AcDbBlockEnd
  0
BLOCK
  5
F3D
100
AcDbEntity
  8
0
100
AcDbBlockBegin
  2
*D2
 70
     1
 10
0.0
 20
0.0
 30
0.0
  3
*D2
  1

  0
LINE
  5
F3E
100
AcDbEntity
  8
0
  6
BYBLOCK
100
AcDbLine
 10
394.625141
 20
1198.255359
 30
0.0
 11
394.625141
 21
1259.878146
 31
0.0
  0
LINE
  5
F3F
100
AcDbEntity
  8
0
  6
BYBLOCK
100
AcDbLine
 10
405.399673
 20
1201.554871
 30
0.0
 11
405.399673
 21
1259.878146
 31
0.0
  0
LINE
  5
F40
100
AcDbEntity
  8
0
  6
BYBLOCK
100
AcDbLine
 10
387.125141
 20
1257.378146
 30
0.0
 11
379.625141
 21
1257.378146
 31
0.0
  0
LINE
  5
F41
100
AcDbEntity
  8
0
  6
BYBLOCK
100
AcDbLine
 10
412.899673
 20
1257.378146
 30
0.0
 11
420.399673
 21
1257.378146
 31
0.0
  0
MTEXT
  5
F42
100
AcDbEntity
  8
0
  6
BYBLOCK
 62
     1
100
AcDbMText
 10
400.012407
 20
1267.378146
 30
0.0
 40
7.5
 41
0.0
 71
     5
 72
     1
  1
\A1;11
  7
TOM
  0
LINE
  5
F43
100
AcDbEntity
  8
0
  6
BYBLOCK
100
AcDbLine
 10
394.625141
 20
1257.378146
 30
0.0
 11
405.399673
 21
1257.378146
 31
0.0
  0
LINE
  5
F44
100
AcDbEntity
  8
0
  6
BYBLOCK
100
AcDbLine
 10
394.625141
 20
1257.378146
 30
0.0
 11
405.399673
 21
1257.378146
 31
0.0
  0
SOLID
  5
F45
100
AcDbEntity
  8
0
  6
BYBLOCK
100
AcDbTrace
 10
387.125141
 20
1258.628146
 30
0.0
 11
387.125141
 21
1256.128146
 31
0.0
 12
394.625141
 22
1257.378146
 32
0.0
 13
394.625141
 23
1257.378146
 33
0.0
  0
SOLID
  5
F46
100
AcDbEntity
  8
0
  6
BYBLOCK
100
AcDbTrace
 10
412.899673
 20
1258.628146
 30
0.0
 11
412.899673
 21
1256.128146
 31
0.0
 12
405.399673
 22
1257.378146
 32
0.0
 13
405.399673
 23
1257.378146
 33
0.0
  0
POINT
  5
F47
100
AcDbEntity
  8
DEFPOINTS
  6
BYBLOCK
 62
     0
100
AcDbPoint
 10
394.625141
 20
1193.255359
 30
0.0
  0
POINT
  5
F48
100
AcDbEntity
  8
DEFPOINTS
  6
BYBLOCK
 62
     0
100
AcDbPoint
 10
405.399673
 20
1196.554871
 30
0.0
  0
POINT
  5
F49
100
AcDbEntity
  8
DEFPOINTS
  6
BYBLOCK
 62
     0
100
AcDbPoint
 10
405.399673
 20
1257.378146
 30
0.0
  0
ENDBLK
  5
F4A
100
AcDbEntity
  8
0
100
AcDbBlockEnd
  0
BLOCK
  5
1204
100
AcDbEntity
  8
0
100
AcDbBlockBegin
  2
_DOTSMALL
 70
     0
 10
0.0
 20
0.0
 30
0.0
  3
_DOTSMALL
  1

  0
POLYLINE
  5
1205
100
AcDbEntity
  8
0
  6
BYBLOCK
 62
     0
100
AcDb2dPolyline
 66
     1
 10
0.0
 20
0.0
 30
0.0
 70
     1
 40
0.5
 41
0.5
  0
VERTEX
  5
1206
100
AcDbEntity
  8
0
  6
BYBLOCK
 62
     0
100
AcDbVertex
100
AcDb2dVertex
 10
-0.0625
 20
0.0
 30
0.0
 42
1.0
  0
VERTEX
  5
1207
100
AcDbEntity
  8
0
  6
BYBLOCK
 62
     0
100
AcDbVertex
100
AcDb2dVertex
 10
0.0625
 20
0.0
 30
0.0
 42
1.0
  0
SEQEND
  5
1208
100
AcDbEntity
  8
0
  6
BYBLOCK
 62
     0
  0
ENDBLK
  5
1209
100
AcDbEntity
  8
0
100
AcDbBlockEnd
  0
BLOCK
  5
129A
100
AcDbEntity
  8
0
100
AcDbBlockBegin
  2
*D4
 70
     1
 10
0.0
 20
0.0
 30
0.0
  3
*D4
  1

  0
LINE
  5
129B
100
AcDbEntity
  8
0
  6
BYBLOCK
100
AcDbLine
 10
736.125141
 20
1188.255359
 30
0.0
 11
756.296737
 21
1188.255359
 31
0.0
  0
LINE
  5
129C
100
AcDbEntity
  8
0
  6
BYBLOCK
100
AcDbLine
 10
708.125141
 20
1198.255359
 30
0.0
 11
756.296737
 21
1198.255359
 31
0.0
  0
LINE
  5
129D
100
AcDbEntity
  8
0
  6
BYBLOCK
100
AcDbLine
 10
753.796737
 20
1180.755359
 30
0.0
 11
753.796737
 21
1173.255359
 31
0.0
  0
LINE
  5
129E
100
AcDbEntity
  8
0
  6
BYBLOCK
100
AcDbLine
 10
753.796737
 20
1198.255359
 30
0.0
 11
753.796737
 21
1205.755359
 31
0.0
  0
MTEXT
  5
129F
100
AcDbEntity
  8
0
  6
BYBLOCK
 62
     1
100
AcDbMText
 10
746.017226
 20
1180.164906
 30
0.0
 40
7.5
 41
0.0
 71
     5
 72
     1
  1
\A1;10
  7
TOM
 11
0.0
 21
1.0
 31
0.0
  0
LINE
  5
12A0
100
AcDbEntity
  8
0
  6
BYBLOCK
100
AcDbLine
 10
753.796737
 20
1188.255359
 30
0.0
 11
753.796737
 21
1198.255359
 31
0.0
  0
LINE
  5
12A1
100
AcDbEntity
  8
0
  6
BYBLOCK
100
AcDbLine
 10
753.796737
 20
1188.255359
 30
0.0
 11
753.796737
 21
1198.255359
 31
0.0
  0
SOLID
  5
12A2
100
AcDbEntity
  8
0
  6
BYBLOCK
100
AcDbTrace
 10
752.546737
 20
1180.755359
 30
0.0
 11
755.046737
 21
1180.755359
 31
0.0
 12
753.796737
 22
1188.255359
 32
0.0
 13
753.796737
 23
1188.255359
 33
0.0
  0
INSERT
  5
12A3
100
AcDbEntity
  8
0
  6
BYBLOCK
100
AcDbBlockReference
  2
_DOTSMALL
 10
753.796737
 20
1198.255359
 30
0.0
 41
7.5
 42
7.5
 43
7.5
 50
270.0
  0
POINT
  5
12A4
100
AcDbEntity
  8
DEFPOINTS
  6
BYBLOCK
 62
     0
100
AcDbPoint
 10
731.125141
 20
1188.255359
 30
0.0
  0
POINT
  5
12A5
100
AcDbEntity
  8
DEFPOINTS
  6
BYBLOCK
 62
     0
100
AcDbPoint
 10
703.125141
 20
1198.255359
 30
0.0
  0
POINT
  5
12A6
100
AcDbEntity
  8
DEFPOINTS
  6
BYBLOCK
 62
     0
100
AcDbPoint
 10
753.796737
 20
1198.255359
 30
0.0
  0
ENDBLK
  5
12A7
100
AcDbEntity
  8
0
100
AcDbBlockEnd
  0
BLOCK
  5
12A9
100
AcDbEntity
  8
0
100
AcDbBlockBegin
  2
*D5
 70
     1
 10
0.0
 20
0.0
 30
0.0
  3
*D5
  1

  0
LINE
  5
12AA
100
AcDbEntity
  8
0
  6
BYBLOCK
100
AcDbLine
 10
708.125141
 20
1198.255359
 30
0.0
 11
756.296737
 21
1198.255359
 31
0.0
  0
LINE
  5
12AB
100
AcDbEntity
  8
0
  6
BYBLOCK
100
AcDbLine
 10
713.125141
 20
1212.255359
 30
0.0
 11
756.296737
 21
1212.255359
 31
0.0
  0
LINE
  5
12AC
100
AcDbEntity
  8
0
  6
BYBLOCK
100
AcDbLine
 10
753.796737
 20
1193.255359
 30
0.0
 11
753.796737
 21
1204.755359
 31
0.0
  0
MTEXT
  5
12AD
100
AcDbEntity
  8
0
  6
BYBLOCK
 62
     1
100
AcDbMText
 10
745.486804
 20
1205.255359
 30
0.0
 40
7.5
 41
0.0
 71
     5
 72
     1
  1
\A1;14
  7
TOM
 11
0.0
 21
1.0
 31
0.0
  0
INSERT
  5
12AE
100
AcDbEntity
  8
0
  6
BYBLOCK
100
AcDbBlockReference
  2
_DOTSMALL
 10
753.796737
 20
1198.255359
 30
0.0
 41
7.5
 42
7.5
 43
7.5
 50
270.0
  0
SOLID
  5
12AF
100
AcDbEntity
  8
0
  6
BYBLOCK
100
AcDbTrace
 10
752.546737
 20
1204.755359
 30
0.0
 11
755.046737
 21
1204.755359
 31
0.0
 12
753.796737
 22
1212.255359
 32
0.0
 13
753.796737
 23
1212.255359
 33
0.0
  0
POINT
  5
12B0
100
AcDbEntity
  8
DEFPOINTS
  6
BYBLOCK
 62
     0
100
AcDbPoint
 10
703.125141
 20
1198.255359
 30
0.0
  0
POINT
  5
12B1
100
AcDbEntity
  8
DEFPOINTS
  6
BYBLOCK
 62
     0
100
AcDbPoint
 10
708.125141
 20
1212.255359
 30
0.0
  0
POINT
  5
12B2
100
AcDbEntity
  8
DEFPOINTS
  6
BYBLOCK
 62
     0
100
AcDbPoint
 10
753.796737
 20
1212.255359
 30
0.0
  0
ENDBLK
  5
12B3
100
AcDbEntity
  8
0
100
AcDbBlockEnd
  0
BLOCK
  5
15B1
100
AcDbEntity
  8
0
100
AcDbBlockBegin
  2
*D6
 70
     1
 10
0.0
 20
0.0
 30
0.0
  3
*D6
  1

  0
LINE
  5
15B2
100
AcDbEntity
  8
0
  6
BYBLOCK
100
AcDbLine
 10
418.399673
 20
1035.056711
 30
0.0
 11
376.948079
 21
1035.056711
 31
0.0
  0
LINE
  5
15B3
100
AcDbEntity
  8
0
  6
BYBLOCK
100
AcDbLine
 10
398.860076
 20
1020.056711
 30
0.0
 11
376.948079
 21
1020.056711
 31
0.0
  0
LINE
  5
15B4
100
AcDbEntity
  8
0
  6
BYBLOCK
100
AcDbLine
 10
379.448079
 20
1027.556711
 30
0.0
 11
379.448079
 21
1015.056711
 31
0.0
  0
SOLID
  5
15B5
100
AcDbEntity
  8
0
  6
BYBLOCK
100
AcDbTrace
 10
378.198079
 20
1027.556711
 30
0.0
 11
380.698079
 21
1027.556711
 31
0.0
 12
379.448079
 22
1035.056711
 32
0.0
 13
379.448079
 23
1035.056711
 33
0.0
  0
INSERT
  5
15B6
100
AcDbEntity
  8
0
  6
BYBLOCK
100
AcDbBlockReference
  2
_DOTSMALL
 10
379.448079
 20
1020.056711
 30
0.0
 41
7.5
 42
7.5
 43
7.5
 50
270.0
  0
MTEXT
  5
15B7
100
AcDbEntity
  8
0
  6
BYBLOCK
 62
     1
100
AcDbMText
 10
373.198079
 20
1023.806711
 30
0.0
 40
7.5
 41
0.0
 71
     5
 72
     1
  1
\A1;15
  7
TOM
 11
0.0
 21
1.0
 31
0.0
  0
POINT
  5
15B8
100
AcDbEntity
  8
DEFPOINTS
  6
BYBLOCK
 62
     0
100
AcDbPoint
 10
423.399673
 20
1035.056711
 30
0.0
  0
POINT
  5
15B9
100
AcDbEntity
  8
DEFPOINTS
  6
BYBLOCK
 62
     0
100
AcDbPoint
 10
403.860076
 20
1020.056711
 30
0.0
  0
POINT
  5
15BA
100
AcDbEntity
  8
DEFPOINTS
  6
BYBLOCK
 62
     0
100
AcDbPoint
 10
379.448079
 20
1020.056711
 30
0.0
  0
ENDBLK
  5
15BB
100
AcDbEntity
  8
0
100
AcDbBlockEnd
  0
BLOCK
  5
14A0
100
AcDbEntity
  8
0
100
AcDbBlockBegin
  2
*D7
 70
     1
 10
0.0
 20
0.0
 30
0.0
  3
*D7
  1

  0
LINE
  5
14A1
100
AcDbEntity
  8
0
  6
BYBLOCK
100
AcDbLine
 10
398.860076
 20
1020.056711
 30
0.0
 11
376.948079
 21
1020.056711
 31
0.0
  0
LINE
  5
14A2
100
AcDbEntity
  8
0
  6
BYBLOCK
100
AcDbLine
 10
393.625141
 20
1012.056711
 30
0.0
 11
376.948079
 21
1012.056711
 31
0.0
  0
LINE
  5
14A3
100
AcDbEntity
  8
0
  6
BYBLOCK
100
AcDbLine
 10
379.448079
 20
1020.056711
 30
0.0
 11
379.448079
 21
1027.556711
 31
0.0
  0
LINE
  5
14A4
100
AcDbEntity
  8
0
  6
BYBLOCK
100
AcDbLine
 10
379.448079
 20
1004.556711
 30
0.0
 11
379.448079
 21
997.056711
 31
0.0
  0
MTEXT
  5
14A5
100
AcDbEntity
  8
0
  6
BYBLOCK
 62
     1
100
AcDbMText
 10
372.238645
 20
1007.017497
 30
0.0
 40
7.5
 41
0.0
 71
     5
 72
     1
  1
\A1;8
  7
TOM
 11
0.0
 21
1.0
 31
0.0
  0
LINE
  5
14A6
100
AcDbEntity
  8
0
  6
BYBLOCK
100
AcDbLine
 10
379.448079
 20
1020.056711
 30
0.0
 11
379.448079
 21
1012.056711
 31
0.0
  0
LINE
  5
14A7
100
AcDbEntity
  8
0
  6
BYBLOCK
100
AcDbLine
 10
379.448079
 20
1020.056711
 30
0.0
 11
379.448079
 21
1012.056711
 31
0.0
  0
INSERT
  5
14A8
100
AcDbEntity
  8
0
  6
BYBLOCK
100
AcDbBlockReference
  2
_DOTSMALL
 10
379.448079
 20
1020.056711
 30
0.0
 41
7.5
 42
7.5
 43
7.5
 50
270.0
  0
SOLID
  5
14A9
100
AcDbEntity
  8
0
  6
BYBLOCK
100
AcDbTrace
 10
378.198079
 20
1004.556711
 30
0.0
 11
380.698079
 21
1004.556711
 31
0.0
 12
379.448079
 22
1012.056711
 32
0.0
 13
379.448079
 23
1012.056711
 33
0.0
  0
POINT
  5
14AA
100
AcDbEntity
  8
DEFPOINTS
  6
BYBLOCK
 62
     0
100
AcDbPoint
 10
403.860076
 20
1020.056711
 30
0.0
  0
POINT
  5
14AB
100
AcDbEntity
  8
DEFPOINTS
  6
BYBLOCK
 62
     0
100
AcDbPoint
 10
398.625141
 20
1012.056711
 30
0.0
  0
POINT
  5
14AC
100
AcDbEntity
  8
DEFPOINTS
  6
BYBLOCK
 62
     0
100
AcDbPoint
 10
379.448079
 20
1012.056711
 30
0.0
  0
ENDBLK
  5
14AD
100
AcDbEntity
  8
0
100
AcDbBlockEnd
  0
BLOCK
  5
15C8
100
AcDbEntity
  8
0
100
AcDbBlockBegin
  2
*D8
 70
     1
 10
0.0
 20
0.0
 30
0.0
  3
*D8
  1

  0
LINE
  5
15C9
100
AcDbEntity
  8
0
  6
BYBLOCK
100
AcDbLine
 10
605.696023
 20
1041.474408
 30
0.0
 11
605.696023
 21
1082.679499
 31
0.0
  0
LINE
  5
15CA
100
AcDbEntity
  8
0
  6
BYBLOCK
100
AcDbLine
 10
405.399673
 20
1058.517861
 30
0.0
 11
405.399673
 21
1082.679499
 31
0.0
  0
LINE
  5
15CB
100
AcDbEntity
  8
0
  6
BYBLOCK
100
AcDbLine
 10
598.196023
 20
1080.179499
 30
0.0
 11
412.899673
 21
1080.179499
 31
0.0
  0
SOLID
  5
15CC
100
AcDbEntity
  8
0
  6
BYBLOCK
100
AcDbTrace
 10
598.196023
 20
1081.429499
 30
0.0
 11
598.196023
 21
1078.929499
 31
0.0
 12
605.696023
 22
1080.179499
 32
0.0
 13
605.696023
 23
1080.179499
 33
0.0
  0
SOLID
  5
15CD
100
AcDbEntity
  8
0
  6
BYBLOCK
100
AcDbTrace
 10
412.899673
 20
1081.429499
 30
0.0
 11
412.899673
 21
1078.929499
 31
0.0
 12
405.399673
 22
1080.179499
 32
0.0
 13
405.399673
 23
1080.179499
 33
0.0
  0
MTEXT
  5
15CE
100
AcDbEntity
  8
0
  6
BYBLOCK
 62
     1
100
AcDbMText
 10
505.547848
 20
1086.429499
 30
0.0
 40
7.5
 41
0.0
 71
     5
 72
     1
  1
\A1;200
  7
TOM
  0
POINT
  5
15CF
100
AcDbEntity
  8
DEFPOINTS
  6
BYBLOCK
 62
     0
100
AcDbPoint
 10
605.696023
 20
1036.474408
 30
0.0
  0
POINT
  5
15D0
100
AcDbEntity
  8
DEFPOINTS
  6
BYBLOCK
 62
     0
100
AcDbPoint
 10
405.399673
 20
1053.517861
 30
0.0
  0
POINT
  5
15D1
100
AcDbEntity
  8
DEFPOINTS
  6
BYBLOCK
 62
     0
100
AcDbPoint
 10
405.399673
 20
1080.179499
 30
0.0
  0
ENDBLK
  5
15D2
100
AcDbEntity
  8
0
100
AcDbBlockEnd
  0
BLOCK
  5
14C8
100
AcDbEntity
  8
0
100
AcDbBlockBegin
  2
*D9
 70
     1
 10
0.0
 20
0.0
 30
0.0
  3
*D9
  1

  0
LINE
  5
14C9
100
AcDbEntity
  8
0
  6
BYBLOCK
100
AcDbLine
 10
394.625141
 20
1021.056711
 30
0.0
 11
394.625141
 21
1082.679499
 31
0.0
  0
LINE
  5
14CA
100
AcDbEntity
  8
0
  6
BYBLOCK
100
AcDbLine
 10
405.399673
 20
1024.356224
 30
0.0
 11
405.399673
 21
1082.679499
 31
0.0
  0
LINE
  5
14CB
100
AcDbEntity
  8
0
  6
BYBLOCK
100
AcDbLine
 10
387.125141
 20
1080.179499
 30
0.0
 11
379.625141
 21
1080.179499
 31
0.0
  0
LINE
  5
14CC
100
AcDbEntity
  8
0
  6
BYBLOCK
100
AcDbLine
 10
412.899673
 20
1080.179499
 30
0.0
 11
420.399673
 21
1080.179499
 31
0.0
  0
MTEXT
  5
14CD
100
AcDbEntity
  8
0
  6
BYBLOCK
 62
     1
100
AcDbMText
 10
400.012407
 20
1090.179499
 30
0.0
 40
7.5
 41
0.0
 71
     5
 72
     1
  1
\A1;11
  7
TOM
  0
LINE
  5
14CE
100
AcDbEntity
  8
0
  6
BYBLOCK
100
AcDbLine
 10
394.625141
 20
1080.179499
 30
0.0
 11
405.399673
 21
1080.179499
 31
0.0
  0
LINE
  5
14CF
100
AcDbEntity
  8
0
  6
BYBLOCK
100
AcDbLine
 10
394.625141
 20
1080.179499
 30
0.0
 11
405.399673
 21
1080.179499
 31
0.0
  0
SOLID
  5
14D0
100
AcDbEntity
  8
0
  6
BYBLOCK
100
AcDbTrace
 10
387.125141
 20
1081.429499
 30
0.0
 11
387.125141
 21
1078.929499
 31
0.0
 12
394.625141
 22
1080.179499
 32
0.0
 13
394.625141
 23
1080.179499
 33
0.0
  0
SOLID
  5
14D1
100
AcDbEntity
  8
0
  6
BYBLOCK
100
AcDbTrace
 10
412.899673
 20
1081.429499
 30
0.0
 11
412.899673
 21
1078.929499
 31
0.0
 12
405.399673
 22
1080.179499
 32
0.0
 13
405.399673
 23
1080.179499
 33
0.0
  0
POINT
  5
14D2
100
AcDbEntity
  8
DEFPOINTS
  6
BYBLOCK
 62
     0
100
AcDbPoint
 10
394.625141
 20
1016.056711
 30
0.0
  0
POINT
  5
14D3
100
AcDbEntity
  8
DEFPOINTS
  6
BYBLOCK
 62
     0
100
AcDbPoint
 10
405.399673
 20
1019.356224
 30
0.0
  0
POINT
  5
14D4
100
AcDbEntity
  8
DEFPOINTS
  6
BYBLOCK
 62
     0
100
AcDbPoint
 10
405.399673
 20
1080.179499
 30
0.0
  0
ENDBLK
  5
14D5
100
AcDbEntity
  8
0
100
AcDbBlockEnd
  0
BLOCK
  5
15E2
100
AcDbEntity
  8
0
100
AcDbBlockBegin
  2
*D10
 70
     1
 10
0.0
 20
0.0
 30
0.0
  3
*D10
  1

  0
LINE
  5
15E3
100
AcDbEntity
  8
0
  6
BYBLOCK
100
AcDbLine
 10
730.125141
 20
894.858986
 30
0.0
 11
730.125141
 21
962.106774
 31
0.0
  0
LINE
  5
15E4
100
AcDbEntity
  8
0
  6
BYBLOCK
100
AcDbLine
 10
704.696023
 20
915.276683
 30
0.0
 11
704.696023
 21
962.106774
 31
0.0
  0
LINE
  5
15E5
100
AcDbEntity
  8
0
  6
BYBLOCK
100
AcDbLine
 10
722.625141
 20
959.606774
 30
0.0
 11
712.196023
 21
959.606774
 31
0.0
  0
SOLID
  5
15E6
100
AcDbEntity
  8
0
  6
BYBLOCK
100
AcDbTrace
 10
722.625141
 20
960.856774
 30
0.0
 11
722.625141
 21
958.356774
 31
0.0
 12
730.125141
 22
959.606774
 32
0.0
 13
730.125141
 23
959.606774
 33
0.0
  0
SOLID
  5
15E7
100
AcDbEntity
  8
0
  6
BYBLOCK
100
AcDbTrace
 10
712.196023
 20
960.856774
 30
0.0
 11
712.196023
 21
958.356774
 31
0.0
 12
704.696023
 22
959.606774
 32
0.0
 13
704.696023
 23
959.606774
 33
0.0
  0
MTEXT
  5
15E8
100
AcDbEntity
  8
0
  6
BYBLOCK
 62
     1
100
AcDbMText
 10
717.410582
 20
965.856774
 30
0.0
 40
7.5
 41
0.0
 71
     5
 72
     1
  1
\A1;25
  7
TOM
  0
POINT
  5
15E9
100
AcDbEntity
  8
DEFPOINTS
  6
BYBLOCK
 62
     0
100
AcDbPoint
 10
730.125141
 20
889.858986
 30
0.0
  0
POINT
  5
15EA
100
AcDbEntity
  8
DEFPOINTS
  6
BYBLOCK
 62
     0
100
AcDbPoint
 10
704.696023
 20
910.276683
 30
0.0
  0
POINT
  5
15EB
100
AcDbEntity
  8
DEFPOINTS
  6
BYBLOCK
 62
     0
100
AcDbPoint
 10
704.696023
 20
959.606774
 30
0.0
  0
ENDBLK
  5
15EC
100
AcDbEntity
  8
0
100
AcDbBlockEnd
  0
BLOCK
  5
14E3
100
AcDbEntity
  8
0
100
AcDbBlockBegin
  2
*D11
 70
     1
 10
0.0
 20
0.0
 30
0.0
  3
*D11
  1

  0
LINE
  5
14E4
100
AcDbEntity
  8
0
  6
BYBLOCK
100
AcDbLine
 10
708.125141
 20
1035.056711
 30
0.0
 11
773.518779
 21
1035.056711
 31
0.0
  0
LINE
  5
14E5
100
AcDbEntity
  8
0
  6
BYBLOCK
100
AcDbLine
 10
736.125141
 20
1011.056711
 30
0.0
 11
773.518779
 21
1011.056711
 31
0.0
  0
LINE
  5
14E6
100
AcDbEntity
  8
0
  6
BYBLOCK
100
AcDbLine
 10
771.018779
 20
1027.556711
 30
0.0
 11
771.018779
 21
1018.556711
 31
0.0
  0
SOLID
  5
14E7
100
AcDbEntity
  8
0
  6
BYBLOCK
100
AcDbTrace
 10
769.768779
 20
1027.556711
 30
0.0
 11
772.268779
 21
1027.556711
 31
0.0
 12
771.018779
 22
1035.056711
 32
0.0
 13
771.018779
 23
1035.056711
 33
0.0
  0
SOLID
  5
14E8
100
AcDbEntity
  8
0
  6
BYBLOCK
100
AcDbTrace
 10
769.768779
 20
1018.556711
 30
0.0
 11
772.268779
 21
1018.556711
 31
0.0
 12
771.018779
 22
1011.056711
 32
0.0
 13
771.018779
 23
1011.056711
 33
0.0
  0
MTEXT
  5
14E9
100
AcDbEntity
  8
0
  6
BYBLOCK
 62
     1
100
AcDbMText
 10
764.768779
 20
1023.056711
 30
0.0
 40
7.5
 41
0.0
 71
     5
 72
     1
  1
\A1;24
  7
TOM
 11
0.0
 21
1.0
 31
0.0
  0
POINT
  5
14EA
100
AcDbEntity
  8
DEFPOINTS
  6
BYBLOCK
 62
     0
100
AcDbPoint
 10
703.125141
 20
1035.056711
 30
0.0
  0
POINT
  5
14EB
100
AcDbEntity
  8
DEFPOINTS
  6
BYBLOCK
 62
     0
100
AcDbPoint
 10
731.125141
 20
1011.056711
 30
0.0
  0
POINT
  5
14EC
100
AcDbEntity
  8
DEFPOINTS
  6
BYBLOCK
 62
     0
100
AcDbPoint
 10
771.018779
 20
1011.056711
 30
0.0
  0
ENDBLK
  5
14ED
100
AcDbEntity
  8
0
100
AcDbBlockEnd
  0
BLOCK
  5
14EF
100
AcDbEntity
  8
0
100
AcDbBlockBegin
  2
*D12
 70
     1
 10
0.0
 20
0.0
 30
0.0
  3
*D12
  1

  0
LINE
  5
14F0
100
AcDbEntity
  8
0
  6
BYBLOCK
100
AcDbLine
 10
708.125141
 20
1021.056711
 30
0.0
 11
756.296737
 21
1021.056711
 31
0.0
  0
LINE
  5
14F1
100
AcDbEntity
  8
0
  6
BYBLOCK
100
AcDbLine
 10
713.125141
 20
1035.056711
 30
0.0
 11
756.296737
 21
1035.056711
 31
0.0
  0
LINE
  5
14F2
100
AcDbEntity
  8
0
  6
BYBLOCK
100
AcDbLine
 10
753.796737
 20
1016.056711
 30
0.0
 11
753.796737
 21
1027.556711
 31
0.0
  0
MTEXT
  5
14F3
100
AcDbEntity
  8
0
  6
BYBLOCK
 62
     1
100
AcDbMText
 10
745.486804
 20
1028.056711
 30
0.0
 40
7.5
 41
0.0
 71
     5
 72
     1
  1
\A1;14
  7
TOM
 11
0.0
 21
1.0
 31
0.0
  0
INSERT
  5
14F4
100
AcDbEntity
  8
0
  6
BYBLOCK
100
AcDbBlockReference
  2
_DOTSMALL
 10
753.796737
 20
1021.056711
 30
0.0
 41
7.5
 42
7.5
 43
7.5
 50
270.0
  0
SOLID
  5
14F5
100
AcDbEntity
  8
0
  6
BYBLOCK
100
AcDbTrace
 10
752.546737
 20
1027.556711
 30
0.0
 11
755.046737
 21
1027.556711
 31
0.0
 12
753.796737
 22
1035.056711
 32
0.0
 13
753.796737
 23
1035.056711
 33
0.0
  0
POINT
  5
14F6
100
AcDbEntity
  8
DEFPOINTS
  6
BYBLOCK
 62
     0
100
AcDbPoint
 10
703.125141
 20
1021.056711
 30
0.0
  0
POINT
  5
14F7
100
AcDbEntity
  8
DEFPOINTS
  6
BYBLOCK
 62
     0
100
AcDbPoint
 10
708.125141
 20
1035.056711
 30
0.0
  0
POINT
  5
14F8
100
AcDbEntity
  8
DEFPOINTS
  6
BYBLOCK
 62
     0
100
AcDbPoint
 10
753.796737
 20
1035.056711
 30
0.0
  0
ENDBLK
  5
14F9
100
AcDbEntity
  8
0
100
AcDbBlockEnd
  0
BLOCK
  5
14FB
100
AcDbEntity
  8
0
100
AcDbBlockBegin
  2
*D13
 70
     1
 10
0.0
 20
0.0
 30
0.0
  3
*D13
  1

  0
LINE
  5
14FC
100
AcDbEntity
  8
0
  6
BYBLOCK
100
AcDbLine
 10
736.125141
 20
1011.056711
 30
0.0
 11
756.296737
 21
1011.056711
 31
0.0
  0
LINE
  5
14FD
100
AcDbEntity
  8
0
  6
BYBLOCK
100
AcDbLine
 10
708.125141
 20
1021.056711
 30
0.0
 11
756.296737
 21
1021.056711
 31
0.0
  0
LINE
  5
14FE
100
AcDbEntity
  8
0
  6
BYBLOCK
100
AcDbLine
 10
753.796737
 20
1003.556711
 30
0.0
 11
753.796737
 21
996.056711
 31
0.0
  0
LINE
  5
14FF
100
AcDbEntity
  8
0
  6
BYBLOCK
100
AcDbLine
 10
753.796737
 20
1021.056711
 30
0.0
 11
753.796737
 21
1028.556711
 31
0.0
  0
MTEXT
  5
1500
100
AcDbEntity
  8
0
  6
BYBLOCK
 62
     1
100
AcDbMText
 10
746.017226
 20
1002.966259
 30
0.0
 40
7.5
 41
0.0
 71
     5
 72
     1
  1
\A1;10
  7
TOM
 11
0.0
 21
1.0
 31
0.0
  0
LINE
  5
1501
100
AcDbEntity
  8
0
  6
BYBLOCK
100
AcDbLine
 10
753.796737
 20
1011.056711
 30
0.0
 11
753.796737
 21
1021.056711
 31
0.0
  0
LINE
  5
1502
100
AcDbEntity
  8
0
  6
BYBLOCK
100
AcDbLine
 10
753.796737
 20
1011.056711
 30
0.0
 11
753.796737
 21
1021.056711
 31
0.0
  0
SOLID
  5
1503
100
AcDbEntity
  8
0
  6
BYBLOCK
100
AcDbTrace
 10
752.546737
 20
1003.556711
 30
0.0
 11
755.046737
 21
1003.556711
 31
0.0
 12
753.796737
 22
1011.056711
 32
0.0
 13
753.796737
 23
1011.056711
 33
0.0
  0
INSERT
  5
1504
100
AcDbEntity
  8
0
  6
BYBLOCK
100
AcDbBlockReference
  2
_DOTSMALL
 10
753.796737
 20
1021.056711
 30
0.0
 41
7.5
 42
7.5
 43
7.5
 50
270.0
  0
POINT
  5
1505
100
AcDbEntity
  8
DEFPOINTS
  6
BYBLOCK
 62
     0
100
AcDbPoint
 10
731.125141
 20
1011.056711
 30
0.0
  0
POINT
  5
1506
100
AcDbEntity
  8
DEFPOINTS
  6
BYBLOCK
 62
     0
100
AcDbPoint
 10
703.125141
 20
1021.056711
 30
0.0
  0
POINT
  5
1507
100
AcDbEntity
  8
DEFPOINTS
  6
BYBLOCK
 62
     0
100
AcDbPoint
 10
753.796737
 20
1021.056711
 30
0.0
  0
ENDBLK
  5
1508
100
AcDbEntity
  8
0
100
AcDbBlockEnd
  0
BLOCK
  5
150A
100
AcDbEntity
  8
0
100
AcDbBlockBegin
  2
*D14
 70
     1
 10
0.0
 20
0.0
 30
0.0
  3
*D14
  1

  0
LINE
  5
150B
100
AcDbEntity
  8
0
  6
BYBLOCK
100
AcDbLine
 10
398.860076
 20
1020.056711
 30
0.0
 11
376.948079
 21
1020.056711
 31
0.0
  0
LINE
  5
150C
100
AcDbEntity
  8
0
  6
BYBLOCK
100
AcDbLine
 10
393.625141
 20
1012.056711
 30
0.0
 11
376.948079
 21
1012.056711
 31
0.0
  0
LINE
  5
150D
100
AcDbEntity
  8
0
  6
BYBLOCK
100
AcDbLine
 10
379.448079
 20
1020.056711
 30
0.0
 11
379.448079
 21
1027.556711
 31
0.0
  0
LINE
  5
150E
100
AcDbEntity
  8
0
  6
BYBLOCK
100
AcDbLine
 10
379.448079
 20
1004.556711
 30
0.0
 11
379.448079
 21
997.056711
 31
0.0
  0
MTEXT
  5
150F
100
AcDbEntity
  8
0
  6
BYBLOCK
 62
     1
100
AcDbMText
 10
372.238645
 20
1007.017497
 30
0.0
 40
7.5
 41
0.0
 71
     5
 72
     1
  1
\A1;8
  7
TOM
 11
0.0
 21
1.0
 31
0.0
  0
LINE
  5
1510
100
AcDbEntity
  8
0
  6
BYBLOCK
100
AcDbLine
 10
379.448079
 20
1020.056711
 30
0.0
 11
379.448079
 21
1012.056711
 31
0.0
  0
LINE
  5
1511
100
AcDbEntity
  8
0
  6
BYBLOCK
100
AcDbLine
 10
379.448079
 20
1020.056711
 30
0.0
 11
379.448079
 21
1012.056711
 31
0.0
  0
INSERT
  5
1512
100
AcDbEntity
  8
0
  6
BYBLOCK
100
AcDbBlockReference
  2
_DOTSMALL
 10
379.448079
 20
1020.056711
 30
0.0
 41
7.5
 42
7.5
 43
7.5
 50
270.0
  0
SOLID
  5
1513
100
AcDbEntity
  8
0
  6
BYBLOCK
100
AcDbTrace
 10
378.198079
 20
1004.556711
 30
0.0
 11
380.698079
 21
1004.556711
 31
0.0
 12
379.448079
 22
1012.056711
 32
0.0
 13
379.448079
 23
1012.056711
 33
0.0
  0
POINT
  5
1514
100
AcDbEntity
  8
DEFPOINTS
  6
BYBLOCK
 62
     0
100
AcDbPoint
 10
403.860076
 20
1020.056711
 30
0.0
  0
POINT
  5
1515
100
AcDbEntity
  8
DEFPOINTS
  6
BYBLOCK
 62
     0
100
AcDbPoint
 10
398.625141
 20
1012.056711
 30
0.0
  0
POINT
  5
1516
100
AcDbEntity
  8
DEFPOINTS
  6
BYBLOCK
 62
     0
100
AcDbPoint
 10
379.448079
 20
1012.056711
 30
0.0
  0
ENDBLK
  5
1517
100
AcDbEntity
  8
0
100
AcDbBlockEnd
  0
BLOCK
  5
15F8
100
AcDbEntity
  8
0
100
AcDbBlockBegin
  2
*D15
 70
     1
 10
0.0
 20
0.0
 30
0.0
  3
*D15
  1

  0
LINE
  5
15F9
100
AcDbEntity
  8
0
  6
BYBLOCK
100
AcDbLine
 10
419.399673
 20
914.483986
 30
0.0
 11
376.948079
 21
914.483986
 31
0.0
  0
LINE
  5
15FA
100
AcDbEntity
  8
0
  6
BYBLOCK
100
AcDbLine
 10
398.860076
 20
899.483986
 30
0.0
 11
376.948079
 21
899.483986
 31
0.0
  0
LINE
  5
15FB
100
AcDbEntity
  8
0
  6
BYBLOCK
100
AcDbLine
 10
379.448079
 20
906.983986
 30
0.0
 11
379.448079
 21
894.483986
 31
0.0
  0
SOLID
  5
15FC
100
AcDbEntity
  8
0
  6
BYBLOCK
100
AcDbTrace
 10
378.198079
 20
906.983986
 30
0.0
 11
380.698079
 21
906.983986
 31
0.0
 12
379.448079
 22
914.483986
 32
0.0
 13
379.448079
 23
914.483986
 33
0.0
  0
INSERT
  5
15FD
100
AcDbEntity
  8
0
  6
BYBLOCK
100
AcDbBlockReference
  2
_DOTSMALL
 10
379.448079
 20
899.483986
 30
0.0
 41
7.5
 42
7.5
 43
7.5
 50
270.0
  0
MTEXT
  5
15FE
100
AcDbEntity
  8
0
  6
BYBLOCK
 62
     1
100
AcDbMText
 10
373.198079
 20
903.233986
 30
0.0
 40
7.5
 41
0.0
 71
     5
 72
     1
  1
\A1;15
  7
TOM
 11
0.0
 21
1.0
 31
0.0
  0
POINT
  5
15FF
100
AcDbEntity
  8
DEFPOINTS
  6
BYBLOCK
 62
     0
100
AcDbPoint
 10
424.399673
 20
914.483986
 30
0.0
  0
POINT
  5
1600
100
AcDbEntity
  8
DEFPOINTS
  6
BYBLOCK
 62
     0
100
AcDbPoint
 10
403.860076
 20
899.483986
 30
0.0
  0
POINT
  5
1601
100
AcDbEntity
  8
DEFPOINTS
  6
BYBLOCK
 62
     0
100
AcDbPoint
 10
379.448079
 20
899.483986
 30
0.0
  0
ENDBLK
  5
1602
100
AcDbEntity
  8
0
100
AcDbBlockEnd
  0
BLOCK
  5
1603
100
AcDbEntity
  8
0
100
AcDbBlockBegin
  2
*D16
 70
     1
 10
0.0
 20
0.0
 30
0.0
  3
*D16
  1

  0
LINE
  5
1604
100
AcDbEntity
  8
0
  6
BYBLOCK
100
AcDbLine
 10
655.696023
 20
920.901683
 30
0.0
 11
655.696023
 21
962.106774
 31
0.0
  0
LINE
  5
1605
100
AcDbEntity
  8
0
  6
BYBLOCK
100
AcDbLine
 10
405.399673
 20
937.945136
 30
0.0
 11
405.399673
 21
962.106774
 31
0.0
  0
LINE
  5
1606
100
AcDbEntity
  8
0
  6
BYBLOCK
100
AcDbLine
 10
648.196023
 20
959.606774
 30
0.0
 11
412.899673
 21
959.606774
 31
0.0
  0
SOLID
  5
1607
100
AcDbEntity
  8
0
  6
BYBLOCK
100
AcDbTrace
 10
648.196023
 20
960.856774
 30
0.0
 11
648.196023
 21
958.356774
 31
0.0
 12
655.696023
 22
959.606774
 32
0.0
 13
655.696023
 23
959.606774
 33
0.0
  0
SOLID
  5
1608
100
AcDbEntity
  8
0
  6
BYBLOCK
100
AcDbTrace
 10
412.899673
 20
960.856774
 30
0.0
 11
412.899673
 21
958.356774
 31
0.0
 12
405.399673
 22
959.606774
 32
0.0
 13
405.399673
 23
959.606774
 33
0.0
  0
MTEXT
  5
1609
100
AcDbEntity
  8
0
  6
BYBLOCK
 62
     1
100
AcDbMText
 10
530.547848
 20
965.856774
 30
0.0
 40
7.5
 41
0.0
 71
     5
 72
     1
  1
\A1;250
  7
TOM
  0
POINT
  5
160A
100
AcDbEntity
  8
DEFPOINTS
  6
BYBLOCK
 62
     0
100
AcDbPoint
 10
655.696023
 20
915.901683
 30
0.0
  0
POINT
  5
160B
100
AcDbEntity
  8
DEFPOINTS
  6
BYBLOCK
 62
     0
100
AcDbPoint
 10
405.399673
 20
932.945136
 30
0.0
  0
POINT
  5
160C
100
AcDbEntity
  8
DEFPOINTS
  6
BYBLOCK
 62
     0
100
AcDbPoint
 10
405.399673
 20
959.606774
 30
0.0
  0
ENDBLK
  5
160D
100
AcDbEntity
  8
0
100
AcDbBlockEnd
  0
BLOCK
  5
153A
100
AcDbEntity
  8
0
100
AcDbBlockBegin
  2
*D17
 70
     1
 10
0.0
 20
0.0
 30
0.0
  3
*D17
  1

  0
LINE
  5
153B
100
AcDbEntity
  8
0
  6
BYBLOCK
100
AcDbLine
 10
705.696023
 20
920.901683
 30
0.0
 11
705.696023
 21
962.106774
 31
0.0
  0
LINE
  5
153C
100
AcDbEntity
  8
0
  6
BYBLOCK
100
AcDbLine
 10
405.399673
 20
937.945136
 30
0.0
 11
405.399673
 21
962.106774
 31
0.0
  0
LINE
  5
153D
100
AcDbEntity
  8
0
  6
BYBLOCK
100
AcDbLine
 10
698.196023
 20
959.606774
 30
0.0
 11
412.899673
 21
959.606774
 31
0.0
  0
SOLID
  5
153E
100
AcDbEntity
  8
0
  6
BYBLOCK
100
AcDbTrace
 10
698.196023
 20
960.856774
 30
0.0
 11
698.196023
 21
958.356774
 31
0.0
 12
705.696023
 22
959.606774
 32
0.0
 13
705.696023
 23
959.606774
 33
0.0
  0
SOLID
  5
153F
100
AcDbEntity
  8
0
  6
BYBLOCK
100
AcDbTrace
 10
412.899673
 20
960.856774
 30
0.0
 11
412.899673
 21
958.356774
 31
0.0
 12
405.399673
 22
959.606774
 32
0.0
 13
405.399673
 23
959.606774
 33
0.0
  0
MTEXT
  5
1540
100
AcDbEntity
  8
0
  6
BYBLOCK
 62
     1
100
AcDbMText
 10
555.547848
 20
965.856774
 30
0.0
 40
7.5
 41
0.0
 71
     5
 72
     1
  1
\A1;300
  7
TOM
  0
POINT
  5
1541
100
AcDbEntity
  8
DEFPOINTS
  6
BYBLOCK
 62
     0
100
AcDbPoint
 10
705.696023
 20
915.901683
 30
0.0
  0
POINT
  5
1542
100
AcDbEntity
  8
DEFPOINTS
  6
BYBLOCK
 62
     0
100
AcDbPoint
 10
405.399673
 20
932.945136
 30
0.0
  0
POINT
  5
1543
100
AcDbEntity
  8
DEFPOINTS
  6
BYBLOCK
 62
     0
100
AcDbPoint
 10
405.399673
 20
959.606774
 30
0.0
  0
ENDBLK
  5
1544
100
AcDbEntity
  8
0
100
AcDbBlockEnd
  0
BLOCK
  5
1546
100
AcDbEntity
  8
0
100
AcDbBlockBegin
  2
*D18
 70
     1
 10
0.0
 20
0.0
 30
0.0
  3
*D18
  1

  0
LINE
  5
1547
100
AcDbEntity
  8
0
  6
BYBLOCK
100
AcDbLine
 10
394.625141
 20
900.483986
 30
0.0
 11
394.625141
 21
962.106774
 31
0.0
  0
LINE
  5
1548
100
AcDbEntity
  8
0
  6
BYBLOCK
100
AcDbLine
 10
405.399673
 20
903.783498
 30
0.0
 11
405.399673
 21
962.106774
 31
0.0
  0
LINE
  5
1549
100
AcDbEntity
  8
0
  6
BYBLOCK
100
AcDbLine
 10
387.125141
 20
959.606774
 30
0.0
 11
379.625141
 21
959.606774
 31
0.0
  0
LINE
  5
154A
100
AcDbEntity
  8
0
  6
BYBLOCK
100
AcDbLine
 10
412.899673
 20
959.606774
 30
0.0
 11
420.399673
 21
959.606774
 31
0.0
  0
MTEXT
  5
154B
100
AcDbEntity
  8
0
  6
BYBLOCK
 62
     1
100
AcDbMText
 10
400.012407
 20
969.606774
 30
0.0
 40
7.5
 41
0.0
 71
     5
 72
     1
  1
\A1;11
  7
TOM
  0
LINE
  5
154C
100
AcDbEntity
  8
0
  6
BYBLOCK
100
AcDbLine
 10
394.625141
 20
959.606774
 30
0.0
 11
405.399673
 21
959.606774
 31
0.0
  0
LINE
  5
154D
100
AcDbEntity
  8
0
  6
BYBLOCK
100
AcDbLine
 10
394.625141
 20
959.606774
 30
0.0
 11
405.399673
 21
959.606774
 31
0.0
  0
SOLID
  5
154E
100
AcDbEntity
  8
0
  6
BYBLOCK
100
AcDbTrace
 10
387.125141
 20
960.856774
 30
0.0
 11
387.125141
 21
958.356774
 31
0.0
 12
394.625141
 22
959.606774
 32
0.0
 13
394.625141
 23
959.606774
 33
0.0
  0
SOLID
  5
154F
100
AcDbEntity
  8
0
  6
BYBLOCK
100
AcDbTrace
 10
412.899673
 20
960.856774
 30
0.0
 11
412.899673
 21
958.356774
 31
0.0
 12
405.399673
 22
959.606774
 32
0.0
 13
405.399673
 23
959.606774
 33
0.0
  0
POINT
  5
1550
100
AcDbEntity
  8
DEFPOINTS
  6
BYBLOCK
 62
     0
100
AcDbPoint
 10
394.625141
 20
895.483986
 30
0.0
  0
POINT
  5
1551
100
AcDbEntity
  8
DEFPOINTS
  6
BYBLOCK
 62
     0
100
AcDbPoint
 10
405.399673
 20
898.783498
 30
0.0
  0
POINT
  5
1552
100
AcDbEntity
  8
DEFPOINTS
  6
BYBLOCK
 62
     0
100
AcDbPoint
 10
405.399673
 20
959.606774
 30
0.0
  0
ENDBLK
  5
1553
100
AcDbEntity
  8
0
100
AcDbBlockEnd
  0
BLOCK
  5
1555
100
AcDbEntity
  8
0
100
AcDbBlockBegin
  2
*D19
 70
     1
 10
0.0
 20
0.0
 30
0.0
  3
*D19
  1

  0
LINE
  5
1556
100
AcDbEntity
  8
0
  6
BYBLOCK
100
AcDbLine
 10
420.399673
 20
914.483986
 30
0.0
 11
376.948079
 21
914.483986
 31
0.0
  0
LINE
  5
1557
100
AcDbEntity
  8
0
  6
BYBLOCK
100
AcDbLine
 10
398.860076
 20
899.483986
 30
0.0
 11
376.948079
 21
899.483986
 31
0.0
  0
LINE
  5
1558
100
AcDbEntity
  8
0
  6
BYBLOCK
100
AcDbLine
 10
379.448079
 20
906.983986
 30
0.0
 11
379.448079
 21
894.483986
 31
0.0
  0
SOLID
  5
1559
100
AcDbEntity
  8
0
  6
BYBLOCK
100
AcDbTrace
 10
378.198079
 20
906.983986
 30
0.0
 11
380.698079
 21
906.983986
 31
0.0
 12
379.448079
 22
914.483986
 32
0.0
 13
379.448079
 23
914.483986
 33
0.0
  0
INSERT
  5
155A
100
AcDbEntity
  8
0
  6
BYBLOCK
100
AcDbBlockReference
  2
_DOTSMALL
 10
379.448079
 20
899.483986
 30
0.0
 41
7.5
 42
7.5
 43
7.5
 50
270.0
  0
MTEXT
  5
155B
100
AcDbEntity
  8
0
  6
BYBLOCK
 62
     1
100
AcDbMText
 10
373.198079
 20
903.233986
 30
0.0
 40
7.5
 41
0.0
 71
     5
 72
     1
  1
\A1;15
  7
TOM
 11
0.0
 21
1.0
 31
0.0
  0
POINT
  5
155C
100
AcDbEntity
  8
DEFPOINTS
  6
BYBLOCK
 62
     0
100
AcDbPoint
 10
425.399673
 20
914.483986
 30
0.0
  0
POINT
  5
155D
100
AcDbEntity
  8
DEFPOINTS
  6
BYBLOCK
 62
     0
100
AcDbPoint
 10
403.860076
 20
899.483986
 30
0.0
  0
POINT
  5
155E
100
AcDbEntity
  8
DEFPOINTS
  6
BYBLOCK
 62
     0
100
AcDbPoint
 10
379.448079
 20
899.483986
 30
0.0
  0
ENDBLK
  5
155F
100
AcDbEntity
  8
0
100
AcDbBlockEnd
  0
BLOCK
  5
1561
100
AcDbEntity
  8
0
100
AcDbBlockBegin
  2
*D20
 70
     1
 10
0.0
 20
0.0
 30
0.0
  3
*D20
  1

  0
LINE
  5
1562
100
AcDbEntity
  8
0
  6
BYBLOCK
100
AcDbLine
 10
398.860076
 20
899.483986
 30
0.0
 11
376.948079
 21
899.483986
 31
0.0
  0
LINE
  5
1563
100
AcDbEntity
  8
0
  6
BYBLOCK
100
AcDbLine
 10
393.625141
 20
891.483986
 30
0.0
 11
376.948079
 21
891.483986
 31
0.0
  0
LINE
  5
1564
100
AcDbEntity
  8
0
  6
BYBLOCK
100
AcDbLine
 10
379.448079
 20
899.483986
 30
0.0
 11
379.448079
 21
906.983986
 31
0.0
  0
LINE
  5
1565
100
AcDbEntity
  8
0
  6
BYBLOCK
100
AcDbLine
 10
379.448079
 20
883.983986
 30
0.0
 11
379.448079
 21
876.483986
 31
0.0
  0
MTEXT
  5
1566
100
AcDbEntity
  8
0
  6
BYBLOCK
 62
     1
100
AcDbMText
 10
372.238645
 20
886.444771
 30
0.0
 40
7.5
 41
0.0
 71
     5
 72
     1
  1
\A1;8
  7
TOM
 11
0.0
 21
1.0
 31
0.0
  0
LINE
  5
1567
100
AcDbEntity
  8
0
  6
BYBLOCK
100
AcDbLine
 10
379.448079
 20
899.483986
 30
0.0
 11
379.448079
 21
891.483986
 31
0.0
  0
LINE
  5
1568
100
AcDbEntity
  8
0
  6
BYBLOCK
100
AcDbLine
 10
379.448079
 20
899.483986
 30
0.0
 11
379.448079
 21
891.483986
 31
0.0
  0
INSERT
  5
1569
100
AcDbEntity
  8
0
  6
BYBLOCK
100
AcDbBlockReference
  2
_DOTSMALL
 10
379.448079
 20
899.483986
 30
0.0
 41
7.5
 42
7.5
 43
7.5
 50
270.0
  0
SOLID
  5
156A
100
AcDbEntity
  8
0
  6
BYBLOCK
100
AcDbTrace
 10
378.198079
 20
883.983986
 30
0.0
 11
380.698079
 21
883.983986
 31
0.0
 12
379.448079
 22
891.483986
 32
0.0
 13
379.448079
 23
891.483986
 33
0.0
  0
POINT
  5
156B
100
AcDbEntity
  8
DEFPOINTS
  6
BYBLOCK
 62
     0
100
AcDbPoint
 10
403.860076
 20
899.483986
 30
0.0
  0
POINT
  5
156C
100
AcDbEntity
  8
DEFPOINTS
  6
BYBLOCK
 62
     0
100
AcDbPoint
 10
398.625141
 20
891.483986
 30
0.0
  0
POINT
  5
156D
100
AcDbEntity
  8
DEFPOINTS
  6
BYBLOCK
 62
     0
100
AcDbPoint
 10
379.448079
 20
891.483986
 30
0.0
  0
ENDBLK
  5
156E
100
AcDbEntity
  8
0
100
AcDbBlockEnd
  0
BLOCK
  5
1570
100
AcDbEntity
  8
0
100
AcDbBlockBegin
  2
*D21
 70
     1
 10
0.0
 20
0.0
 30
0.0
  3
*D21
  1

  0
LINE
  5
1571
100
AcDbEntity
  8
0
  6
BYBLOCK
100
AcDbLine
 10
731.125141
 20
894.858986
 30
0.0
 11
731.125141
 21
962.106774
 31
0.0
  0
LINE
  5
1572
100
AcDbEntity
  8
0
  6
BYBLOCK
100
AcDbLine
 10
705.696023
 20
915.276683
 30
0.0
 11
705.696023
 21
962.106774
 31
0.0
  0
LINE
  5
1573
100
AcDbEntity
  8
0
  6
BYBLOCK
100
AcDbLine
 10
723.625141
 20
959.606774
 30
0.0
 11
713.196023
 21
959.606774
 31
0.0
  0
SOLID
  5
1574
100
AcDbEntity
  8
0
  6
BYBLOCK
100
AcDbTrace
 10
723.625141
 20
960.856774
 30
0.0
 11
723.625141
 21
958.356774
 31
0.0
 12
731.125141
 22
959.606774
 32
0.0
 13
731.125141
 23
959.606774
 33
0.0
  0
SOLID
  5
1575
100
AcDbEntity
  8
0
  6
BYBLOCK
100
AcDbTrace
 10
713.196023
 20
960.856774
 30
0.0
 11
713.196023
 21
958.356774
 31
0.0
 12
705.696023
 22
959.606774
 32
0.0
 13
705.696023
 23
959.606774
 33
0.0
  0
MTEXT
  5
1576
100
AcDbEntity
  8
0
  6
BYBLOCK
 62
     1
100
AcDbMText
 10
718.410582
 20
965.856774
 30
0.0
 40
7.5
 41
0.0
 71
     5
 72
     1
  1
\A1;25
  7
TOM
  0
POINT
  5
1577
100
AcDbEntity
  8
DEFPOINTS
  6
BYBLOCK
 62
     0
100
AcDbPoint
 10
731.125141
 20
889.858986
 30
0.0
  0
POINT
  5
1578
100
AcDbEntity
  8
DEFPOINTS
  6
BYBLOCK
 62
     0
100
AcDbPoint
 10
705.696023
 20
910.276683
 30
0.0
  0
POINT
  5
1579
100
AcDbEntity
  8
DEFPOINTS
  6
BYBLOCK
 62
     0
100
AcDbPoint
 10
705.696023
 20
959.606774
 30
0.0
  0
ENDBLK
  5
157A
100
AcDbEntity
  8
0
100
AcDbBlockEnd
  0
BLOCK
  5
157C
100
AcDbEntity
  8
0
100
AcDbBlockBegin
  2
*D22
 70
     1
 10
0.0
 20
0.0
 30
0.0
  3
*D22
  1

  0
LINE
  5
157D
100
AcDbEntity
  8
0
  6
BYBLOCK
100
AcDbLine
 10
736.125141
 20
890.483986
 30
0.0
 11
756.296737
 21
890.483986
 31
0.0
  0
LINE
  5
157E
100
AcDbEntity
  8
0
  6
BYBLOCK
100
AcDbLine
 10
708.125141
 20
900.483986
 30
0.0
 11
756.296737
 21
900.483986
 31
0.0
  0
LINE
  5
157F
100
AcDbEntity
  8
0
  6
BYBLOCK
100
AcDbLine
 10
753.796737
 20
882.983986
 30
0.0
 11
753.796737
 21
875.483986
 31
0.0
  0
LINE
  5
1580
100
AcDbEntity
  8
0
  6
BYBLOCK
100
AcDbLine
 10
753.796737
 20
900.483986
 30
0.0
 11
753.796737
 21
907.983986
 31
0.0
  0
MTEXT
  5
1581
100
AcDbEntity
  8
0
  6
BYBLOCK
 62
     1
100
AcDbMText
 10
746.017226
 20
882.393534
 30
0.0
 40
7.5
 41
0.0
 71
     5
 72
     1
  1
\A1;10
  7
TOM
 11
0.0
 21
1.0
 31
0.0
  0
LINE
  5
1582
100
AcDbEntity
  8
0
  6
BYBLOCK
100
AcDbLine
 10
753.796737
 20
890.483986
 30
0.0
 11
753.796737
 21
900.483986
 31
0.0
  0
LINE
  5
1583
100
AcDbEntity
  8
0
  6
BYBLOCK
100
AcDbLine
 10
753.796737
 20
890.483986
 30
0.0
 11
753.796737
 21
900.483986
 31
0.0
  0
SOLID
  5
1584
100
AcDbEntity
  8
0
  6
BYBLOCK
100
AcDbTrace
 10
752.546737
 20
882.983986
 30
0.0
 11
755.046737
 21
882.983986
 31
0.0
 12
753.796737
 22
890.483986
 32
0.0
 13
753.796737
 23
890.483986
 33
0.0
  0
INSERT
  5
1585
100
AcDbEntity
  8
0
  6
BYBLOCK
100
AcDbBlockReference
  2
_DOTSMALL
 10
753.796737
 20
900.483986
 30
0.0
 41
7.5
 42
7.5
 43
7.5
 50
270.0
  0
POINT
  5
1586
100
AcDbEntity
  8
DEFPOINTS
  6
BYBLOCK
 62
     0
100
AcDbPoint
 10
731.125141
 20
890.483986
 30
0.0
  0
POINT
  5
1587
100
AcDbEntity
  8
DEFPOINTS
  6
BYBLOCK
 62
     0
100
AcDbPoint
 10
703.125141
 20
900.483986
 30
0.0
  0
POINT
  5
1588
100
AcDbEntity
  8
DEFPOINTS
  6
BYBLOCK
 62
     0
100
AcDbPoint
 10
753.796737
 20
900.483986
 30
0.0
  0
ENDBLK
  5
1589
100
AcDbEntity
  8
0
100
AcDbBlockEnd
  0
BLOCK
  5
158B
100
AcDbEntity
  8
0
100
AcDbBlockBegin
  2
*D23
 70
     1
 10
0.0
 20
0.0
 30
0.0
  3
*D23
  1

  0
LINE
  5
158C
100
AcDbEntity
  8
0
  6
BYBLOCK
100
AcDbLine
 10
708.125141
 20
900.483986
 30
0.0
 11
756.296737
 21
900.483986
 31
0.0
  0
LINE
  5
158D
100
AcDbEntity
  8
0
  6
BYBLOCK
100
AcDbLine
 10
713.125141
 20
914.483986
 30
0.0
 11
756.296737
 21
914.483986
 31
0.0
  0
LINE
  5
158E
100
AcDbEntity
  8
0
  6
BYBLOCK
100
AcDbLine
 10
753.796737
 20
895.483986
 30
0.0
 11
753.796737
 21
906.983986
 31
0.0
  0
MTEXT
  5
158F
100
AcDbEntity
  8
0
  6
BYBLOCK
 62
     1
100
AcDbMText
 10
745.486804
 20
907.483986
 30
0.0
 40
7.5
 41
0.0
 71
     5
 72
     1
  1
\A1;14
  7
TOM
 11
0.0
 21
1.0
 31
0.0
  0
INSERT
  5
1590
100
AcDbEntity
  8
0
  6
BYBLOCK
100
AcDbBlockReference
  2
_DOTSMALL
 10
753.796737
 20
900.483986
 30
0.0
 41
7.5
 42
7.5
 43
7.5
 50
270.0
  0
SOLID
  5
1591
100
AcDbEntity
  8
0
  6
BYBLOCK
100
AcDbTrace
 10
752.546737
 20
906.983986
 30
0.0
 11
755.046737
 21
906.983986
 31
0.0
 12
753.796737
 22
914.483986
 32
0.0
 13
753.796737
 23
914.483986
 33
0.0
  0
POINT
  5
1592
100
AcDbEntity
  8
DEFPOINTS
  6
BYBLOCK
 62
     0
100
AcDbPoint
 10
703.125141
 20
900.483986
 30
0.0
  0
POINT
  5
1593
100
AcDbEntity
  8
DEFPOINTS
  6
BYBLOCK
 62
     0
100
AcDbPoint
 10
708.125141
 20
914.483986
 30
0.0
  0
POINT
  5
1594
100
AcDbEntity
  8
DEFPOINTS
  6
BYBLOCK
 62
     0
100
AcDbPoint
 10
753.796737
 20
914.483986
 30
0.0
  0
ENDBLK
  5
1595
100
AcDbEntity
  8
0
100
AcDbBlockEnd
  0
BLOCK
  5
1597
100
AcDbEntity
  8
0
100
AcDbBlockBegin
  2
*D24
 70
     1
 10
0.0
 20
0.0
 30
0.0
  3
*D24
  1

  0
LINE
  5
1598
100
AcDbEntity
  8
0
  6
BYBLOCK
100
AcDbLine
 10
708.125141
 20
914.483986
 30
0.0
 11
773.518779
 21
914.483986
 31
0.0
  0
LINE
  5
1599
100
AcDbEntity
  8
0
  6
BYBLOCK
100
AcDbLine
 10
736.125141
 20
890.483986
 30
0.0
 11
773.518779
 21
890.483986
 31
0.0
  0
LINE
  5
159A
100
AcDbEntity
  8
0
  6
BYBLOCK
100
AcDbLine
 10
771.018779
 20
906.983986
 30
0.0
 11
771.018779
 21
897.983986
 31
0.0
  0
SOLID
  5
159B
100
AcDbEntity
  8
0
  6
BYBLOCK
100
AcDbTrace
 10
769.768779
 20
906.983986
 30
0.0
 11
772.268779
 21
906.983986
 31
0.0
 12
771.018779
 22
914.483986
 32
0.0
 13
771.018779
 23
914.483986
 33
0.0
  0
SOLID
  5
159C
100
AcDbEntity
  8
0
  6
BYBLOCK
100
AcDbTrace
 10
769.768779
 20
897.983986
 30
0.0
 11
772.268779
 21
897.983986
 31
0.0
 12
771.018779
 22
890.483986
 32
0.0
 13
771.018779
 23
890.483986
 33
0.0
  0
MTEXT
  5
159D
100
AcDbEntity
  8
0
  6
BYBLOCK
 62
     1
100
AcDbMText
 10
764.768779
 20
902.483986
 30
0.0
 40
7.5
 41
0.0
 71
     5
 72
     1
  1
\A1;24
  7
TOM
 11
0.0
 21
1.0
 31
0.0
  0
POINT
  5
159E
100
AcDbEntity
  8
DEFPOINTS
  6
BYBLOCK
 62
     0
100
AcDbPoint
 10
703.125141
 20
914.483986
 30
0.0
  0
POINT
  5
159F
100
AcDbEntity
  8
DEFPOINTS
  6
BYBLOCK
 62
     0
100
AcDbPoint
 10
731.125141
 20
890.483986
 30
0.0
  0
POINT
  5
15A0
100
AcDbEntity
  8
DEFPOINTS
  6
BYBLOCK
 62
     0
100
AcDbPoint
 10
771.018779
 20
890.483986
 30
0.0
  0
ENDBLK
  5
15A1
100
AcDbEntity
  8
0
100
AcDbBlockEnd
  0
ENDSEC
  0
SECTION
  2
ENTITIES
  0
MTEXT
  5
4C8
100
AcDbEntity
  8
0
100
AcDbMText
 10
466.993969
 20
1122.42401
 30
0.0
 40
10.0
 41
0.0
 71
     1
 72
     5
  1
ML 26 \fSimplex|b0|i0|c238|p2;G\Fsimplex.shx; - micro
  7
TOM
1001
ACAD
1000
MTEXTBEGIN
1070
    73
1070
     1
1070
    44
1040
1.0
1070
    74
1070
     0
1000
MTEXTEND
  0
LWPOLYLINE
  5
AC1
100
AcDbEntity
  8
LAMELA-VELKA
100
AcDbPolyline
 90
       19
 70
     0
 43
2.0
 10
631.125141
 20
1011.056711
 10
594.125141
 20
1011.056711
 42
-0.414214
 10
591.625141
 20
1013.556711
 10
591.625141
 20
1018.556711
 42
-0.414214
 10
594.125141
 20
1021.056711
 10
603.125141
 20
1021.056711
 42
0.414214
 10
605.625141
 20
1023.556711
 10
605.625141
 20
1032.556711
 42
0.414214
 10
603.125141
 20
1035.056711
 10
589.125141
 20
1035.056711
 10
586.344907
 20
1035.056711
 42
-0.049389
 10
585.756558
 20
1035.114969
 10
582.636196
 20
1035.739042
 42
0.09902
 10
581.4595
 20
1035.739042
 10
574.636196
 20
1034.374381
 42
-0.09902
 10
573.4595
 20
1034.374381
 10
566.636196
 20
1035.739042
 42
0.09902
 10
565.4595
 20
1035.739042
 10
562.047848
 20
1035.056711
  0
DIMENSION
  5
F14
100
AcDbEntity
  8
KOTY-UPLNE
100
AcDbDimension
  2
*D2
 10
405.399673
 20
1080.179499
 30
0.0
 11
400.012407
 21
1090.179499
 31
0.0
 12
0.0
 22
-177.198647
 32
0.0
 70
    32
  3
KOTY-VELKE
100
AcDbAlignedDimension
 13
394.625141
 23
1016.056711
 33
0.0
 14
405.399673
 24
1019.356224
 34
0.0
100
AcDbRotatedDimension
1001
ACAD
1000
DSTYLE
1002
{
1070
    40
1040
5.0
1070
   147
1040
0.5
1070
    44
1040
0.5
1070
   178
1070
     1
1070
   177
1070
   256
1070
   176
1070
   256
1002
}
  0
DIMENSION
  5
F16
100
AcDbEntity
  8
KOTY-UPLNE
100
AcDbDimension
  2
*D0
 10
605.696023
 20
1080.179499
 30
0.0
 11
718.410582
 21
1086.429499
 31
0.0
 12
-100.0
 22
-177.823647
 32
0.0
 70
    32
  3
KOTY-VELKE
100
AcDbAlignedDimension
 13
631.125141
 23
1010.431711
 33
0.0
 14
605.696023
 24
1030.849408
 34
0.0
100
AcDbRotatedDimension
1001
ACAD
1000
DSTYLE
1002
{
1070
    40
1040
5.0
1070
   147
1040
0.5
1070
    44
1040
0.5
1070
   178
1070
     1
1070
   177
1070
   256
1070
   176
1070
   256
1002
}
  0
DIMENSION
  5
F17
100
AcDbEntity
  8
KOTY-UPLNE
100
AcDbDimension
  2
*D1
 10
671.018779
 20
1011.056711
 30
0.0
 11
764.768779
 21
1023.056711
 31
0.0
 12
-100.0
 22
-177.198647
 32
0.0
 70
    32
  3
KOTY-VELKE
100
AcDbAlignedDimension
 13
603.125141
 23
1035.056711
 33
0.0
 14
631.125141
 24
1011.056711
 34
0.0
 50
90.0
100
AcDbRotatedDimension
1001
ACAD
1000
DSTYLE
1002
{
1070
    40
1040
5.0
1070
   147
1040
0.5
1070
    44
1040
0.5
1070
   178
1070
     1
1070
   177
1070
   256
1070
   176
1070
   256
1002
}
  0
DIMENSION
  5
1295
100
AcDbEntity
  8
KOTY-UPLNE
100
AcDbDimension
  2
*D5
 10
653.796737
 20
1035.056711
 30
0.0
 11
645.486804
 21
1028.056711
 31
0.0
 12
-100.0
 22
-177.198647
 32
0.0
 70
   160
  3
KOTY-VELKE
100
AcDbAlignedDimension
 13
603.125141
 23
1021.056711
 33
0.0
 14
608.125141
 24
1035.056711
 34
0.0
 50
90.0
100
AcDbRotatedDimension
1001
ACAD
1000
DSTYLE
1002
{
1070
    40
1040
5.0
1070
   173
1070
     1
1070
   147
1040
0.5
1070
    44
1040
0.5
1070
   178
1070
     1
1070
   177
1070
   256
1070
   176
1070
   256
1070
     6
1000
_DOTSMALL
1002
}
  0
DIMENSION
  5
1296
100
AcDbEntity
  8
KOTY-UPLNE
100
AcDbDimension
  2
*D4
 10
653.796737
 20
1021.056711
 30
0.0
 11
646.017226
 21
1002.966259
 31
0.0
 12
-100.0
 22
-177.198647
 32
0.0
 70
   160
  3
KOTY-VELKE
100
AcDbAlignedDimension
 13
631.125141
 23
1011.056711
 33
0.0
 14
603.125141
 24
1021.056711
 34
0.0
 50
90.0
100
AcDbRotatedDimension
1001
ACAD
1000
DSTYLE
1002
{
1070
    40
1040
5.0
1070
   173
1070
     1
1070
   147
1040
0.5
1070
    44
1040
0.5
1070
   178
1070
     1
1070
   177
1070
   256
1070
   176
1070
   256
1070
     7
1000
_DOTSMALL
1002
}
  0
DIMENSION
  5
1297
100
AcDbEntity
  8
KOTY-UPLNE
100
AcDbDimension
  2
*D7
 10
379.448079
 20
1012.056711
 30
0.0
 11
372.238645
 21
1007.017497
 31
0.0
 70
   160
  3
KOTY-VELKE
100
AcDbAlignedDimension
 13
403.860076
 23
1020.056711
 33
0.0
 14
398.625141
 24
1012.056711
 34
0.0
 50
90.0
100
AcDbRotatedDimension
1001
ACAD
1000
DSTYLE
1002
{
1070
    40
1040
5.0
1070
   173
1070
     1
1070
   147
1040
0.5
1070
    44
1040
0.5
1070
   178
1070
     1
1070
   177
1070
   256
1070
   176
1070
   256
1070
     6
1000
_DOTSMALL
1002
}
  0
DIMENSION
  5
1298
100
AcDbEntity
  8
KOTY-UPLNE
100
AcDbDimension
  2
*D6
 10
379.448079
 20
1020.056711
 30
0.0
 11
373.198079
 21
1023.806711
 31
0.0
 70
    32
  3
KOTY-VELKE
100
AcDbAlignedDimension
 13
423.399673
 23
1035.056711
 33
0.0
 14
403.860076
 24
1020.056711
 34
0.0
 50
90.0
100
AcDbRotatedDimension
1001
ACAD
1000
DSTYLE
1002
{
1070
    40
1040
5.0
1070
   173
1070
     1
1070
   147
1040
0.5
1070
    44
1040
0.5
1070
   178
1070
     1
1070
   177
1070
   256
1070
   176
1070
   256
1070
     7
1000
_DOTSMALL
1002
}
  0
DIMENSION
  5
14BD
100
AcDbEntity
  8
KOTY-UPLNE
100
AcDbDimension
  2
*D8
 10
405.399673
 20
1080.179499
 30
0.0
 11
505.547848
 21
1086.429499
 31
0.0
 70
    32
  3
KOTY-VELKE
100
AcDbAlignedDimension
 13
605.696023
 23
1036.474408
 33
0.0
 14
405.399673
 24
1053.517861
 34
0.0
100
AcDbRotatedDimension
1001
ACAD
1000
DSTYLE
1002
{
1070
    40
1040
5.0
1070
   147
1040
0.5
1070
    44
1040
0.5
1070
   178
1070
     1
1070
   177
1070
   256
1070
   176
1070
   256
1002
}
  0
DIMENSION
  5
14BE
100
AcDbEntity
  8
KOTY-UPLNE
100
AcDbDimension
  2
*D16
 10
405.399673
 20
959.606774
 30
0.0
 11
530.547848
 21
965.856774
 31
0.0
 70
    32
  3
KOTY-VELKE
100
AcDbAlignedDimension
 13
655.696023
 23
915.901683
 33
0.0
 14
405.399673
 24
932.945136
 34
0.0
100
AcDbRotatedDimension
1001
ACAD
1000
DSTYLE
1002
{
1070
    40
1040
5.0
1070
   147
1040
0.5
1070
    44
1040
0.5
1070
   178
1070
     1
1070
   177
1070
   256
1070
   176
1070
   256
1002
}
  0
LWPOLYLINE
  5
14BF
100
AcDbEntity
  8
LAMELA-VELKA
100
AcDbPolyline
 90
       27
 70
     0
 43
2.0
 10
681.125141
 20
890.483986
 10
644.125141
 20
890.483986
 42
-0.414214
 10
641.625141
 20
892.983986
 10
641.625141
 20
897.983986
 42
-0.414214
 10
644.125141
 20
900.483986
 10
653.125141
 20
900.483986
 42
0.414214
 10
655.625141
 20
902.983986
 10
655.625141
 20
911.983986
 42
0.414214
 10
653.125141
 20
914.483986
 10
638.125141
 20
914.483986
 10
635.344907
 20
914.483986
 42
-0.049389
 10
634.756558
 20
914.542244
 10
631.636196
 20
915.166316
 42
0.09902
 10
630.4595
 20
915.166316
 10
623.636196
 20
913.801656
 42
-0.09902
 10
622.4595
 20
913.801656
 10
615.636196
 20
915.166316
 42
0.09902
 10
614.4595
 20
915.166316
 10
607.636196
 20
913.801656
 42
-0.09902
 10
606.4595
 20
913.801656
 10
599.636196
 20
915.166316
 42
0.09902
 10
598.4595
 20
915.166316
 10
591.636196
 20
913.801656
 42
-0.09902
 10
590.4595
 20
913.801656
 10
583.636196
 20
915.166316
 42
0.09902
 10
582.4595
 20
915.166316
 10
579.047848
 20
914.483986
  0
DIMENSION
  5
14C0
100
AcDbEntity
  8
KOTY-UPLNE
100
AcDbDimension
  2
*D9
 10
405.399673
 20
959.606774
 30
0.0
 11
400.012407
 21
969.606774
 31
0.0
 12
0.0
 22
-120.572725
 32
0.0
 70
    32
  3
KOTY-VELKE
100
AcDbAlignedDimension
 13
394.625141
 23
895.483986
 33
0.0
 14
405.399673
 24
898.783498
 34
0.0
100
AcDbRotatedDimension
1001
ACAD
1000
DSTYLE
1002
{
1070
    40
1040
5.0
1070
   147
1040
0.5
1070
    44
1040
0.5
1070
   178
1070
     1
1070
   177
1070
   256
1070
   176
1070
   256
1002
}
  0
DIMENSION
  5
14C1
100
AcDbEntity
  8
KOTY-UPLNE
100
AcDbDimension
  2
*D15
 10
379.448079
 20
899.483986
 30
0.0
 11
373.198079
 21
903.233986
 31
0.0
 70
    32
  3
KOTY-VELKE
100
AcDbAlignedDimension
 13
424.399673
 23
914.483986
 33
0.0
 14
403.860076
 24
899.483986
 34
0.0
 50
90.0
100
AcDbRotatedDimension
1001
ACAD
1000
DSTYLE
1002
{
1070
    40
1040
5.0
1070
   173
1070
     1
1070
   147
1040
0.5
1070
    44
1040
0.5
1070
   178
1070
     1
1070
   177
1070
   256
1070
   176
1070
   256
1070
     7
1000
_DOTSMALL
1002
}
  0
DIMENSION
  5
14C2
100
AcDbEntity
  8
KOTY-UPLNE
100
AcDbDimension
  2
*D14
 10
379.448079
 20
891.483986
 30
0.0
 11
372.238645
 21
886.444771
 31
0.0
 12
0.0
 22
-120.572725
 32
0.0
 70
   160
  3
KOTY-VELKE
100
AcDbAlignedDimension
 13
403.860076
 23
899.483986
 33
0.0
 14
398.625141
 24
891.483986
 34
0.0
 50
90.0
100
AcDbRotatedDimension
1001
ACAD
1000
DSTYLE
1002
{
1070
    40
1040
5.0
1070
   173
1070
     1
1070
   147
1040
0.5
1070
    44
1040
0.5
1070
   178
1070
     1
1070
   177
1070
   256
1070
   176
1070
   256
1070
     6
1000
_DOTSMALL
1002
}
  0
DIMENSION
  5
14C3
100
AcDbEntity
  8
KOTY-UPLNE
100
AcDbDimension
  2
*D10
 10
655.696023
 20
959.606774
 30
0.0
 11
717.410582
 21
965.856774
 31
0.0
 12
-49.0
 22
0.0
 32
0.0
 70
    32
  3
KOTY-VELKE
100
AcDbAlignedDimension
 13
681.125141
 23
889.858986
 33
0.0
 14
655.696023
 24
910.276683
 34
0.0
100
AcDbRotatedDimension
1001
ACAD
1000
DSTYLE
1002
{
1070
    40
1040
5.0
1070
   147
1040
0.5
1070
    44
1040
0.5
1070
   178
1070
     1
1070
   177
1070
   256
1070
   176
1070
   256
1002
}
  0
DIMENSION
  5
14C4
100
AcDbEntity
  8
KOTY-UPLNE
100
AcDbDimension
  2
*D13
 10
703.796737
 20
900.483986
 30
0.0
 11
696.017226
 21
882.393534
 31
0.0
 12
-50.0
 22
-120.572725
 32
0.0
 70
   160
  3
KOTY-VELKE
100
AcDbAlignedDimension
 13
681.125141
 23
890.483986
 33
0.0
 14
653.125141
 24
900.483986
 34
0.0
 50
90.0
100
AcDbRotatedDimension
1001
ACAD
1000
DSTYLE
1002
{
1070
    40
1040
5.0
1070
   173
1070
     1
1070
   147
1040
0.5
1070
    44
1040
0.5
1070
   178
1070
     1
1070
   177
1070
   256
1070
   176
1070
   256
1070
     7
1000
_DOTSMALL
1002
}
  0
DIMENSION
  5
14C5
100
AcDbEntity
  8
KOTY-UPLNE
100
AcDbDimension
  2
*D12
 10
703.796737
 20
914.483986
 30
0.0
 11
695.486804
 21
907.483986
 31
0.0
 12
-50.0
 22
-120.572725
 32
0.0
 70
   160
  3
KOTY-VELKE
100
AcDbAlignedDimension
 13
653.125141
 23
900.483986
 33
0.0
 14
658.125141
 24
914.483986
 34
0.0
 50
90.0
100
AcDbRotatedDimension
1001
ACAD
1000
DSTYLE
1002
{
1070
    40
1040
5.0
1070
   173
1070
     1
1070
   147
1040
0.5
1070
    44
1040
0.5
1070
   178
1070
     1
1070
   177
1070
   256
1070
   176
1070
   256
1070
     6
1000
_DOTSMALL
1002
}
  0
DIMENSION
  5
14C6
100
AcDbEntity
  8
KOTY-UPLNE
100
AcDbDimension
  2
*D11
 10
721.018779
 20
890.483986
 30
0.0
 11
764.768779
 21
902.483986
 31
0.0
 12
-50.0
 22
-120.572725
 32
0.0
 70
    32
  3
KOTY-VELKE
100
AcDbAlignedDimension
 13
653.125141
 23
914.483986
 33
0.0
 14
681.125141
 24
890.483986
 34
0.0
 50
90.0
100
AcDbRotatedDimension
1001
ACAD
1000
DSTYLE
1002
{
1070
    40
1040
5.0
1070
   147
1040
0.5
1070
    44
1040
0.5
1070
   178
1070
     1
1070
   177
1070
   256
1070
   176
1070
   256
1002
}
  0
LWPOLYLINE
  5
1530
100
AcDbEntity
  8
LAMELA-VELKA
100
AcDbPolyline
 90
       88
 70
     0
 43
2.0
 10
731.125141
 20
769.911261
 10
694.125141
 20
769.911261
 42
-0.414214
 10
691.625141
 20
772.411261
 10
691.625141
 20
777.411261
 42
-0.414214
 10
694.125141
 20
779.911261
 10
703.125141
 20
779.911261
 42
0.414214
 10
705.625141
 20
782.411261
 10
705.625141
 20
791.411261
 42
0.414214
 10
703.125141
 20
793.911261
 10
687.125141
 20
793.911261
 10
684.344907
 20
793.911261
 42
-0.049389
 10
683.756558
 20
793.969519
 10
680.636196
 20
794.593591
 42
0.09902
 10
679.4595
 20
794.593591
 10
672.636196
 20
793.228931
 42
-0.09902
 10
671.4595
 20
793.228931
 10
664.636196
 20
794.593591
 42
0.09902
 10
663.4595
 20
794.593591
 10
656.636196
 20
793.228931
 42
-0.09902
 10
655.4595
 20
793.228931
 10
648.636196
 20
794.593591
 42
0.09902
 10
647.4595
 20
794.593591
 10
640.636196
 20
793.228931
 42
-0.09902
 10
639.4595
 20
793.228931
 10
632.636196
 20
794.593591
 42
0.09902
 10
631.4595
 20
794.593591
 10
624.636196
 20
793.228931
 42
-0.09902
 10
623.4595
 20
793.228931
 10
616.636196
 20
794.593591
 42
0.09902
 10
615.4595
 20
794.593591
 10
608.636196
 20
793.228931
 42
-0.09902
 10
607.4595
 20
793.228931
 10
600.636196
 20
794.593591
 42
0.09902
 10
599.4595
 20
794.593591
 10
592.636196
 20
793.228931
 42
-0.09902
 10
591.4595
 20
793.228931
 10
584.636196
 20
794.593591
 42
0.09902
 10
583.4595
 20
794.593591
 10
576.636196
 20
793.228931
 42
-0.09902
 10
575.4595
 20
793.228931
 10
568.636196
 20
794.593591
 42
0.09902
 10
567.4595
 20
794.593591
 10
560.636196
 20
793.228931
 42
-0.09902
 10
559.4595
 20
793.228931
 10
552.636196
 20
794.593591
 42
0.09902
 10
551.4595
 20
794.593591
 10
544.636196
 20
793.228931
 42
-0.09902
 10
543.4595
 20
793.228931
 10
536.636196
 20
794.593591
 42
0.09902
 10
535.4595
 20
794.593591
 10
528.636196
 20
793.228931
 42
-0.09902
 10
527.4595
 20
793.228931
 10
520.636196
 20
794.593591
 42
0.09902
 10
519.4595
 20
794.593591
 10
512.636196
 20
793.228931
 42
-0.09902
 10
511.4595
 20
793.228931
 10
504.636196
 20
794.593591
 42
0.09902
 10
503.4595
 20
794.593591
 10
496.636196
 20
793.228931
 42
-0.09902
 10
495.4595
 20
793.228931
 10
488.636196
 20
794.593591
 42
0.09902
 10
487.4595
 20
794.593591
 10
480.636196
 20
793.228931
 42
-0.09902
 10
479.4595
 20
793.228931
 10
472.636196
 20
794.593591
 42
0.09902
 10
471.4595
 20
794.593591
 10
464.636196
 20
793.228931
 42
-0.09902
 10
463.4595
 20
793.228931
 10
456.636196
 20
794.593591
 42
0.09902
 10
455.4595
 20
794.593591
 10
448.636196
 20
793.228931
 42
-0.09902
 10
447.4595
 20
793.228931
 10
440.636196
 20
794.593591
 42
0.09902
 10
439.4595
 20
794.593591
 10
432.636196
 20
793.228931
 42
-0.09902
 10
431.4595
 20
793.228931
 10
428.339138
 20
793.853003
 42
0.049389
 10
427.750789
 20
793.911261
 10
425.399673
 20
793.911261
 10
409.125141
 20
793.911261
 42
0.414214
 10
406.625141
 20
791.411261
 10
406.625141
 20
781.411261
 42
-0.414214
 10
404.125141
 20
778.911261
 10
397.125141
 20
778.911261
 42
0.414214
 10
394.625141
 20
776.411261
 10
394.625141
 20
773.411261
 42
0.414214
 10
397.125141
 20
770.911261
 10
400.125141
 20
770.911261
  0
DIMENSION
  5
1531
100
AcDbEntity
  8
KOTY-UPLNE
100
AcDbDimension
  2
*D17
 10
405.399673
 20
839.034048
 30
0.0
 11
555.547848
 21
845.284048
 31
0.0
 12
0.0
 22
-120.572725
 32
0.0
 70
    32
  3
KOTY-VELKE
100
AcDbAlignedDimension
 13
705.696023
 23
795.328958
 33
0.0
 14
405.399673
 24
812.372411
 34
0.0
100
AcDbRotatedDimension
1001
ACAD
1000
DSTYLE
1002
{
1070
    40
1040
5.0
1070
   147
1040
0.5
1070
    44
1040
0.5
1070
   178
1070
     1
1070
   177
1070
   256
1070
   176
1070
   256
1002
}
  0
DIMENSION
  5
1532
100
AcDbEntity
  8
KOTY-UPLNE
100
AcDbDimension
  2
*D19
 10
379.448079
 20
778.911261
 30
0.0
 11
373.198079
 21
782.661261
 31
0.0
 12
0.0
 22
-120.572725
 32
0.0
 70
    32
  3
KOTY-VELKE
100
AcDbAlignedDimension
 13
425.399673
 23
793.911261
 33
0.0
 14
403.860076
 24
778.911261
 34
0.0
 50
90.0
100
AcDbRotatedDimension
1001
ACAD
1000
DSTYLE
1002
{
1070
    40
1040
5.0
1070
   173
1070
     1
1070
   147
1040
0.5
1070
    44
1040
0.5
1070
   178
1070
     1
1070
   177
1070
   256
1070
   176
1070
   256
1070
     7
1000
_DOTSMALL
1002
}
  0
DIMENSION
  5
1533
100
AcDbEntity
  8
KOTY-UPLNE
100
AcDbDimension
  2
*D18
 10
405.399673
 20
839.034048
 30
0.0
 11
400.012407
 21
849.034048
 31
0.0
 12
0.0
 22
-120.572725
 32
0.0
 70
    32
  3
KOTY-VELKE
100
AcDbAlignedDimension
 13
394.625141
 23
774.911261
 33
0.0
 14
405.399673
 24
778.210773
 34
0.0
100
AcDbRotatedDimension
1001
ACAD
1000
DSTYLE
1002
{
1070
    40
1040
5.0
1070
   147
1040
0.5
1070
    44
1040
0.5
1070
   178
1070
     1
1070
   177
1070
   256
1070
   176
1070
   256
1002
}
  0
DIMENSION
  5
1534
100
AcDbEntity
  8
KOTY-UPLNE
100
AcDbDimension
  2
*D20
 10
379.448079
 20
770.911261
 30
0.0
 11
372.238645
 21
765.872046
 31
0.0
 12
0.0
 22
-120.572725
 32
0.0
 70
   160
  3
KOTY-VELKE
100
AcDbAlignedDimension
 13
403.860076
 23
778.911261
 33
0.0
 14
398.625141
 24
770.911261
 34
0.0
 50
90.0
100
AcDbRotatedDimension
1001
ACAD
1000
DSTYLE
1002
{
1070
    40
1040
5.0
1070
   173
1070
     1
1070
   147
1040
0.5
1070
    44
1040
0.5
1070
   178
1070
     1
1070
   177
1070
   256
1070
   176
1070
   256
1070
     6
1000
_DOTSMALL
1002
}
  0
DIMENSION
  5
1535
100
AcDbEntity
  8
KOTY-UPLNE
100
AcDbDimension
  2
*D24
 10
771.018779
 20
769.911261
 30
0.0
 11
764.768779
 21
781.911261
 31
0.0
 12
0.0
 22
-120.572725
 32
0.0
 70
    32
  3
KOTY-VELKE
100
AcDbAlignedDimension
 13
703.125141
 23
793.911261
 33
0.0
 14
731.125141
 24
769.911261
 34
0.0
 50
90.0
100
AcDbRotatedDimension
1001
ACAD
1000
DSTYLE
1002
{
1070
    40
1040
5.0
1070
   147
1040
0.5
1070
    44
1040
0.5
1070
   178
1070
     1
1070
   177
1070
   256
1070
   176
1070
   256
1002
}
  0
DIMENSION
  5
1536
100
AcDbEntity
  8
KOTY-UPLNE
100
AcDbDimension
  2
*D23
 10
753.796737
 20
793.911261
 30
0.0
 11
745.486804
 21
786.911261
 31
0.0
 12
0.0
 22
-120.572725
 32
0.0
 70
   160
  3
KOTY-VELKE
100
AcDbAlignedDimension
 13
703.125141
 23
779.911261
 33
0.0
 14
708.125141
 24
793.911261
 34
0.0
 50
90.0
100
AcDbRotatedDimension
1001
ACAD
1000
DSTYLE
1002
{
1070
    40
1040
5.0
1070
   173
1070
     1
1070
   147
1040
0.5
1070
    44
1040
0.5
1070
   178
1070
     1
1070
   177
1070
   256
1070
   176
1070
   256
1070
     6
1000
_DOTSMALL
1002
}
  0
DIMENSION
  5
1537
100
AcDbEntity
  8
KOTY-UPLNE
100
AcDbDimension
  2
*D22
 10
753.796737
 20
779.911261
 30
0.0
 11
746.017226
 21
761.820809
 31
0.0
 12
0.0
 22
-120.572725
 32
0.0
 70
   160
  3
KOTY-VELKE
100
AcDbAlignedDimension
 13
731.125141
 23
769.911261
 33
0.0
 14
703.125141
 24
779.911261
 34
0.0
 50
90.0
100
AcDbRotatedDimension
1001
ACAD
1000
DSTYLE
1002
{
1070
    40
1040
5.0
1070
   173
1070
     1
1070
   147
1040
0.5
1070
    44
1040
0.5
1070
   178
1070
     1
1070
   177
1070
   256
1070
   176
1070
   256
1070
     7
1000
_DOTSMALL
1002
}
  0
DIMENSION
  5
1538
100
AcDbEntity
  8
KOTY-UPLNE
100
AcDbDimension
  2
*D21
 10
705.696023
 20
839.034048
 30
0.0
 11
718.410582
 21
845.284048
 31
0.0
 12
0.0
 22
-120.572725
 32
0.0
 70
    32
  3
KOTY-VELKE
100
AcDbAlignedDimension
 13
731.125141
 23
769.286261
 33
0.0
 14
705.696023
 24
789.703958
 34
0.0
100
AcDbRotatedDimension
1001
ACAD
1000
DSTYLE
1002
{
1070
    40
1040
5.0
1070
   147
1040
0.5
1070
    44
1040
0.5
1070
   178
1070
     1
1070
   177
1070
   256
1070
   176
1070
   256
1002
}
  0
LWPOLYLINE
  5
15C7
100
AcDbEntity
  8
LAMELA-VELKA
100
AcDbPolyline
 90
       47
 70
     0
 43
2.0
 10
562.047848
 20
1035.056711
 10
558.636196
 20
1034.374381
 42
-0.09902
 10
557.4595
 20
1034.374381
 10
550.636196
 20
1035.739042
 42
0.09902
 10
549.4595
 20
1035.739042
 10
542.636196
 20
1034.374381
 42
-0.09902
 10
541.4595
 20
1034.374381
 10
534.636196
 20
1035.739042
 42
0.09902
 10
533.4595
 20
1035.739042
 10
526.636196
 20
1034.374381
 42
-0.09902
 10
525.4595
 20
1034.374381
 10
518.636196
 20
1035.739042
 42
0.09902
 10
517.4595
 20
1035.739042
 10
510.636196
 20
1034.374381
 42
-0.09902
 10
509.4595
 20
1034.374381
 10
502.636196
 20
1035.739042
 42
0.09902
 10
501.4595
 20
1035.739042
 10
494.636196
 20
1034.374381
 42
-0.09902
 10
493.4595
 20
1034.374381
 10
486.636196
 20
1035.739042
 42
0.09902
 10
485.4595
 20
1035.739042
 10
478.636196
 20
1034.374381
 42
-0.09902
 10
477.4595
 20
1034.374381
 10
470.636196
 20
1035.739042
 42
0.09902
 10
469.4595
 20
1035.739042
 10
462.636196
 20
1034.374381
 42
-0.09902
 10
461.4595
 20
1034.374381
 10
454.636196
 20
1035.739042
 42
0.09902
 10
453.4595
 20
1035.739042
 10
446.636196
 20
1034.374381
 42
-0.09902
 10
445.4595
 20
1034.374381
 10
438.636196
 20
1035.739042
 42
0.09902
 10
437.4595
 20
1035.739042
 10
430.636196
 20
1034.374381
 42
-0.09902
 10
429.4595
 20
1034.374381
 10
426.339138
 20
1034.998453
 42
0.049389
 10
425.750789
 20
1035.056711
 10
423.399673
 20
1035.056711
 10
409.125141
 20
1035.056711
 42
0.414214
 10
406.625141
 20
1032.556711
 10
406.625141
 20
1022.556711
 42
-0.414214
 10
404.125141
 20
1020.056711
 10
397.125141
 20
1020.056711
 42
0.414214
 10
394.625141
 20
1017.556711
 10
394.625141
 20
1014.556711
 42
0.414214
 10
397.125141
 20
1012.056711
 10
400.125141
 20
1012.056711
  0
LWPOLYLINE
  5
15D6
100
AcDbEntity
  8
LAMELA-VELKA
100
AcDbPolyline
 90
       51
 70
     0
 43
2.0
 10
579.047848
 20
914.483986
 10
575.636196
 20
913.801656
 42
-0.09902
 10
574.4595
 20
913.801656
 10
567.636196
 20
915.166316
 42
0.09902
 10
566.4595
 20
915.166316
 10
559.636196
 20
913.801656
 42
-0.09902
 10
558.4595
 20
913.801656
 10
551.636196
 20
915.166316
 42
0.09902
 10
550.4595
 20
915.166316
 10
543.636196
 20
913.801656
 42
-0.09902
 10
542.4595
 20
913.801656
 10
535.636196
 20
915.166316
 42
0.09902
 10
534.4595
 20
915.166316
 10
527.636196
 20
913.801656
 42
-0.09902
 10
526.4595
 20
913.801656
 10
519.636196
 20
915.166316
 42
0.09902
 10
518.4595
 20
915.166316
 10
511.636196
 20
913.801656
 42
-0.09902
 10
510.4595
 20
913.801656
 10
503.636196
 20
915.166316
 42
0.09902
 10
502.4595
 20
915.166316
 10
495.636196
 20
913.801656
 42
-0.09902
 10
494.4595
 20
913.801656
 10
487.636196
 20
915.166316
 42
0.09902
 10
486.4595
 20
915.166316
 10
479.636196
 20
913.801656
 42
-0.09902
 10
478.4595
 20
913.801656
 10
471.636196
 20
915.166316
 42
0.09902
 10
470.4595
 20
915.166316
 10
463.636196
 20
913.801656
 42
-0.09902
 10
462.4595
 20
913.801656
 10
455.636196
 20
915.166316
 42
0.09902
 10
454.4595
 20
915.166316
 10
447.636196
 20
913.801656
 42
-0.09902
 10
446.4595
 20
913.801656
 10
439.636196
 20
915.166316
 42
0.09902
 10
438.4595
 20
915.166316
 10
431.636196
 20
913.801656
 42
-0.09902
 10
430.4595
 20
913.801656
 10
427.339138
 20
914.425728
 42
0.049389
 10
426.750789
 20
914.483986
 10
424.399673
 20
914.483986
 10
409.125141
 20
914.483986
 42
0.414214
 10
406.625141
 20
911.983986
 10
406.625141
 20
901.983986
 42
-0.414214
 10
404.125141
 20
899.483986
 10
397.125141
 20
899.483986
 42
0.414214
 10
394.625141
 20
896.983986
 10
394.625141
 20
893.983986
 42
0.414214
 10
397.125141
 20
891.483986
 10
400.125141
 20
891.483986
  0
ENDSEC
  0
SECTION
  2
OBJECTS
  0
DICTIONARY
  5
7
100
AcDbDictionary
  3
ACAD_GROUP
350
22
  3
ACAD_LAYOUT
350
B
  3
ACAD_MLINESTYLE
350
23
  3
ACAD_PLOTSETTINGS
350
24
  3
ACAD_PLOTSTYLENAME
350
6
  3
ACDBHEADERROUNDTRIPXREC
350
11D
  3
DWGPROPS
350
52
  0
DICTIONARY
  5
147
100
AcDbDictionary
280
     1
  3
ACAD_XREC_ROUNDTRIP
360
148
  0
DICTIONARY
  5
117
100
AcDbDictionary
280
     1
  3
ACAD_XREC_ROUNDTRIP
360
118
  0
DICTIONARY
  5
145
100
AcDbDictionary
280
     1
  3
ACAD_XREC_ROUNDTRIP
360
146
  0
DICTIONARY
  5
13E
100
AcDbDictionary
280
     1
  3
ACAD_LAYOUTSELFREF
360
13F
  0
DICTIONARY
  5
111
100
AcDbDictionary
280
     1
  3
ACAD_LAYOUTSELFREF
360
142
  3
ACAD_XREC_ROUNDTRIP
360
112
  0
DICTIONARY
  5
22
102
{ACAD_REACTORS
330
7
102
}
100
AcDbDictionary
  0
DICTIONARY
  5
B
102
{ACAD_XDICTIONARY
360
140
102
}
102
{ACAD_REACTORS
330
7
102
}
100
AcDbDictionary
  3
LAYOUT2
350
F
  3
MODEL
350
A
  0
DICTIONARY
  5
23
102
{ACAD_REACTORS
330
7
102
}
100
AcDbDictionary
  3
STANDARD
350
27
  0
DICTIONARY
  5
24
102
{ACAD_REACTORS
330
7
102
}
100
AcDbDictionary
  0
ACAD_PROXY_OBJECT
  5
6
102
{ACAD_REACTORS
330
7
102
}
100
AcDbProxyObject
 90
      499
 91
      502
 93
       86
310
405010041939BDC9B585B0
350
5
340
5
 94
        0
  0
DICTIONARY
  5
11D
102
{ACAD_REACTORS
330
7
102
}
100
AcDbDictionary
  3
CEPSNTYPE
350
127
  3
DIMSTYLEDATA
350
12B
  3
FINGERPRINTGUID
350
128
  3
HYPERLINKBASE
350
120
  3
INSUNITS
350
126
  3
LAYOUTDICT
350
122
  3
LWETCUNION
350
125
  3
PLOTSETDICT
350
123
  3
PLOTSTYLNAMDICT
350
124
  3
PSVPSCALE
350
12A
  3
PUCSBASE
350
12E
  3
PUCSORGBACK
350
134
  3
PUCSORGBOTTOM
350
130
  3
PUCSORGFRONT
350
133
  3
PUCSORGLEFT
350
131
  3
PUCSORGRIGHT
350
132
  3
PUCSORGTOP
350
12F
  3
PUCSORTHOREF
350
12C
  3
PUCSORTHOVIEW
350
12D
  3
STYLESHEET
350
121
  3
TSTACKALIGN
350
11E
  3
TSTACKSIZE
350
11F
  3
UCSBASE
350
137
  3
UCSORGBACK
350
13D
  3
UCSORGBOTTOM
350
139
  3
UCSORGFRONT
350
13C
  3
UCSORGLEFT
350
13A
  3
UCSORGRIGHT
350
13B
  3
UCSORGTOP
350
138
  3
UCSORTHOREF
350
135
  3
UCSORTHOVIEW
350
136
  3
VERSIONGUID
350
129
  0
XRECORD
  5
52
102
{ACAD_REACTORS
330
7
102
}
100
AcDbXrecord
  1
DWGPROPS COOKIE
  2

  3

  4

  6

  7

  8
tom
  9

300
=
301
=
302
=
303
=
304
=
305
=
306
=
307
=
308
=
309
=
 40
0.356595
 41
2450098.461195
 42
2452040.602766
  1

 90
        0
  0
XRECORD
  5
148
102
{ACAD_REACTORS
330
147
102
}
100
AcDbXrecord
102
PLOTBIT
280
     0
  0
XRECORD
  5
118
102
{ACAD_REACTORS
330
117
102
}
100
AcDbXrecord
102
EXTNAMES
  1
TOM
  2
tom
  0
XRECORD
  5
146
102
{ACAD_REACTORS
330
145
102
}
100
AcDbXrecord
102
ACADR14ROUNDTRIP
1000
DSTYLE
1002
{
1070
   279
 70
     2
1002
}
  0
XRECORD
  5
13F
102
{ACAD_REACTORS
330
13E
102
}
100
AcDbXrecord
340
2
  0
XRECORD
  5
142
102
{ACAD_REACTORS
330
111
102
}
100
AcDbXrecord
340
C
  0
XRECORD
  5
112
102
{ACAD_REACTORS
330
111
102
}
100
AcDbXrecord
102
EXTNAMES
  1
*PAPER_SPACE
  2
*Paper_Space
  0
DICTIONARY
  5
140
100
AcDbDictionary
280
     1
  3
ACAD_XREC_ROUNDTRIP
360
141
  0
ACAD_PROXY_OBJECT
  5
F
102
{ACAD_REACTORS
330
B
102
}
100
AcDbProxyObject
 90
      499
 91
      504
 93
     1484
310
91943616E6F6E20427562626C652D4A657420424A432D343030302C8080000002033931C4000000000333F0A9000000000080ED0C4000000000003003D000000008067416A400000001017639C901024134A40501416AA543D513D34C4B5CDA591A5B99CB98DD1891069074C61796F75743240501A80000000003003F00000
310
00080CE4C7300000001037539C9000000039F3571A502A6A6A0000000022FC4ED00D0CCCCB8ACED3340800000060BC6F6F401999B993D89AD99020
330
C
330
0
340
0
340
0
 94
        0
  0
ACAD_PROXY_OBJECT
  5
A
102
{ACAD_REACTORS
330
B
102
}
100
AcDbProxyObject
 90
      499
 91
      504
 93
     1796
310
9144B796F63657261204D6974612046532D31383030290B8000000C067381B40000000102F06C51000000000068381B40000000002E06C510000000080253F6A400000003834239C90102413400000000002012100AE47E17A148E5E40405014100055D792FC8379401026BDF13AE5E0500049AA63FFE6283402D878F5E855
310
EE41024000000000000144043D513D34C4B5CDA591A5B99CB98DD18A26A666666666724FC0055D792FC8379C01026BDF13AE5E0701054D6F64656C901A800000000000000000000000000000000000000000000A1000000000000008902A6A6AAAA0
330
2
330
0
340
0
340
0
 94
        0
  0
MLINESTYLE
  5
27
102
{ACAD_REACTORS
330
23
102
}
100
AcDbMlineStyle
  2
STANDARD
 70
     0
  3

 62
   256
 51
90.0
 52
90.0
 71
     2
 49
0.5
 62
   256
  6
BYLAYER
 49
-0.5
 62
   256
  6
BYLAYER
  0
ACAD_PROXY_OBJECT
  5
5
102
{ACAD_REACTORS
330
6
102
}
100
AcDbProxyObject
 90
      499
 91
      503
 93
        0
 94
        0
  0
XRECORD
  5
127
102
{ACAD_REACTORS
330
11D
102
}
100
AcDbXrecord
 90
        0
  0
XRECORD
  5
12B
102
{ACAD_REACTORS
330
11D
102
}
100
AcDbXrecord
1000
DSTYLE
1002
{
1070
   179
 70
     4
1070
   278
 70
    44
1070
   279
 70
     2
1070
   289
 70
     1
1002
}
  0
XRECORD
  5
128
102
{ACAD_REACTORS
330
11D
102
}
100
AcDbXrecord
  1
{986116A0-451F-11D5-BBCF-006097BB053F}
  0
XRECORD
  5
120
102
{ACAD_REACTORS
330
11D
102
}
100
AcDbXrecord
  1

  0
XRECORD
  5
126
102
{ACAD_REACTORS
330
11D
102
}
100
AcDbXrecord
 90
        0
  0
XRECORD
  5
122
102
{ACAD_REACTORS
330
11D
102
}
100
AcDbXrecord
340
B
  0
XRECORD
  5
125
102
{ACAD_REACTORS
330
11D
102
}
100
AcDbXrecord
 90
    10781
  0
XRECORD
  5
123
102
{ACAD_REACTORS
330
11D
102
}
100
AcDbXrecord
340
24
  0
XRECORD
  5
124
102
{ACAD_REACTORS
330
11D
102
}
100
AcDbXrecord
340
6
  0
XRECORD
  5
12A
102
{ACAD_REACTORS
330
11D
102
}
100
AcDbXrecord
 40
0.0
  0
XRECORD
  5
12E
102
{ACAD_REACTORS
330
11D
102
}
100
AcDbXrecord
340
0
  0
XRECORD
  5
134
102
{ACAD_REACTORS
330
11D
102
}
100
AcDbXrecord
 10
0.0
 20
0.0
 30
0.0
  0
XRECORD
  5
130
102
{ACAD_REACTORS
330
11D
102
}
100
AcDbXrecord
 10
0.0
 20
0.0
 30
0.0
  0
XRECORD
  5
133
102
{ACAD_REACTORS
330
11D
102
}
100
AcDbXrecord
 10
0.0
 20
0.0
 30
0.0
  0
XRECORD
  5
131
102
{ACAD_REACTORS
330
11D
102
}
100
AcDbXrecord
 10
0.0
 20
0.0
 30
0.0
  0
XRECORD
  5
132
102
{ACAD_REACTORS
330
11D
102
}
100
AcDbXrecord
 10
0.0
 20
0.0
 30
0.0
  0
XRECORD
  5
12F
102
{ACAD_REACTORS
330
11D
102
}
100
AcDbXrecord
 10
0.0
 20
0.0
 30
0.0
  0
XRECORD
  5
12C
102
{ACAD_REACTORS
330
11D
102
}
100
AcDbXrecord
340
0
  0
XRECORD
  5
12D
102
{ACAD_REACTORS
330
11D
102
}
100
AcDbXrecord
 70
     0
  0
XRECORD
  5
121
102
{ACAD_REACTORS
330
11D
102
}
100
AcDbXrecord
  1
TOM1-siding.ctb
  0
XRECORD
  5
11E
102
{ACAD_REACTORS
330
11D
102
}
100
AcDbXrecord
 90
        1
  0
XRECORD
  5
11F
102
{ACAD_REACTORS
330
11D
102
}
100
AcDbXrecord
 90
       70
  0
XRECORD
  5
137
102
{ACAD_REACTORS
330
11D
102
}
100
AcDbXrecord
340
0
  0
XRECORD
  5
13D
102
{ACAD_REACTORS
330
11D
102
}
100
AcDbXrecord
 10
0.0
 20
0.0
 30
0.0
  0
XRECORD
  5
139
102
{ACAD_REACTORS
330
11D
102
}
100
AcDbXrecord
 10
0.0
 20
0.0
 30
0.0
  0
XRECORD
  5
13C
102
{ACAD_REACTORS
330
11D
102
}
100
AcDbXrecord
 10
0.0
 20
0.0
 30
0.0
  0
XRECORD
  5
13A
102
{ACAD_REACTORS
330
11D
102
}
100
AcDbXrecord
 10
0.0
 20
0.0
 30
0.0
  0
XRECORD
  5
13B
102
{ACAD_REACTORS
330
11D
102
}
100
AcDbXrecord
 10
0.0
 20
0.0
 30
0.0
  0
XRECORD
  5
138
102
{ACAD_REACTORS
330
11D
102
}
100
AcDbXrecord
 10
0.0
 20
0.0
 30
0.0
  0
XRECORD
  5
135
102
{ACAD_REACTORS
330
11D
102
}
100
AcDbXrecord
340
0
  0
XRECORD
  5
136
102
{ACAD_REACTORS
330
11D
102
}
100
AcDbXrecord
 70
     0
  0
XRECORD
  5
129
102
{ACAD_REACTORS
330
11D
102
}
100
AcDbXrecord
  1
{F5D44C6B-50ED-11D5-BBCF-006097BB053F}
  0
XRECORD
  5
141
102
{ACAD_REACTORS
330
140
102
}
100
AcDbXrecord
102
EXTNAMES
  1
LAYOUT2
  2
Layout2
  1
MODEL
  2
Model
  0
ENDSEC
  0
EOF
