  0
SECTION
  2
HEADER
  9
$ACADVER
  1
AC1014
  9
$ACADMAINTVER
 70
     0
  9
$DWGCODEPAGE
  3
ANSI_1250
  9
$INSBASE
 10
0.0
 20
0.0
 30
0.0
  9
$EXTMIN
 10
372.683496
 20
142.733719
 30
0.0
  9
$EXTMAX
 10
763.57208
 20
2132.465923
 30
0.0
  9
$LIMMIN
 10
0.0
 20
0.0
  9
$LIMMAX
 10
1200.0
 20
880.0
  9
$ORTHOMODE
 70
     1
  9
$REGENMODE
 70
     1
  9
$FILLMODE
 70
     1
  9
$QTEXTMODE
 70
     0
  9
$MIRRTEXT
 70
     0
  9
$DRAGMODE
 70
     2
  9
$LTSCALE
 40
5.0
  9
$OSMODE
 70
   171
  9
$ATTMODE
 70
     1
  9
$TEXTSIZE
 40
100.0
  9
$TRACEWID
 40
1.0
  9
$TEXTSTYLE
  7
TOM
  9
$CLAYER
  8
KOTY-UPLNE
  9
$CELTYPE
  6
BYLAYER
  9
$CECOLOR
 62
   256
  9
$CELTSCALE
 40
1.0
  9
$DELOBJ
 70
     1
  9
$DISPSILH
 70
     0
  9
$DIMSCALE
 40
5.0
  9
$DIMASZ
 40
1.5
  9
$DIMEXO
 40
1.0
  9
$DIMDLI
 40
10.0
  9
$DIMRND
 40
1.0
  9
$DIMDLE
 40
1.0
  9
$DIMEXE
 40
0.5
  9
$DIMTP
 40
0.0
  9
$DIMTM
 40
0.0
  9
$DIMTXT
 40
1.5
  9
$DIMCEN
 40
2.0
  9
$DIMTSZ
 40
0.0
  9
$DIMTOL
 70
     0
  9
$DIMLIM
 70
     0
  9
$DIMTIH
 70
     0
  9
$DIMTOH
 70
     0
  9
$DIMSE1
 70
     0
  9
$DIMSE2
 70
     0
  9
$DIMTAD
 70
     1
  9
$DIMZIN
 70
     9
  9
$DIMBLK
  1

  9
$DIMASO
 70
     1
  9
$DIMSHO
 70
     1
  9
$DIMPOST
  1

  9
$DIMAPOST
  1

  9
$DIMALT
 70
     0
  9
$DIMALTD
 70
     2
  9
$DIMALTF
 40
25.4
  9
$DIMLFAC
 40
1.0
  9
$DIMTOFL
 70
     1
  9
$DIMTVP
 40
0.0
  9
$DIMTIX
 70
     0
  9
$DIMSOXD
 70
     0
  9
$DIMSAH
 70
     0
  9
$DIMBLK1
  1

  9
$DIMBLK2
  1

  9
$DIMSTYLE
  2
KOTY-VELKE
  9
$DIMCLRD
 70
   256
  9
$DIMCLRE
 70
   256
  9
$DIMCLRT
 70
     1
  9
$DIMTFAC
 40
1.0
  9
$DIMGAP
 40
0.5
  9
$DIMJUST
 70
     0
  9
$DIMSD1
 70
     0
  9
$DIMSD2
 70
     0
  9
$DIMTOLJ
 70
     1
  9
$DIMTZIN
 70
     8
  9
$DIMALTZ
 70
     8
  9
$DIMALTTZ
 70
     8
  9
$DIMFIT
 70
     5
  9
$DIMUPT
 70
     0
  9
$DIMUNIT
 70
     2
  9
$DIMDEC
 70
     0
  9
$DIMTDEC
 70
     0
  9
$DIMALTU
 70
     2
  9
$DIMALTTD
 70
     2
  9
$DIMTXSTY
  7
TOM
  9
$DIMAUNIT
 70
     0
  9
$LUNITS
 70
     2
  9
$LUPREC
 70
     2
  9
$SKETCHINC
 40
1.0
  9
$FILLETRAD
 40
3.0
  9
$AUNITS
 70
     0
  9
$AUPREC
 70
     4
  9
$MENU
  1
acad
  9
$ELEVATION
 40
0.0
  9
$PELEVATION
 40
0.0
  9
$THICKNESS
 40
0.0
  9
$LIMCHECK
 70
     0
  9
$BLIPMODE
 70
     0
  9
$CHAMFERA
 40
0.0
  9
$CHAMFERB
 40
0.0
  9
$CHAMFERC
 40
0.0
  9
$CHAMFERD
 40
0.0
  9
$SKPOLY
 70
     0
  9
$TDCREATE
 40
2450098.461194791
  9
$TDUPDATE
 40
2452896.087687499
  9
$TDINDWG
 40
0.4589003472
  9
$TDUSRTIMER
 40
0.4589003472
  9
$USRTIMER
 70
     1
  9
$ANGBASE
 50
0.0
  9
$ANGDIR
 70
     0
  9
$PDMODE
 70
     0
  9
$PDSIZE
 40
0.0
  9
$PLINEWID
 40
0.0
  9
$COORDS
 70
     2
  9
$SPLFRAME
 70
     0
  9
$SPLINETYPE
 70
     6
  9
$SPLINESEGS
 70
     8
  9
$ATTDIA
 70
     0
  9
$ATTREQ
 70
     1
  9
$HANDLING
 70
     1
  9
$HANDSEED
  5
14A5
  9
$SURFTAB1
 70
     6
  9
$SURFTAB2
 70
     6
  9
$SURFTYPE
 70
     6
  9
$SURFU
 70
     6
  9
$SURFV
 70
     6
  9
$UCSNAME
  2

  9
$UCSORG
 10
0.0
 20
0.0
 30
0.0
  9
$UCSXDIR
 10
1.0
 20
0.0
 30
0.0
  9
$UCSYDIR
 10
0.0
 20
1.0
 30
0.0
  9
$PUCSNAME
  2

  9
$PUCSORG
 10
0.0
 20
0.0
 30
0.0
  9
$PUCSXDIR
 10
1.0
 20
0.0
 30
0.0
  9
$PUCSYDIR
 10
0.0
 20
1.0
 30
0.0
  9
$USERI1
 70
     0
  9
$USERI2
 70
     0
  9
$USERI3
 70
     0
  9
$USERI4
 70
     0
  9
$USERI5
 70
     0
  9
$USERR1
 40
0.0
  9
$USERR2
 40
0.0
  9
$USERR3
 40
0.0
  9
$USERR4
 40
0.0
  9
$USERR5
 40
0.0
  9
$WORLDVIEW
 70
     1
  9
$SHADEDGE
 70
     3
  9
$SHADEDIF
 70
    70
  9
$TILEMODE
 70
     1
  9
$MAXACTVP
 70
    16
  9
$PINSBASE
 10
0.0
 20
0.0
 30
0.0
  9
$PLIMCHECK
 70
     0
  9
$PEXTMIN
 10
27.943527
 20
19.928417
 30
0.0
  9
$PEXTMAX
 10
251.491745
 20
179.355751
 30
0.0
  9
$PLIMMIN
 10
-3.96875
 20
-7.14375
  9
$PLIMMAX
 10
292.929016
 20
202.900135
  9
$UNITMODE
 70
     0
  9
$VISRETAIN
 70
     0
  9
$PLINEGEN
 70
     0
  9
$PSLTSCALE
 70
     1
  9
$TREEDEPTH
 70
  3020
  9
$PICKSTYLE
 70
     3
  9
$CMLSTYLE
  2
STANDARD
  9
$CMLJUST
 70
     0
  9
$CMLSCALE
 40
1.0
  9
$PROXYGRAPHICS
 70
     1
  9
$MEASUREMENT
 70
     0
  0
ENDSEC
  0
SECTION
  2
CLASSES
  0
CLASS
  1
DICTIONARYVAR
  2
AcDbDictionaryVar
  3
"AutoCAD"
 90
        0
280
     0
281
     0
  0
CLASS
  1
LWPOLYLINE
  2
AcDbPolyline
  3
"AutoCAD"
 90
        0
280
     0
281
     1
  0
CLASS
  1
ACDBDICTIONARYWDFLT
  2
AcDbDictionaryWithDefault
  3
AutoCAD 2000
 90
        0
280
     0
281
     0
  0
CLASS
  1
ACDBPLACEHOLDER
  2
AcDbPlaceHolder
  3
AutoCAD 2000
 90
        0
280
     0
281
     0
  0
CLASS
  1
LAYOUT
  2
AcDbLayout
  3
AutoCAD 2000
 90
        0
280
     0
281
     0
  0
CLASS
  1
LONG_TRANSACTION
  2
AcDbLongTransaction
  3
AutoCAD 2000
 90
        0
280
     0
281
     0
  0
CLASS
  1
LWPOLYLINE
  2
AcDbPolyline
  3
"AutoCAD"
 90
        0
280
     0
281
     1
  0
CLASS
  1
HATCH
  2
AcDbHatch
  3
"ACAD_SEDONA"
 90
        0
280
     0
281
     1
  0
CLASS
  1
XRECORD
  2
AcDbXrecord
  3
"<Built In>"
 90
        0
280
     0
281
     0
  0
ENDSEC
  0
SECTION
  2
TABLES
  0
TABLE
  2
VPORT
  5
19
100
AcDbSymbolTable
 70
     3
  0
VPORT
  5
14A4
100
AcDbSymbolTableRecord
100
AcDbViewportTableRecord
  2
*ACTIVE
 70
     0
 10
0.0
 20
0.0
 11
1.0
 21
1.0
 12
645.877608
 22
228.467959
 13
0.0
 23
0.0
 14
1.0
 24
1.0
 15
1000.0
 25
1000.0
 16
0.0
 26
0.0
 36
1.0
 17
0.0
 27
0.0
 37
0.0
 40
442.572534
 41
2.059548
 42
50.0
 43
0.0
 44
0.0
 50
0.0
 51
0.0
 71
     0
 72
 20000
 73
     1
 74
     1
 75
     0
 76
     0
 77
     0
 78
     0
  0
ENDTAB
  0
TABLE
  2
LTYPE
  5
14
100
AcDbSymbolTable
 70
     2
  0
LTYPE
  5
15
100
AcDbSymbolTableRecord
100
AcDbLinetypeTableRecord
  2
BYBLOCK
 70
     0
  3

 72
    65
 73
     0
 40
0.0
  0
LTYPE
  5
16
100
AcDbSymbolTableRecord
100
AcDbLinetypeTableRecord
  2
BYLAYER
 70
     0
  3

 72
    65
 73
     0
 40
0.0
  0
LTYPE
  5
8
100
AcDbSymbolTableRecord
100
AcDbLinetypeTableRecord
  2
AUSGEZOGEN
 70
     0
  3
Ausgezogene Linie
 72
    65
 73
     0
 40
0.0
  0
LTYPE
  5
3D1
100
AcDbSymbolTableRecord
100
AcDbLinetypeTableRecord
  2
CONTINUOUS
 70
     0
  3
Solid line
 72
    65
 73
     0
 40
0.0
  0
ENDTAB
  0
TABLE
  2
LAYER
  5
10
100
AcDbSymbolTable
 70
     6
  0
LAYER
  5
4
100
AcDbSymbolTableRecord
100
AcDbLayerTableRecord
  2
0
 70
     0
 62
     7
  6
AUSGEZOGEN
  0
LAYER
  5
31
102
{ACAD_XDICTIONARY
360
147
102
}
100
AcDbSymbolTableRecord
100
AcDbLayerTableRecord
  2
DEFPOINTS
 70
     0
 62
     7
  6
AUSGEZOGEN
  0
LAYER
  5
ABF
100
AcDbSymbolTableRecord
100
AcDbLayerTableRecord
  2
KOTY-UPLNE
 70
     0
 62
     5
  6
CONTINUOUS
  0
LAYER
  5
AC0
100
AcDbSymbolTableRecord
100
AcDbLayerTableRecord
  2
LAMELA-VELKA
 70
     0
 62
     7
  6
CONTINUOUS
  0
ENDTAB
  0
TABLE
  2
STYLE
  5
11
100
AcDbSymbolTable
 70
     3
  0
STYLE
  5
12
100
AcDbSymbolTableRecord
100
AcDbTextStyleTableRecord
  2
STANDARD
 70
     0
 40
0.0
 41
1.0
 50
0.0
 71
     0
 42
2.0
  3
txt8.shx
  4

  0
STYLE
  5
1F
100
AcDbSymbolTableRecord
100
AcDbTextStyleTableRecord
  2
SIMPLEX8
 70
     0
 40
0.0
 41
1.0
 50
0.0
 71
     0
 42
100.0
  3
simplex8.shx
  4

  0
STYLE
  5
26
102
{ACAD_XDICTIONARY
360
117
102
}
100
AcDbSymbolTableRecord
100
AcDbTextStyleTableRecord
  2
TOM
 70
     0
 40
0.0
 41
0.9
 50
0.0
 71
     0
 42
100.0
  3
simplex.shx
  4

  0
ENDTAB
  0
TABLE
  2
VIEW
  5
17
100
AcDbSymbolTable
 70
     0
  0
ENDTAB
  0
TABLE
  2
UCS
  5
18
100
AcDbSymbolTable
 70
     0
  0
ENDTAB
  0
TABLE
  2
APPID
  5
1B
100
AcDbSymbolTable
 70
     2
  0
APPID
  5
1C
100
AcDbSymbolTableRecord
100
AcDbRegAppTableRecord
  2
ACAD
 70
     0
  0
APPID
  5
3DA
100
AcDbSymbolTableRecord
100
AcDbRegAppTableRecord
  2
DCO15
 70
     0
  0
ENDTAB
  0
TABLE
  2
DIMSTYLE
  5
1D
100
AcDbSymbolTable
 70
     4
  0
DIMSTYLE
105
20
102
{ACAD_XDICTIONARY
360
145
102
}
100
AcDbSymbolTableRecord
100
AcDbDimStyleTableRecord
  2
PFLAUM2-35
 70
     0
  3

  4

  5

  6

  7

 40
2.0
 41
0.0
 42
1.0
 43
7.0
 44
1.0
 45
1.0
 46
1.0
 47
0.0
 48
0.0
140
3.5
141
2.0
142
1.0
143
25.4
144
1.0
145
0.0
146
1.0
147
0.0
 71
     0
 72
     0
 73
     0
 74
     0
 75
     0
 76
     0
 77
     1
 78
     8
170
     0
171
     2
172
     1
173
     0
174
     0
175
     0
176
     7
177
     7
178
    30
270
     2
271
     2
272
     2
273
     2
274
     2
340
1F
275
     0
280
     0
281
     0
282
     0
283
     1
284
     8
285
     8
286
     8
287
     5
288
     0
  0
DIMSTYLE
105
3D9
100
AcDbSymbolTableRecord
100
AcDbDimStyleTableRecord
  2
STANDARD
 70
     0
  3

  4

  5

  6

  7

 40
1.0
 41
0.18
 42
0.0625
 43
0.38
 44
0.18
 45
0.0
 46
0.0
 47
0.0
 48
0.0
140
0.18
141
0.09
142
0.0
143
25.4
144
1.0
145
0.0
146
1.0
147
0.09
 71
     0
 72
     0
 73
     1
 74
     1
 75
     0
 76
     0
 77
     0
 78
     0
170
     0
171
     2
172
     0
173
     0
174
     0
175
     0
176
     0
177
     0
178
     0
270
     2
271
     4
272
     4
273
     2
274
     2
340
12
275
     0
280
     0
281
     0
282
     0
283
     1
284
     0
285
     0
286
     0
287
     3
288
     0
  0
DIMSTYLE
105
ACF
102
{ACAD_REACTORS
330
10CA
330
10CE
330
145E
102
}
100
AcDbSymbolTableRecord
100
AcDbDimStyleTableRecord
  2
KOTY-VELKE
 70
     0
  3

  4

  5

  6

  7

 40
3.0
 41
1.5
 42
1.0
 43
10.0
 44
0.0
 45
1.0
 46
1.0
 47
0.0
 48
0.0
140
1.5
141
2.0
142
0.0
143
25.4
144
1.0
145
0.0
146
1.0
147
1.5
 71
     0
 72
     0
 73
     0
 74
     0
 75
     0
 76
     0
 77
     1
 78
     9
170
     0
171
     2
172
     1
173
     0
174
     0
175
     0
176
   170
177
   170
178
    50
270
     2
271
     0
272
     0
273
     2
274
     2
340
26
275
     0
280
     0
281
     0
282
     0
283
     1
284
     8
285
     8
286
     8
287
     5
288
     0
  0
ENDTAB
  0
TABLE
  2
BLOCK_RECORD
  5
1
100
AcDbSymbolTable
 70
    21
  0
BLOCK_RECORD
  5
2
102
{ACAD_XDICTIONARY
360
13E
102
}
100
AcDbSymbolTableRecord
100
AcDbBlockTableRecord
  2
*MODEL_SPACE
  0
BLOCK_RECORD
  5
C
102
{ACAD_XDICTIONARY
360
111
102
}
100
AcDbSymbolTableRecord
100
AcDbBlockTableRecord
  2
*PAPER_SPACE
  0
BLOCK_RECORD
  5
10CF
100
AcDbSymbolTableRecord
100
AcDbBlockTableRecord
  2
*D13
  0
BLOCK_RECORD
  5
10E9
100
AcDbSymbolTableRecord
100
AcDbBlockTableRecord
  2
*D14
  0
BLOCK_RECORD
  5
10F5
100
AcDbSymbolTableRecord
100
AcDbBlockTableRecord
  2
*D15
  0
BLOCK_RECORD
  5
1101
100
AcDbSymbolTableRecord
100
AcDbBlockTableRecord
  2
*D16
  0
BLOCK_RECORD
  5
110D
100
AcDbSymbolTableRecord
100
AcDbBlockTableRecord
  2
*D17
  0
BLOCK_RECORD
  5
111B
100
AcDbSymbolTableRecord
100
AcDbBlockTableRecord
  2
*D18
  0
BLOCK_RECORD
  5
1452
100
AcDbSymbolTableRecord
100
AcDbBlockTableRecord
  2
*D19
  0
ENDTAB
  0
ENDSEC
  0
SECTION
  2
BLOCKS
  0
BLOCK
  5
3
100
AcDbEntity
  8
0
100
AcDbBlockBegin
  2
*MODEL_SPACE
 70
     0
 10
0.0
 20
0.0
 30
0.0
  3
*MODEL_SPACE
  1

  0
ENDBLK
  5
9
100
AcDbEntity
  8
0
100
AcDbBlockEnd
  0
BLOCK
  5
D
100
AcDbEntity
 67
     1
  8
0
100
AcDbBlockBegin
  2
*PAPER_SPACE
 70
     0
 10
0.0
 20
0.0
 30
0.0
  3
*PAPER_SPACE
  1

  0
ENDBLK
  5
E
100
AcDbEntity
 67
     1
  8
0
100
AcDbBlockEnd
  0
BLOCK
  5
13D3
100
AcDbEntity
  8
0
100
AcDbBlockBegin
  2
*D13
 70
     1
 10
0.0
 20
0.0
 30
0.0
  3
*D13
  1

  0
LINE
  5
13D4
100
AcDbEntity
  8
0
  6
BYBLOCK
100
AcDbLine
 10
387.683496
 20
196.98086
 30
0.0
 11
387.683496
 21
252.162252
 31
0.0
  0
LINE
  5
13D5
100
AcDbEntity
  8
0
  6
BYBLOCK
100
AcDbLine
 10
407.683496
 20
232.98086
 30
0.0
 11
407.683496
 21
252.162252
 31
0.0
  0
LINE
  5
13D6
100
AcDbEntity
  8
0
  6
BYBLOCK
100
AcDbLine
 10
380.183496
 20
249.662252
 30
0.0
 11
372.683496
 21
249.662252
 31
0.0
  0
LINE
  5
13D7
100
AcDbEntity
  8
0
  6
BYBLOCK
100
AcDbLine
 10
415.183496
 20
249.662252
 30
0.0
 11
422.683496
 21
249.662252
 31
0.0
  0
LINE
  5
13D8
100
AcDbEntity
  8
0
  6
BYBLOCK
100
AcDbLine
 10
387.683496
 20
249.662252
 30
0.0
 11
407.683496
 21
249.662252
 31
0.0
  0
SOLID
  5
13D9
100
AcDbEntity
  8
0
  6
BYBLOCK
100
AcDbTrace
 10
380.183496
 20
250.912252
 30
0.0
 11
380.183496
 21
248.412252
 31
0.0
 12
387.683496
 22
249.662252
 32
0.0
 13
387.683496
 23
249.662252
 33
0.0
  0
SOLID
  5
13DA
100
AcDbEntity
  8
0
  6
BYBLOCK
100
AcDbTrace
 10
415.183496
 20
250.912252
 30
0.0
 11
415.183496
 21
248.412252
 31
0.0
 12
407.683496
 22
249.662252
 32
0.0
 13
407.683496
 23
249.662252
 33
0.0
  0
MTEXT
  5
13DB
100
AcDbEntity
  8
0
  6
BYBLOCK
 62
     1
100
AcDbMText
 10
397.683496
 20
255.912252
 30
0.0
 40
7.5
 41
0.0
 71
     5
 72
     1
  1
\A1;20
  7
TOM
  0
POINT
  5
13DC
100
AcDbEntity
  8
DEFPOINTS
  6
BYBLOCK
 62
     0
100
AcDbPoint
 10
387.683496
 20
191.98086
 30
0.0
  0
POINT
  5
13DD
100
AcDbEntity
  8
DEFPOINTS
  6
BYBLOCK
 62
     0
100
AcDbPoint
 10
407.683496
 20
227.98086
 30
0.0
  0
POINT
  5
13DE
100
AcDbEntity
  8
DEFPOINTS
  6
BYBLOCK
 62
     0
100
AcDbPoint
 10
407.683496
 20
249.662252
 30
0.0
  0
ENDBLK
  5
13DF
100
AcDbEntity
  8
0
100
AcDbBlockEnd
  0
BLOCK
  5
10EA
100
AcDbEntity
  8
0
100
AcDbBlockBegin
  2
*D14
 70
     1
 10
0.0
 20
0.0
 30
0.0
  3
*D14
  1

  0
LINE
  5
10EB
100
AcDbEntity
  8
0
  6
BYBLOCK
100
AcDbLine
 10
637.409469
 20
392.287219
 30
0.0
 11
637.409469
 21
429.267828
 31
0.0
  0
LINE
  5
10EC
100
AcDbEntity
  8
0
  6
BYBLOCK
100
AcDbLine
 10
677.068727
 20
356.875409
 30
0.0
 11
677.068727
 21
429.267828
 31
0.0
  0
LINE
  5
10ED
100
AcDbEntity
  8
0
  6
BYBLOCK
100
AcDbLine
 10
644.909469
 20
426.767828
 30
0.0
 11
669.568727
 21
426.767828
 31
0.0
  0
SOLID
  5
10EE
100
AcDbEntity
  8
0
  6
BYBLOCK
100
AcDbTrace
 10
644.909469
 20
428.017828
 30
0.0
 11
644.909469
 21
425.517828
 31
0.0
 12
637.409469
 22
426.767828
 32
0.0
 13
637.409469
 23
426.767828
 33
0.0
  0
SOLID
  5
10EF
100
AcDbEntity
  8
0
  6
BYBLOCK
100
AcDbTrace
 10
669.568727
 20
428.017828
 30
0.0
 11
669.568727
 21
425.517828
 31
0.0
 12
677.068727
 22
426.767828
 32
0.0
 13
677.068727
 23
426.767828
 33
0.0
  0
MTEXT
  5
10F0
100
AcDbEntity
  8
0
  6
BYBLOCK
 62
     1
100
AcDbMText
 10
657.239098
 20
433.017828
 30
0.0
 40
7.5
 41
0.0
 71
     5
 72
     1
  1
\A1;40
  7
TOM
  0
POINT
  5
10F1
100
AcDbEntity
  8
DEFPOINTS
  6
BYBLOCK
 62
     0
100
AcDbPoint
 10
637.409469
 20
387.287219
 30
0.0
  0
POINT
  5
10F2
100
AcDbEntity
  8
DEFPOINTS
  6
BYBLOCK
 62
     0
100
AcDbPoint
 10
677.068727
 20
351.875409
 30
0.0
  0
POINT
  5
10F3
100
AcDbEntity
  8
DEFPOINTS
  6
BYBLOCK
 62
     0
100
AcDbPoint
 10
677.068727
 20
426.767828
 30
0.0
  0
ENDBLK
  5
10F4
100
AcDbEntity
  8
0
100
AcDbBlockEnd
  0
BLOCK
  5
10F6
100
AcDbEntity
  8
0
100
AcDbBlockBegin
  2
*D15
 70
     1
 10
0.0
 20
0.0
 30
0.0
  3
*D15
  1

  0
LINE
  5
10F7
100
AcDbEntity
  8
0
  6
BYBLOCK
100
AcDbLine
 10
642.409469
 20
387.287219
 30
0.0
 11
713.947366
 21
387.287219
 31
0.0
  0
LINE
  5
10F8
100
AcDbEntity
  8
0
  6
BYBLOCK
100
AcDbLine
 10
672.146164
 20
349.287219
 30
0.0
 11
713.947366
 21
349.287219
 31
0.0
  0
LINE
  5
10F9
100
AcDbEntity
  8
0
  6
BYBLOCK
100
AcDbLine
 10
711.447366
 20
379.787219
 30
0.0
 11
711.447366
 21
356.787219
 31
0.0
  0
SOLID
  5
10FA
100
AcDbEntity
  8
0
  6
BYBLOCK
100
AcDbTrace
 10
710.197366
 20
379.787219
 30
0.0
 11
712.697366
 21
379.787219
 31
0.0
 12
711.447366
 22
387.287219
 32
0.0
 13
711.447366
 23
387.287219
 33
0.0
  0
SOLID
  5
10FB
100
AcDbEntity
  8
0
  6
BYBLOCK
100
AcDbTrace
 10
710.197366
 20
356.787219
 30
0.0
 11
712.697366
 21
356.787219
 31
0.0
 12
711.447366
 22
349.287219
 32
0.0
 13
711.447366
 23
349.287219
 33
0.0
  0
MTEXT
  5
10FC
100
AcDbEntity
  8
0
  6
BYBLOCK
 62
     1
100
AcDbMText
 10
705.197366
 20
368.287219
 30
0.0
 40
7.5
 41
0.0
 71
     5
 72
     1
  1
\A1;38
  7
TOM
 11
0.0
 21
1.0
 31
0.0
  0
POINT
  5
10FD
100
AcDbEntity
  8
DEFPOINTS
  6
BYBLOCK
 62
     0
100
AcDbPoint
 10
637.409469
 20
387.287219
 30
0.0
  0
POINT
  5
10FE
100
AcDbEntity
  8
DEFPOINTS
  6
BYBLOCK
 62
     0
100
AcDbPoint
 10
667.146164
 20
349.287219
 30
0.0
  0
POINT
  5
10FF
100
AcDbEntity
  8
DEFPOINTS
  6
BYBLOCK
 62
     0
100
AcDbPoint
 10
711.447366
 20
349.287219
 30
0.0
  0
ENDBLK
  5
1100
100
AcDbEntity
  8
0
100
AcDbBlockEnd
  0
BLOCK
  5
146A
100
AcDbEntity
  8
0
100
AcDbBlockBegin
  2
*D16
 70
     1
 10
0.0
 20
0.0
 30
0.0
  3
*D16
  1

  0
LINE
  5
146B
100
AcDbEntity
  8
0
  6
BYBLOCK
100
AcDbLine
 10
687.409469
 20
232.98086
 30
0.0
 11
687.409469
 21
254.657925
 31
0.0
  0
LINE
  5
146C
100
AcDbEntity
  8
0
  6
BYBLOCK
100
AcDbLine
 10
717.663802
 20
196.376696
 30
0.0
 11
717.663802
 21
254.657925
 31
0.0
  0
LINE
  5
146D
100
AcDbEntity
  8
0
  6
BYBLOCK
100
AcDbLine
 10
694.909469
 20
252.157925
 30
0.0
 11
710.163802
 21
252.157925
 31
0.0
  0
SOLID
  5
146E
100
AcDbEntity
  8
0
  6
BYBLOCK
100
AcDbTrace
 10
694.909469
 20
253.407925
 30
0.0
 11
694.909469
 21
250.907925
 31
0.0
 12
687.409469
 22
252.157925
 32
0.0
 13
687.409469
 23
252.157925
 33
0.0
  0
SOLID
  5
146F
100
AcDbEntity
  8
0
  6
BYBLOCK
100
AcDbTrace
 10
710.163802
 20
253.407925
 30
0.0
 11
710.163802
 21
250.907925
 31
0.0
 12
717.663802
 22
252.157925
 32
0.0
 13
717.663802
 23
252.157925
 33
0.0
  0
MTEXT
  5
1470
100
AcDbEntity
  8
0
  6
BYBLOCK
 62
     1
100
AcDbMText
 10
702.536635
 20
258.407925
 30
0.0
 40
7.5
 41
0.0
 71
     5
 72
     1
  1
\A1;30
  7
TOM
  0
POINT
  5
1471
100
AcDbEntity
  8
DEFPOINTS
  6
BYBLOCK
 62
     0
100
AcDbPoint
 10
687.409469
 20
227.98086
 30
0.0
  0
POINT
  5
1472
100
AcDbEntity
  8
DEFPOINTS
  6
BYBLOCK
 62
     0
100
AcDbPoint
 10
717.663802
 20
191.376696
 30
0.0
  0
POINT
  5
1473
100
AcDbEntity
  8
DEFPOINTS
  6
BYBLOCK
 62
     0
100
AcDbPoint
 10
717.663802
 20
252.157925
 30
0.0
  0
ENDBLK
  5
1474
100
AcDbEntity
  8
0
100
AcDbBlockEnd
  0
BLOCK
  5
1475
100
AcDbEntity
  8
0
100
AcDbBlockBegin
  2
*D17
 70
     1
 10
0.0
 20
0.0
 30
0.0
  3
*D17
  1

  0
LINE
  5
1476
100
AcDbEntity
  8
0
  6
BYBLOCK
100
AcDbLine
 10
727.068727
 20
197.569051
 30
0.0
 11
727.068727
 21
254.657925
 31
0.0
  0
LINE
  5
1477
100
AcDbEntity
  8
0
  6
BYBLOCK
100
AcDbLine
 10
710.163802
 20
252.157925
 30
0.0
 11
702.663802
 21
252.157925
 31
0.0
  0
LINE
  5
1478
100
AcDbEntity
  8
0
  6
BYBLOCK
100
AcDbLine
 10
734.568727
 20
252.157925
 30
0.0
 11
742.068727
 21
252.157925
 31
0.0
  0
MTEXT
  5
1479
100
AcDbEntity
  8
0
  6
BYBLOCK
 62
     1
100
AcDbMText
 10
734.238854
 20
259.275195
 30
0.0
 40
7.5
 41
0.0
 71
     5
 72
     1
  1
\A1;10
  7
TOM
  0
LINE
  5
147A
100
AcDbEntity
  8
0
  6
BYBLOCK
100
AcDbLine
 10
717.663802
 20
252.157925
 30
0.0
 11
727.068727
 21
252.157925
 31
0.0
  0
LINE
  5
147B
100
AcDbEntity
  8
0
  6
BYBLOCK
100
AcDbLine
 10
717.663802
 20
252.157925
 30
0.0
 11
727.068727
 21
252.157925
 31
0.0
  0
SOLID
  5
147C
100
AcDbEntity
  8
0
  6
BYBLOCK
100
AcDbTrace
 10
710.163802
 20
253.407925
 30
0.0
 11
710.163802
 21
250.907925
 31
0.0
 12
717.663802
 22
252.157925
 32
0.0
 13
717.663802
 23
252.157925
 33
0.0
  0
SOLID
  5
147D
100
AcDbEntity
  8
0
  6
BYBLOCK
100
AcDbTrace
 10
734.568727
 20
253.407925
 30
0.0
 11
734.568727
 21
250.907925
 31
0.0
 12
727.068727
 22
252.157925
 32
0.0
 13
727.068727
 23
252.157925
 33
0.0
  0
POINT
  5
147E
100
AcDbEntity
  8
DEFPOINTS
  6
BYBLOCK
 62
     0
100
AcDbPoint
 10
717.663802
 20
191.376696
 30
0.0
  0
POINT
  5
147F
100
AcDbEntity
  8
DEFPOINTS
  6
BYBLOCK
 62
     0
100
AcDbPoint
 10
727.068727
 20
192.569051
 30
0.0
  0
POINT
  5
1480
100
AcDbEntity
  8
DEFPOINTS
  6
BYBLOCK
 62
     0
100
AcDbPoint
 10
727.068727
 20
252.157925
 30
0.0
  0
ENDBLK
  5
1481
100
AcDbEntity
  8
0
100
AcDbBlockEnd
  0
BLOCK
  5
111C
100
AcDbEntity
  8
0
100
AcDbBlockBegin
  2
*D18
 70
     1
 10
0.0
 20
0.0
 30
0.0
  3
*D18
  1

  0
LINE
  5
111D
100
AcDbEntity
  8
0
  6
BYBLOCK
100
AcDbLine
 10
672.146164
 20
349.287219
 30
0.0
 11
693.863647
 21
349.287219
 31
0.0
  0
LINE
  5
111E
100
AcDbEntity
  8
0
  6
BYBLOCK
100
AcDbLine
 10
682.068727
 20
351.875409
 30
0.0
 11
693.863647
 21
351.875409
 31
0.0
  0
LINE
  5
111F
100
AcDbEntity
  8
0
  6
BYBLOCK
100
AcDbLine
 10
691.363647
 20
341.787219
 30
0.0
 11
691.363647
 21
334.287219
 31
0.0
  0
LINE
  5
1120
100
AcDbEntity
  8
0
  6
BYBLOCK
100
AcDbLine
 10
691.363647
 20
359.375409
 30
0.0
 11
691.363647
 21
366.875409
 31
0.0
  0
MTEXT
  5
1121
100
AcDbEntity
  8
0
  6
BYBLOCK
 62
     1
100
AcDbMText
 10
682.966578
 20
339.274803
 30
0.0
 40
7.5
 41
0.0
 71
     5
 72
     1
  1
\A1;3
  7
TOM
 11
0.0
 21
1.0
 31
0.0
  0
LINE
  5
1122
100
AcDbEntity
  8
0
  6
BYBLOCK
100
AcDbLine
 10
691.363647
 20
349.287219
 30
0.0
 11
691.363647
 21
351.875409
 31
0.0
  0
LINE
  5
1123
100
AcDbEntity
  8
0
  6
BYBLOCK
100
AcDbLine
 10
691.363647
 20
349.287219
 30
0.0
 11
691.363647
 21
351.875409
 31
0.0
  0
SOLID
  5
1124
100
AcDbEntity
  8
0
  6
BYBLOCK
100
AcDbTrace
 10
690.113647
 20
341.787219
 30
0.0
 11
692.613647
 21
341.787219
 31
0.0
 12
691.363647
 22
349.287219
 32
0.0
 13
691.363647
 23
349.287219
 33
0.0
  0
SOLID
  5
1125
100
AcDbEntity
  8
0
  6
BYBLOCK
100
AcDbTrace
 10
690.113647
 20
359.375409
 30
0.0
 11
692.613647
 21
359.375409
 31
0.0
 12
691.363647
 22
351.875409
 32
0.0
 13
691.363647
 23
351.875409
 33
0.0
  0
POINT
  5
1126
100
AcDbEntity
  8
DEFPOINTS
  6
BYBLOCK
 62
     0
100
AcDbPoint
 10
667.146164
 20
349.287219
 30
0.0
  0
POINT
  5
1127
100
AcDbEntity
  8
DEFPOINTS
  6
BYBLOCK
 62
     0
100
AcDbPoint
 10
677.068727
 20
351.875409
 30
0.0
  0
POINT
  5
1128
100
AcDbEntity
  8
DEFPOINTS
  6
BYBLOCK
 62
     0
100
AcDbPoint
 10
691.363647
 20
351.875409
 30
0.0
  0
ENDBLK
  5
1129
100
AcDbEntity
  8
0
100
AcDbBlockEnd
  0
BLOCK
  5
145F
100
AcDbEntity
  8
0
100
AcDbBlockBegin
  2
*D19
 70
     1
 10
0.0
 20
0.0
 30
0.0
  3
*D19
  1

  0
LINE
  5
1460
100
AcDbEntity
  8
0
  6
BYBLOCK
100
AcDbLine
 10
687.409469
 20
237.98086
 30
0.0
 11
687.409469
 21
269.961469
 31
0.0
  0
LINE
  5
1461
100
AcDbEntity
  8
0
  6
BYBLOCK
100
AcDbLine
 10
387.683496
 20
195.98086
 30
0.0
 11
387.683496
 21
269.961469
 31
0.0
  0
LINE
  5
1462
100
AcDbEntity
  8
0
  6
BYBLOCK
100
AcDbLine
 10
679.909469
 20
267.461469
 30
0.0
 11
395.183496
 21
267.461469
 31
0.0
  0
SOLID
  5
1463
100
AcDbEntity
  8
0
  6
BYBLOCK
100
AcDbTrace
 10
679.909469
 20
268.711469
 30
0.0
 11
679.909469
 21
266.211469
 31
0.0
 12
687.409469
 22
267.461469
 32
0.0
 13
687.409469
 23
267.461469
 33
0.0
  0
SOLID
  5
1464
100
AcDbEntity
  8
0
  6
BYBLOCK
100
AcDbTrace
 10
395.183496
 20
268.711469
 30
0.0
 11
395.183496
 21
266.211469
 31
0.0
 12
387.683496
 22
267.461469
 32
0.0
 13
387.683496
 23
267.461469
 33
0.0
  0
MTEXT
  5
1465
100
AcDbEntity
  8
0
  6
BYBLOCK
 62
     1
100
AcDbMText
 10
537.546482
 20
273.711469
 30
0.0
 40
7.5
 41
0.0
 71
     5
 72
     1
  1
\A1;300
  7
TOM
  0
POINT
  5
1466
100
AcDbEntity
  8
DEFPOINTS
  6
BYBLOCK
 62
     0
100
AcDbPoint
 10
687.409469
 20
232.98086
 30
0.0
  0
POINT
  5
1467
100
AcDbEntity
  8
DEFPOINTS
  6
BYBLOCK
 62
     0
100
AcDbPoint
 10
387.683496
 20
190.98086
 30
0.0
  0
POINT
  5
1468
100
AcDbEntity
  8
DEFPOINTS
  6
BYBLOCK
 62
     0
100
AcDbPoint
 10
387.683496
 20
267.461469
 30
0.0
  0
ENDBLK
  5
1469
100
AcDbEntity
  8
0
100
AcDbBlockEnd
  0
ENDSEC
  0
SECTION
  2
ENTITIES
  0
MTEXT
  5
8DF
100
AcDbEntity
  8
0
100
AcDbMText
 10
446.052332
 20
319.605335
 30
0.0
 40
10.0
 41
133.99
 71
     1
 72
     5
  1
PZ 300 - Micro
  7
TOM
1001
ACAD
1000
MTEXTBEGIN
1070
    73
1070
     1
1070
    44
1040
1.0
1070
    74
1070
     0
1000
MTEXTEND
  0
DIMENSION
  5
10C8
100
AcDbEntity
  8
KOTY-UPLNE
100
AcDbDimension
  2
*D13
 10
407.683496
 20
249.662252
 30
0.0
 11
397.683496
 21
255.912252
 31
0.0
 70
    32
  3
KOTY-VELKE
100
AcDbAlignedDimension
 13
387.683496
 23
191.98086
 33
0.0
 14
407.683496
 24
227.98086
 34
0.0
100
AcDbRotatedDimension
1001
ACAD
1000
DSTYLE
1002
{
1070
    40
1040
5.0
1070
   147
1040
0.5
1070
    44
1040
0.5
1070
   178
1070
     1
1070
   177
1070
   256
1070
   176
1070
   256
1002
}
  0
DIMENSION
  5
10CA
100
AcDbEntity
  8
KOTY-UPLNE
100
AcDbDimension
  2
*D17
 10
727.068727
 20
252.157925
 30
0.0
 11
734.238854
 21
259.275195
 31
0.0
 70
   160
  1
10
  3
KOTY-VELKE
100
AcDbAlignedDimension
 13
717.663802
 23
191.376696
 33
0.0
 14
727.068727
 24
192.569051
 34
0.0
100
AcDbRotatedDimension
1001
ACAD
1000
DSTYLE
1002
{
1070
    75
1070
     1
1070
    40
1040
5.0
1070
   147
1040
0.5
1070
    44
1040
0.5
1070
   178
1070
     1
1070
   177
1070
   256
1070
   176
1070
   256
1002
}
  0
DIMENSION
  5
10CB
100
AcDbEntity
  8
KOTY-UPLNE
100
AcDbDimension
  2
*D16
 10
717.663802
 20
252.157925
 30
0.0
 11
702.536635
 21
258.407925
 31
0.0
 70
    32
  3
KOTY-VELKE
100
AcDbAlignedDimension
 13
687.409469
 23
227.98086
 33
0.0
 14
717.663802
 24
191.376696
 34
0.0
100
AcDbRotatedDimension
1001
ACAD
1000
DSTYLE
1002
{
1070
    40
1040
5.0
1070
   147
1040
0.5
1070
    44
1040
0.5
1070
   178
1070
     1
1070
   177
1070
   256
1070
   176
1070
   256
1002
}
  0
DIMENSION
  5
10CC
100
AcDbEntity
  8
KOTY-UPLNE
100
AcDbDimension
  2
*D14
 10
727.068727
 20
267.461469
 30
0.0
 11
707.239098
 21
273.711469
 31
0.0
 12
50.0
 22
-159.306359
 32
0.0
 70
    32
  3
KOTY-VELKE
100
AcDbAlignedDimension
 13
687.409469
 23
227.98086
 33
0.0
 14
727.068727
 24
192.569051
 34
0.0
100
AcDbRotatedDimension
1001
ACAD
1000
DSTYLE
1002
{
1070
    40
1040
5.0
1070
   147
1040
0.5
1070
    44
1040
0.5
1070
   178
1070
     1
1070
   177
1070
   256
1070
   176
1070
   256
1002
}
  0
DIMENSION
  5
10CD
100
AcDbEntity
  8
KOTY-UPLNE
100
AcDbDimension
  2
*D15
 10
761.07208
 20
192.524502
 30
0.0
 11
754.82208
 21
211.524502
 31
0.0
 12
49.624714
 22
-156.762717
 32
0.0
 70
    32
  3
KOTY-VELKE
100
AcDbAlignedDimension
 13
687.034183
 23
230.524502
 33
0.0
 14
716.770878
 24
192.524502
 34
0.0
 50
90.0
100
AcDbRotatedDimension
1001
ACAD
1000
DSTYLE
1002
{
1070
    40
1040
5.0
1070
   147
1040
0.5
1070
    44
1040
0.5
1070
   178
1070
     1
1070
   177
1070
   256
1070
   176
1070
   256
1002
}
  0
DIMENSION
  5
10CE
100
AcDbEntity
  8
KOTY-UPLNE
100
AcDbDimension
  2
*D18
 10
740.988361
 20
195.112692
 30
0.0
 11
732.591292
 21
182.512086
 31
0.0
 12
49.624714
 22
-156.762717
 32
0.0
 70
   160
  3
KOTY-VELKE
100
AcDbAlignedDimension
 13
716.770878
 23
192.524502
 33
0.0
 14
726.693441
 24
195.112692
 34
0.0
 50
90.0
100
AcDbRotatedDimension
1001
ACAD
1000
DSTYLE
1002
{
1070
    40
1040
5.0
1070
   147
1040
0.5
1070
    44
1040
0.5
1070
   178
1070
     1
1070
   177
1070
   256
1070
   176
1070
   256
1002
}
  0
DIMENSION
  5
145E
100
AcDbEntity
  8
KOTY-UPLNE
100
AcDbDimension
  2
*D19
 10
387.683496
 20
267.461469
 30
0.0
 11
537.546482
 21
273.711469
 31
0.0
 70
    32
  3
KOTY-VELKE
100
AcDbAlignedDimension
 13
687.409469
 23
232.98086
 33
0.0
 14
387.683496
 24
190.98086
 34
0.0
100
AcDbRotatedDimension
1001
ACAD
1000
DSTYLE
1002
{
1070
    40
1040
5.0
1070
   147
1040
0.5
1070
    44
1040
0.5
1070
   178
1070
     1
1070
   177
1070
   256
1070
   176
1070
   256
1002
}
  0
LWPOLYLINE
  5
148F
100
AcDbEntity
  8
LAMELA-VELKA
100
AcDbPolyline
 90
       48
 70
     0
 43
2.0
 10
387.683496
 20
190.98086
 10
405.683496
 20
190.98086
 42
0.414214
 10
407.683496
 20
192.98086
 10
407.683496
 20
229.751154
 42
-0.357511
 10
408.889321
 20
231.222025
 10
409.172359
 20
231.278633
 10
417.172359
 20
229.678633
 10
425.172359
 20
231.278633
 10
433.172359
 20
229.678633
 10
441.172359
 20
231.278633
 10
442.742445
 20
231.59265
 10
450.742445
 20
229.99265
 10
458.742445
 20
231.59265
 10
466.742445
 20
229.99265
 10
474.742445
 20
231.59265
 10
482.742445
 20
229.99265
 10
490.742445
 20
231.59265
 10
498.742445
 20
229.99265
 10
506.742445
 20
231.59265
 10
514.742445
 20
229.99265
 10
522.742445
 20
231.59265
 10
530.742445
 20
229.99265
 10
538.742445
 20
231.59265
 10
546.742445
 20
229.99265
 10
554.742445
 20
231.59265
 10
562.742445
 20
229.99265
 10
570.742445
 20
231.59265
 10
578.742445
 20
229.99265
 10
586.742445
 20
231.59265
 10
594.742445
 20
229.99265
 10
602.742445
 20
231.59265
 10
610.742445
 20
229.99265
 10
618.742445
 20
231.59265
 10
626.742445
 20
229.99265
 10
634.742445
 20
231.59265
 10
642.742445
 20
229.99265
 10
650.742445
 20
231.59265
 10
658.742445
 20
229.99265
 10
666.742445
 20
231.59265
 10
674.742445
 20
229.99265
 10
682.742445
 20
231.59265
 10
685.350213
 20
232.114203
 42
-0.473285
 10
687.742445
 20
230.153042
 10
687.742445
 20
194.59265
 42
0.414214
 10
689.742445
 20
192.59265
 10
717.288516
 20
192.59265
 42
0.112057
 10
718.151898
 20
192.788607
 10
726.693441
 20
195.112692
  0
ENDSEC
  0
SECTION
  2
OBJECTS
  0
DICTIONARY
  5
7
100
AcDbDictionary
  3
ACAD_GROUP
350
22
  3
ACAD_LAYOUT
350
B
  3
ACAD_MLINESTYLE
350
23
  3
ACAD_PLOTSETTINGS
350
24
  3
ACAD_PLOTSTYLENAME
350
6
  3
ACDBHEADERROUNDTRIPXREC
350
11D
  3
DWGPROPS
350
52
  0
DICTIONARY
  5
147
100
AcDbDictionary
280
     1
  3
ACAD_XREC_ROUNDTRIP
360
148
  0
DICTIONARY
  5
117
100
AcDbDictionary
280
     1
  3
ACAD_XREC_ROUNDTRIP
360
118
  0
DICTIONARY
  5
145
100
AcDbDictionary
280
     1
  3
ACAD_XREC_ROUNDTRIP
360
146
  0
DICTIONARY
  5
13E
100
AcDbDictionary
280
     1
  3
ACAD_LAYOUTSELFREF
360
13F
  0
DICTIONARY
  5
111
100
AcDbDictionary
280
     1
  3
ACAD_LAYOUTSELFREF
360
142
  3
ACAD_XREC_ROUNDTRIP
360
112
  0
DICTIONARY
  5
22
102
{ACAD_REACTORS
330
7
102
}
100
AcDbDictionary
  0
DICTIONARY
  5
B
102
{ACAD_XDICTIONARY
360
140
102
}
102
{ACAD_REACTORS
330
7
102
}
100
AcDbDictionary
  3
LAYOUT2
350
F
  3
MODEL
350
A
  0
DICTIONARY
  5
23
102
{ACAD_REACTORS
330
7
102
}
100
AcDbDictionary
  3
STANDARD
350
27
  0
DICTIONARY
  5
24
102
{ACAD_REACTORS
330
7
102
}
100
AcDbDictionary
  0
ACAD_PROXY_OBJECT
  5
6
102
{ACAD_REACTORS
330
7
102
}
100
AcDbProxyObject
 90
      499
 91
      502
 93
       86
310
405010041939BDC9B585B2
350
5
340
5
 94
        0
  0
DICTIONARY
  5
11D
102
{ACAD_REACTORS
330
7
102
}
100
AcDbDictionary
  3
CEPSNTYPE
350
127
  3
DIMSTYLEDATA
350
12B
  3
FINGERPRINTGUID
350
128
  3
HYPERLINKBASE
350
120
  3
INSUNITS
350
126
  3
LAYOUTDICT
350
122
  3
LWETCUNION
350
125
  3
PLOTSETDICT
350
123
  3
PLOTSTYLNAMDICT
350
124
  3
PSVPSCALE
350
12A
  3
PUCSBASE
350
12E
  3
PUCSORGBACK
350
134
  3
PUCSORGBOTTOM
350
130
  3
PUCSORGFRONT
350
133
  3
PUCSORGLEFT
350
131
  3
PUCSORGRIGHT
350
132
  3
PUCSORGTOP
350
12F
  3
PUCSORTHOREF
350
12C
  3
PUCSORTHOVIEW
350
12D
  3
STYLESHEET
350
121
  3
TSTACKALIGN
350
11E
  3
TSTACKSIZE
350
11F
  3
UCSBASE
350
137
  3
UCSORGBACK
350
13D
  3
UCSORGBOTTOM
350
139
  3
UCSORGFRONT
350
13C
  3
UCSORGLEFT
350
13A
  3
UCSORGRIGHT
350
13B
  3
UCSORGTOP
350
138
  3
UCSORTHOREF
350
135
  3
UCSORTHOVIEW
350
136
  3
VERSIONGUID
350
129
  0
XRECORD
  5
52
102
{ACAD_REACTORS
330
7
102
}
100
AcDbXrecord
  1
DWGPROPS COOKIE
  2

  3

  4

  6

  7

  8
tom
  9

300
=
301
=
302
=
303
=
304
=
305
=
306
=
307
=
308
=
309
=
 40
0.356595
 41
2450098.461195
 42
2452040.602766
  1

 90
        0
  0
XRECORD
  5
148
102
{ACAD_REACTORS
330
147
102
}
100
AcDbXrecord
102
PLOTBIT
280
     0
  0
XRECORD
  5
118
102
{ACAD_REACTORS
330
117
102
}
100
AcDbXrecord
102
EXTNAMES
  1
TOM
  2
tom
  0
XRECORD
  5
146
102
{ACAD_REACTORS
330
145
102
}
100
AcDbXrecord
102
ACADR14ROUNDTRIP
1000
DSTYLE
1002
{
1070
   279
 70
     2
1002
}
  0
XRECORD
  5
13F
102
{ACAD_REACTORS
330
13E
102
}
100
AcDbXrecord
340
2
  0
XRECORD
  5
142
102
{ACAD_REACTORS
330
111
102
}
100
AcDbXrecord
340
C
  0
XRECORD
  5
112
102
{ACAD_REACTORS
330
111
102
}
100
AcDbXrecord
102
EXTNAMES
  1
*PAPER_SPACE
  2
*Paper_Space
  0
DICTIONARY
  5
140
100
AcDbDictionary
280
     1
  3
ACAD_XREC_ROUNDTRIP
360
141
  0
ACAD_PROXY_OBJECT
  5
F
102
{ACAD_REACTORS
330
B
102
}
100
AcDbProxyObject
 90
      499
 91
      504
 93
     1484
310
91943616E6F6E20427562626C652D4A657420424A432D343030302C8080000002033931C4000000000333F0A9000000000080ED0C4000000000003003D000000008067416A400000001017639C901024134A40501416AA543D513D34C4B5CDA591A5B99CB98DD1891069074C61796F75743240501A80000000003003F00000
310
00080CE4C7300000001037539C9000000039F3571A502A6A6A0000000022FC4ED00D0CCCCB8ACED3340800000060BC6F6F401999B993D89AD99020
330
C
330
0
340
0
340
0
 94
        0
  0
ACAD_PROXY_OBJECT
  5
A
102
{ACAD_REACTORS
330
B
102
}
100
AcDbProxyObject
 90
      499
 91
      504
 93
     1796
310
9144B796F63657261204D6974612046532D31383030290B8000000C067381B40000000102F06C51000000000068381B40000000002E06C510000000080253F6A400000003834239C90102413400000000002012100AE47E17A148E5E40405014100055D792FC8379401026BDF13AE5E0500049AA63FFE6283402D878F5E855
310
EE41024000000000000144043D513D34C4B5CDA591A5B99CB98DD18A26A666666666724FC0055D792FC8379C01026BDF13AE5E0701054D6F64656C901A800000000000000000000000000000000000000000000A1000000000000008902A6A6AAAA7
330
2
330
0
340
0
340
0
 94
        0
  0
MLINESTYLE
  5
27
102
{ACAD_REACTORS
330
23
102
}
100
AcDbMlineStyle
  2
STANDARD
 70
     0
  3

 62
   256
 51
90.0
 52
90.0
 71
     2
 49
0.5
 62
   256
  6
BYLAYER
 49
-0.5
 62
   256
  6
BYLAYER
  0
ACAD_PROXY_OBJECT
  5
5
102
{ACAD_REACTORS
330
6
102
}
100
AcDbProxyObject
 90
      499
 91
      503
 93
        0
 94
        0
  0
XRECORD
  5
127
102
{ACAD_REACTORS
330
11D
102
}
100
AcDbXrecord
 90
        0
  0
XRECORD
  5
12B
102
{ACAD_REACTORS
330
11D
102
}
100
AcDbXrecord
1000
DSTYLE
1002
{
1070
   179
 70
     4
1070
   278
 70
    44
1070
   279
 70
     2
1070
   289
 70
     1
1002
}
  0
XRECORD
  5
128
102
{ACAD_REACTORS
330
11D
102
}
100
AcDbXrecord
  1
{986116A0-451F-11D5-BBCF-006097BB053F}
  0
XRECORD
  5
120
102
{ACAD_REACTORS
330
11D
102
}
100
AcDbXrecord
  1

  0
XRECORD
  5
126
102
{ACAD_REACTORS
330
11D
102
}
100
AcDbXrecord
 90
        0
  0
XRECORD
  5
122
102
{ACAD_REACTORS
330
11D
102
}
100
AcDbXrecord
340
B
  0
XRECORD
  5
125
102
{ACAD_REACTORS
330
11D
102
}
100
AcDbXrecord
 90
    10781
  0
XRECORD
  5
123
102
{ACAD_REACTORS
330
11D
102
}
100
AcDbXrecord
340
24
  0
XRECORD
  5
124
102
{ACAD_REACTORS
330
11D
102
}
100
AcDbXrecord
340
6
  0
XRECORD
  5
12A
102
{ACAD_REACTORS
330
11D
102
}
100
AcDbXrecord
 40
0.0
  0
XRECORD
  5
12E
102
{ACAD_REACTORS
330
11D
102
}
100
AcDbXrecord
340
0
  0
XRECORD
  5
134
102
{ACAD_REACTORS
330
11D
102
}
100
AcDbXrecord
 10
0.0
 20
0.0
 30
0.0
  0
XRECORD
  5
130
102
{ACAD_REACTORS
330
11D
102
}
100
AcDbXrecord
 10
0.0
 20
0.0
 30
0.0
  0
XRECORD
  5
133
102
{ACAD_REACTORS
330
11D
102
}
100
AcDbXrecord
 10
0.0
 20
0.0
 30
0.0
  0
XRECORD
  5
131
102
{ACAD_REACTORS
330
11D
102
}
100
AcDbXrecord
 10
0.0
 20
0.0
 30
0.0
  0
XRECORD
  5
132
102
{ACAD_REACTORS
330
11D
102
}
100
AcDbXrecord
 10
0.0
 20
0.0
 30
0.0
  0
XRECORD
  5
12F
102
{ACAD_REACTORS
330
11D
102
}
100
AcDbXrecord
 10
0.0
 20
0.0
 30
0.0
  0
XRECORD
  5
12C
102
{ACAD_REACTORS
330
11D
102
}
100
AcDbXrecord
340
0
  0
XRECORD
  5
12D
102
{ACAD_REACTORS
330
11D
102
}
100
AcDbXrecord
 70
     0
  0
XRECORD
  5
121
102
{ACAD_REACTORS
330
11D
102
}
100
AcDbXrecord
  1
TOM1-siding.ctb
  0
XRECORD
  5
11E
102
{ACAD_REACTORS
330
11D
102
}
100
AcDbXrecord
 90
        1
  0
XRECORD
  5
11F
102
{ACAD_REACTORS
330
11D
102
}
100
AcDbXrecord
 90
       70
  0
XRECORD
  5
137
102
{ACAD_REACTORS
330
11D
102
}
100
AcDbXrecord
340
0
  0
XRECORD
  5
13D
102
{ACAD_REACTORS
330
11D
102
}
100
AcDbXrecord
 10
0.0
 20
0.0
 30
0.0
  0
XRECORD
  5
139
102
{ACAD_REACTORS
330
11D
102
}
100
AcDbXrecord
 10
0.0
 20
0.0
 30
0.0
  0
XRECORD
  5
13C
102
{ACAD_REACTORS
330
11D
102
}
100
AcDbXrecord
 10
0.0
 20
0.0
 30
0.0
  0
XRECORD
  5
13A
102
{ACAD_REACTORS
330
11D
102
}
100
AcDbXrecord
 10
0.0
 20
0.0
 30
0.0
  0
XRECORD
  5
13B
102
{ACAD_REACTORS
330
11D
102
}
100
AcDbXrecord
 10
0.0
 20
0.0
 30
0.0
  0
XRECORD
  5
138
102
{ACAD_REACTORS
330
11D
102
}
100
AcDbXrecord
 10
0.0
 20
0.0
 30
0.0
  0
XRECORD
  5
135
102
{ACAD_REACTORS
330
11D
102
}
100
AcDbXrecord
340
0
  0
XRECORD
  5
136
102
{ACAD_REACTORS
330
11D
102
}
100
AcDbXrecord
 70
     0
  0
XRECORD
  5
129
102
{ACAD_REACTORS
330
11D
102
}
100
AcDbXrecord
  1
{F5D44C6B-50ED-11D5-BBCF-006097BB053F}
  0
XRECORD
  5
141
102
{ACAD_REACTORS
330
140
102
}
100
AcDbXrecord
102
EXTNAMES
  1
LAYOUT2
  2
Layout2
  1
MODEL
  2
Model
  0
ENDSEC
  0
EOF
