  0
SECTION
  2
HEADER
  9
$ACADVER
  1
AC1014
  9
$ACADMAINTVER
 70
     0
  9
$DWGCODEPAGE
  3
ANSI_1250
  9
$INSBASE
 10
0.0
 20
0.0
 30
0.0
  9
$EXTMIN
 10
0.0
 20
-294.001233
 30
0.0
  9
$EXTMAX
 10
1349.672502
 20
0.0
 30
0.0
  9
$LIMMIN
 10
-1000.0
 20
-1000.0
  9
$LIMMAX
 10
1000.0
 20
1000.0
  9
$ORTHOMODE
 70
     0
  9
$REGENMODE
 70
     1
  9
$FILLMODE
 70
     1
  9
$QTEXTMODE
 70
     0
  9
$MIRRTEXT
 70
     0
  9
$DRAGMODE
 70
     2
  9
$LTSCALE
 40
3.0
  9
$OSMODE
 70
    32
  9
$ATTMODE
 70
     1
  9
$TEXTSIZE
 40
50.0
  9
$TRACEWID
 40
0.05
  9
$TEXTSTYLE
  7
STANDARD
  9
$CLAYER
  8
KOTY-UPLNE
  9
$CELTYPE
  6
BYLAYER
  9
$CECOLOR
 62
   256
  9
$CELTSCALE
 40
1.0
  9
$DELOBJ
 70
     1
  9
$DISPSILH
 70
     0
  9
$DIMSCALE
 40
3.0
  9
$DIMASZ
 40
5.0
  9
$DIMEXO
 40
1.0
  9
$DIMDLI
 40
0.0
  9
$DIMRND
 40
1.0
  9
$DIMDLE
 40
1.0
  9
$DIMEXE
 40
2.0
  9
$DIMTP
 40
0.0
  9
$DIMTM
 40
0.0
  9
$DIMTXT
 40
6.44
  9
$DIMCEN
 40
1.0
  9
$DIMTSZ
 40
0.0
  9
$DIMTOL
 70
     0
  9
$DIMLIM
 70
     0
  9
$DIMTIH
 70
     0
  9
$DIMTOH
 70
     0
  9
$DIMSE1
 70
     0
  9
$DIMSE2
 70
     0
  9
$DIMTAD
 70
     3
  9
$DIMZIN
 70
     0
  9
$DIMBLK
  1

  9
$DIMASO
 70
     1
  9
$DIMSHO
 70
     0
  9
$DIMPOST
  1

  9
$DIMAPOST
  1

  9
$DIMALT
 70
     0
  9
$DIMALTD
 70
     2
  9
$DIMALTF
 40
25.4
  9
$DIMLFAC
 40
1.0
  9
$DIMTOFL
 70
     1
  9
$DIMTVP
 40
0.0
  9
$DIMTIX
 70
     1
  9
$DIMSOXD
 70
     0
  9
$DIMSAH
 70
     0
  9
$DIMBLK1
  1

  9
$DIMBLK2
  1

  9
$DIMSTYLE
  2
UPLNE
  9
$DIMCLRD
 70
   256
  9
$DIMCLRE
 70
   256
  9
$DIMCLRT
 70
     5
  9
$DIMTFAC
 40
1.0
  9
$DIMGAP
 40
2.0
  9
$DIMJUST
 70
     0
  9
$DIMSD1
 70
     0
  9
$DIMSD2
 70
     0
  9
$DIMTOLJ
 70
     1
  9
$DIMTZIN
 70
     0
  9
$DIMALTZ
 70
     0
  9
$DIMALTTZ
 70
     0
  9
$DIMFIT
 70
     5
  9
$DIMUPT
 70
     0
  9
$DIMUNIT
 70
     2
  9
$DIMDEC
 70
     0
  9
$DIMTDEC
 70
     0
  9
$DIMALTU
 70
     2
  9
$DIMALTTD
 70
     2
  9
$DIMTXSTY
  7
STANDARD
  9
$DIMAUNIT
 70
     0
  9
$LUNITS
 70
     2
  9
$LUPREC
 70
     2
  9
$SKETCHINC
 40
0.1
  9
$FILLETRAD
 40
5.0
  9
$AUNITS
 70
     0
  9
$AUPREC
 70
     2
  9
$MENU
  1
acad
  9
$ELEVATION
 40
0.0
  9
$PELEVATION
 40
0.0
  9
$THICKNESS
 40
0.0
  9
$LIMCHECK
 70
     0
  9
$BLIPMODE
 70
     1
  9
$CHAMFERA
 40
0.0
  9
$CHAMFERB
 40
0.0
  9
$CHAMFERC
 40
0.0
  9
$CHAMFERD
 40
0.0
  9
$SKPOLY
 70
     0
  9
$TDCREATE
 40
2448722.252204629
  9
$TDUPDATE
 40
2452465.883440277
  9
$TDINDWG
 40
2.5465968750
  9
$TDUSRTIMER
 40
2.5465968750
  9
$USRTIMER
 70
     1
  9
$ANGBASE
 50
0.0
  9
$ANGDIR
 70
     0
  9
$PDMODE
 70
     0
  9
$PDSIZE
 40
0.0
  9
$PLINEWID
 40
0.0
  9
$COORDS
 70
     2
  9
$SPLFRAME
 70
     0
  9
$SPLINETYPE
 70
     6
  9
$SPLINESEGS
 70
     8
  9
$ATTDIA
 70
     0
  9
$ATTREQ
 70
     1
  9
$HANDLING
 70
     1
  9
$HANDSEED
  5
53
  9
$SURFTAB1
 70
     6
  9
$SURFTAB2
 70
     6
  9
$SURFTYPE
 70
     6
  9
$SURFU
 70
     6
  9
$SURFV
 70
     6
  9
$UCSNAME
  2

  9
$UCSORG
 10
0.0
 20
0.0
 30
0.0
  9
$UCSXDIR
 10
1.0
 20
0.0
 30
0.0
  9
$UCSYDIR
 10
0.0
 20
1.0
 30
0.0
  9
$PUCSNAME
  2

  9
$PUCSORG
 10
0.0
 20
0.0
 30
0.0
  9
$PUCSXDIR
 10
1.0
 20
0.0
 30
0.0
  9
$PUCSYDIR
 10
0.0
 20
1.0
 30
0.0
  9
$USERI1
 70
     1
  9
$USERI2
 70
     0
  9
$USERI3
 70
     0
  9
$USERI4
 70
     0
  9
$USERI5
 70
     0
  9
$USERR1
 40
0.0
  9
$USERR2
 40
0.0
  9
$USERR3
 40
0.0
  9
$USERR4
 40
0.0
  9
$USERR5
 40
0.0
  9
$WORLDVIEW
 70
     1
  9
$SHADEDGE
 70
     3
  9
$SHADEDIF
 70
    70
  9
$TILEMODE
 70
     1
  9
$MAXACTVP
 70
    16
  9
$PINSBASE
 10
0.0
 20
0.0
 30
0.0
  9
$PLIMCHECK
 70
     0
  9
$PEXTMIN
 10
1.000000E+20
 20
1.000000E+20
 30
1.000000E+20
  9
$PEXTMAX
 10
-1.000000E+20
 20
-1.000000E+20
 30
-1.000000E+20
  9
$PLIMMIN
 10
0.0
 20
0.0
  9
$PLIMMAX
 10
12.0
 20
9.0
  9
$UNITMODE
 70
     0
  9
$VISRETAIN
 70
     0
  9
$PLINEGEN
 70
     0
  9
$PSLTSCALE
 70
     0
  9
$TREEDEPTH
 70
  3020
  9
$PICKSTYLE
 70
     0
  9
$CMLSTYLE
  2
STANDARD
  9
$CMLJUST
 70
     0
  9
$CMLSCALE
 40
1.0
  9
$PROXYGRAPHICS
 70
     1
  9
$MEASUREMENT
 70
     0
  0
ENDSEC
  0
SECTION
  2
CLASSES
  0
CLASS
  1
LWPOLYLINE
  2
AcDbPolyline
  3
"AutoCAD"
 90
        0
280
     0
281
     1
  0
CLASS
  1
DICTIONARYVAR
  2
AcDbDictionaryVar
  3
"AutoCAD"
 90
        0
280
     0
281
     0
  0
ENDSEC
  0
SECTION
  2
TABLES
  0
TABLE
  2
VPORT
  5
12
100
AcDbSymbolTable
 70
     2
  0
VPORT
  5
52
100
AcDbSymbolTableRecord
100
AcDbViewportTableRecord
  2
*ACTIVE
 70
     0
 10
0.0
 20
0.0
 11
1.0
 21
1.0
 12
632.850082
 22
-146.668224
 13
0.0
 23
0.0
 14
1.0
 24
1.0
 15
600.0
 25
600.0
 16
0.0
 26
0.0
 36
1.0
 17
0.0
 27
0.0
 37
0.0
 40
689.307148
 41
2.224444
 42
50.0
 43
0.0
 44
0.0
 50
0.0
 51
0.0
 71
     0
 72
   100
 73
     1
 74
     0
 75
     0
 76
     0
 77
     0
 78
     0
  0
ENDTAB
  0
TABLE
  2
LTYPE
  5
D
100
AcDbSymbolTable
 70
     1
  0
LTYPE
  5
E
100
AcDbSymbolTableRecord
100
AcDbLinetypeTableRecord
  2
BYBLOCK
 70
     0
  3

 72
    65
 73
     0
 40
0.0
  0
LTYPE
  5
F
100
AcDbSymbolTableRecord
100
AcDbLinetypeTableRecord
  2
BYLAYER
 70
     0
  3

 72
    65
 73
     0
 40
0.0
  0
LTYPE
  5
5
100
AcDbSymbolTableRecord
100
AcDbLinetypeTableRecord
  2
CONTINUOUS
 70
     0
  3
Solid line
 72
    65
 73
     0
 40
0.0
  0
ENDTAB
  0
TABLE
  2
LAYER
  5
A
100
AcDbSymbolTable
 70
     6
  0
LAYER
  5
4
100
AcDbSymbolTableRecord
100
AcDbLayerTableRecord
  2
0
 70
     0
 62
     7
  6
CONTINUOUS
  0
LAYER
  5
1B
100
AcDbSymbolTableRecord
100
AcDbLayerTableRecord
  2
KOTY-UPLNE
 70
     0
 62
     7
  6
CONTINUOUS
  0
LAYER
  5
2F
100
AcDbSymbolTableRecord
100
AcDbLayerTableRecord
  2
RAMEC
 70
     0
 62
     5
  6
CONTINUOUS
  0
LAYER
  5
3E
100
AcDbSymbolTableRecord
100
AcDbLayerTableRecord
  2
POPIS
 70
     0
 62
     1
  6
CONTINUOUS
  0
LAYER
  5
27
100
AcDbSymbolTableRecord
100
AcDbLayerTableRecord
  2
DEFPOINTS
 70
     0
 62
     7
  6
CONTINUOUS
  0
LAYER
  5
2D
100
AcDbSymbolTableRecord
100
AcDbLayerTableRecord
  2
TRAPEZ-VELKY
 70
     0
 62
     7
  6
CONTINUOUS
  0
ENDTAB
  0
TABLE
  2
STYLE
  5
B
100
AcDbSymbolTable
 70
     2
  0
STYLE
  5
C
100
AcDbSymbolTableRecord
100
AcDbTextStyleTableRecord
  2
STANDARD
 70
     0
 40
0.0
 41
0.9
 50
0.0
 71
     0
 42
50.0
  3
simplex.shx
  4

  0
STYLE
  5
3F
100
AcDbSymbolTableRecord
100
AcDbTextStyleTableRecord
  2
STYLE1
 70
     0
 40
0.0
 41
0.9
 50
0.0
 71
     0
 42
50.0
  3
simplex.shx
  4

  0
ENDTAB
  0
TABLE
  2
VIEW
  5
10
100
AcDbSymbolTable
 70
     0
  0
ENDTAB
  0
TABLE
  2
UCS
  5
11
100
AcDbSymbolTable
 70
     0
  0
ENDTAB
  0
TABLE
  2
APPID
  5
14
100
AcDbSymbolTable
 70
     1
  0
APPID
  5
15
100
AcDbSymbolTableRecord
100
AcDbRegAppTableRecord
  2
ACAD
 70
     0
  0
ENDTAB
  0
TABLE
  2
DIMSTYLE
  5
16
100
AcDbSymbolTable
 70
     1
  0
DIMSTYLE
105
1D
102
{ACAD_REACTORS
330
30
330
40
330
1E
102
}
100
AcDbSymbolTableRecord
100
AcDbDimStyleTableRecord
  2
UPLNE
 70
     0
  3

  4

  5

  6

  7

 40
5.0
 41
5.0
 42
1.0
 43
0.0
 44
2.0
 45
1.0
 46
1.0
 47
0.0
 48
0.0
140
6.44
141
1.0
142
0.0
143
25.4
144
1.0
145
0.0
146
1.0
147
1.0
 71
     0
 72
     0
 73
     0
 74
     0
 75
     0
 76
     0
 77
     3
 78
     0
170
     0
171
     2
172
     1
173
     0
174
     1
175
     0
176
   256
177
   256
178
     5
270
     2
271
     0
272
     0
273
     2
274
     2
340
C
275
     0
280
     0
281
     0
282
     0
283
     1
284
     0
285
     0
286
     0
287
     5
288
     0
  0
ENDTAB
  0
TABLE
  2
BLOCK_RECORD
  5
1
100
AcDbSymbolTable
 70
     3
  0
BLOCK_RECORD
  5
2
100
AcDbSymbolTableRecord
100
AcDbBlockTableRecord
  2
*MODEL_SPACE
  0
BLOCK_RECORD
  5
7
100
AcDbSymbolTableRecord
100
AcDbBlockTableRecord
  2
*PAPER_SPACE
  0
BLOCK_RECORD
  5
31
100
AcDbSymbolTableRecord
100
AcDbBlockTableRecord
  2
*D0
  0
BLOCK_RECORD
  5
41
100
AcDbSymbolTableRecord
100
AcDbBlockTableRecord
  2
*D1
  0
BLOCK_RECORD
  5
1F
100
AcDbSymbolTableRecord
100
AcDbBlockTableRecord
  2
*D2
  0
ENDTAB
  0
ENDSEC
  0
SECTION
  2
BLOCKS
  0
BLOCK
  5
3
100
AcDbEntity
  8
0
100
AcDbBlockBegin
  2
*MODEL_SPACE
 70
     0
 10
0.0
 20
0.0
 30
0.0
  3
*MODEL_SPACE
  1

  0
ENDBLK
  5
6
100
AcDbEntity
  8
0
100
AcDbBlockEnd
  0
BLOCK
  5
8
100
AcDbEntity
 67
     1
  8
0
100
AcDbBlockBegin
  2
*PAPER_SPACE
 70
     0
 10
0.0
 20
0.0
 30
0.0
  3
*PAPER_SPACE
  1

  0
ENDBLK
  5
9
100
AcDbEntity
 67
     1
  8
0
100
AcDbBlockEnd
  0
BLOCK
  5
3B
100
AcDbEntity
  8
0
100
AcDbBlockBegin
  2
*D0
 70
     1
 10
0.0
 20
0.0
 30
0.0
  3
*D0
  1

  0
LINE
  5
32
100
AcDbEntity
  8
0
  6
BYBLOCK
100
AcDbLine
 10
-1903.817313
 20
1136.568531
 30
0.0
 11
-1903.817313
 21
1046.457726
 31
0.0
  0
LINE
  5
33
100
AcDbEntity
  8
0
  6
BYBLOCK
100
AcDbLine
 10
-1792.706113
 20
1136.568531
 30
0.0
 11
-1792.706113
 21
1046.457726
 31
0.0
  0
LINE
  5
34
100
AcDbEntity
  8
0
  6
BYBLOCK
100
AcDbLine
 10
-1888.817313
 20
1052.457726
 30
0.0
 11
-1807.706113
 21
1052.457726
 31
0.0
  0
SOLID
  5
35
100
AcDbEntity
  8
0
  6
BYBLOCK
100
AcDbTrace
 10
-1888.817313
 20
1054.957726
 30
0.0
 11
-1888.817313
 21
1049.957726
 31
0.0
 12
-1903.817313
 22
1052.457726
 32
0.0
 13
-1903.817313
 23
1052.457726
 33
0.0
  0
SOLID
  5
36
100
AcDbEntity
  8
0
  6
BYBLOCK
100
AcDbTrace
 10
-1807.706113
 20
1054.957726
 30
0.0
 11
-1807.706113
 21
1049.957726
 31
0.0
 12
-1792.706113
 22
1052.457726
 32
0.0
 13
-1792.706113
 23
1052.457726
 33
0.0
  0
MTEXT
  5
37
100
AcDbEntity
  8
0
  6
BYBLOCK
 62
     5
100
AcDbMText
 10
-1848.261713
 20
1068.117726
 30
0.0
 40
19.32
 41
0.0
 71
     5
 72
     1
  1
\A1;111
  0
POINT
  5
38
100
AcDbEntity
  8
DEFPOINTS
  6
BYBLOCK
 62
     0
100
AcDbPoint
 10
-1903.817313
 20
1139.568531
 30
0.0
  0
POINT
  5
39
100
AcDbEntity
  8
DEFPOINTS
  6
BYBLOCK
 62
     0
100
AcDbPoint
 10
-1792.706113
 20
1139.568531
 30
0.0
  0
POINT
  5
3A
100
AcDbEntity
  8
DEFPOINTS
  6
BYBLOCK
 62
     0
100
AcDbPoint
 10
-1792.706113
 20
1052.457726
 30
0.0
  0
ENDBLK
  5
3C
100
AcDbEntity
  8
0
100
AcDbBlockEnd
  0
BLOCK
  5
4D
100
AcDbEntity
  8
0
100
AcDbBlockBegin
  2
*D1
 70
     1
 10
0.0
 20
0.0
 30
0.0
  3
*D1
  1

  0
LINE
  5
42
100
AcDbEntity
  8
0
  6
BYBLOCK
100
AcDbLine
 10
-895.816513
 20
1139.513128
 30
0.0
 11
-764.865238
 21
1139.513128
 31
0.0
  0
LINE
  5
43
100
AcDbEntity
  8
0
  6
BYBLOCK
100
AcDbLine
 10
-840.267713
 20
1112.568938
 30
0.0
 11
-764.865238
 21
1112.568938
 31
0.0
  0
LINE
  5
44
100
AcDbEntity
  8
0
  6
BYBLOCK
100
AcDbLine
 10
-770.865238
 20
1154.513128
 30
0.0
 11
-770.865238
 21
1169.513128
 31
0.0
  0
LINE
  5
45
100
AcDbEntity
  8
0
  6
BYBLOCK
100
AcDbLine
 10
-770.865238
 20
1097.568938
 30
0.0
 11
-770.865238
 21
1082.568938
 31
0.0
  0
LINE
  5
46
100
AcDbEntity
  8
0
  6
BYBLOCK
100
AcDbLine
 10
-770.865238
 20
1139.513128
 30
0.0
 11
-770.865238
 21
1112.568938
 31
0.0
  0
SOLID
  5
47
100
AcDbEntity
  8
0
  6
BYBLOCK
100
AcDbTrace
 10
-773.365238
 20
1154.513128
 30
0.0
 11
-768.365238
 21
1154.513128
 31
0.0
 12
-770.865238
 22
1139.513128
 32
0.0
 13
-770.865238
 23
1139.513128
 33
0.0
  0
SOLID
  5
48
100
AcDbEntity
  8
0
  6
BYBLOCK
100
AcDbTrace
 10
-773.365238
 20
1097.568938
 30
0.0
 11
-768.365238
 21
1097.568938
 31
0.0
 12
-770.865238
 22
1112.568938
 32
0.0
 13
-770.865238
 23
1112.568938
 33
0.0
  0
MTEXT
  5
49
100
AcDbEntity
  8
0
  6
BYBLOCK
 62
     5
100
AcDbMText
 10
-786.525238
 20
1126.041033
 30
0.0
 40
19.32
 41
0.0
 71
     5
 72
     1
  1
\A1;27
 11
0.0
 21
1.0
 31
0.0
  0
POINT
  5
4A
100
AcDbEntity
  8
DEFPOINTS
  6
BYBLOCK
 62
     0
100
AcDbPoint
 10
-898.816513
 20
1139.513128
 30
0.0
  0
POINT
  5
4B
100
AcDbEntity
  8
DEFPOINTS
  6
BYBLOCK
 62
     0
100
AcDbPoint
 10
-843.267713
 20
1112.568938
 30
0.0
  0
POINT
  5
4C
100
AcDbEntity
  8
DEFPOINTS
  6
BYBLOCK
 62
     0
100
AcDbPoint
 10
-770.865238
 20
1112.568938
 30
0.0
  0
ENDBLK
  5
4E
100
AcDbEntity
  8
0
100
AcDbBlockEnd
  0
BLOCK
  5
2A
100
AcDbEntity
  8
0
100
AcDbBlockBegin
  2
*D2
 70
     1
 10
0.0
 20
0.0
 30
0.0
  3
*D2
  1

  0
LINE
  5
20
100
AcDbEntity
  8
0
  6
BYBLOCK
100
AcDbLine
 10
-903.817313
 20
1131.568531
 30
0.0
 11
-903.817313
 21
986.457726
 31
0.0
  0
LINE
  5
21
100
AcDbEntity
  8
0
  6
BYBLOCK
100
AcDbLine
 10
-1903.817313
 20
1133.568531
 30
0.0
 11
-1903.817313
 21
986.457726
 31
0.0
  0
LINE
  5
22
100
AcDbEntity
  8
0
  6
BYBLOCK
100
AcDbLine
 10
-918.817313
 20
992.457726
 30
0.0
 11
-1888.817313
 21
992.457726
 31
0.0
  0
SOLID
  5
23
100
AcDbEntity
  8
0
  6
BYBLOCK
100
AcDbTrace
 10
-918.817313
 20
994.957726
 30
0.0
 11
-918.817313
 21
989.957726
 31
0.0
 12
-903.817313
 22
992.457726
 32
0.0
 13
-903.817313
 23
992.457726
 33
0.0
  0
SOLID
  5
24
100
AcDbEntity
  8
0
  6
BYBLOCK
100
AcDbTrace
 10
-1888.817313
 20
994.957726
 30
0.0
 11
-1888.817313
 21
989.957726
 31
0.0
 12
-1903.817313
 22
992.457726
 32
0.0
 13
-1903.817313
 23
992.457726
 33
0.0
  0
MTEXT
  5
25
100
AcDbEntity
  8
0
  6
BYBLOCK
 62
     5
100
AcDbMText
 10
-1403.817313
 20
1008.117726
 30
0.0
 40
19.32
 41
0.0
 71
     5
 72
     1
  1
\A1;1000
  0
POINT
  5
26
100
AcDbEntity
  8
DEFPOINTS
  6
BYBLOCK
 62
     0
100
AcDbPoint
 10
-903.817313
 20
1134.568531
 30
0.0
  0
POINT
  5
28
100
AcDbEntity
  8
DEFPOINTS
  6
BYBLOCK
 62
     0
100
AcDbPoint
 10
-1903.817313
 20
1136.568531
 30
0.0
  0
POINT
  5
29
100
AcDbEntity
  8
DEFPOINTS
  6
BYBLOCK
 62
     0
100
AcDbPoint
 10
-1903.817313
 20
992.457726
 30
0.0
  0
ENDBLK
  5
2B
100
AcDbEntity
  8
0
100
AcDbBlockEnd
  0
ENDSEC
  0
SECTION
  2
ENTITIES
  0
DIMENSION
  5
1E
100
AcDbEntity
  8
KOTY-UPLNE
100
AcDbDimension
  2
*D2
 10
152.855297
 20
-244.884928
 30
0.0
 11
652.855297
 21
-229.224928
 31
0.0
 12
2056.67261
 22
-1237.342654
 32
0.0
  3
UPLNE
100
AcDbAlignedDimension
 13
1152.855297
 23
-102.774123
 33
0.0
 14
152.855297
 24
-100.774123
 34
0.0
100
AcDbRotatedDimension
1001
ACAD
1000
DSTYLE
1002
{
1070
    40
1040
3.0
1070
   147
1040
2.0
1002
}
  0
LWPOLYLINE
  5
2C
100
AcDbEntity
  8
TRAPEZ-VELKY
100
AcDbPolyline
 90
      386
 70
     0
 43
5.0
 10
1208.404897
 20
-124.773716
 10
1205.633917
 20
-124.607916
 10
1202.856137
 20
-124.113386
 10
1200.078357
 20
-123.302711
 10
1197.300577
 20
-122.195853
 10
1194.522797
 20
-120.820065
 10
1191.745017
 20
-119.209224
 10
1188.967237
 20
-117.402995
 10
1186.189457
 20
-115.445853
 10
1183.411677
 20
-113.385988
 10
1180.633897
 20
-111.274123
 10
1177.856117
 20
-109.162258
 10
1175.078337
 20
-107.102394
 10
1172.300557
 20
-105.145251
 10
1169.522777
 20
-103.339022
 10
1166.744997
 20
-101.728182
 10
1163.967217
 20
-100.352394
 10
1161.189437
 20
-99.245535
 10
1158.411657
 20
-98.43486
 10
1155.633877
 20
-97.940331
 10
1152.856097
 20
-97.774123
 10
1150.078317
 20
-97.940331
 10
1147.300537
 20
-98.43486
 10
1144.522757
 20
-99.245535
 10
1141.744977
 20
-100.352394
 10
1138.967197
 20
-101.728182
 10
1136.189417
 20
-103.339022
 10
1133.411637
 20
-105.145251
 10
1130.633857
 20
-107.102394
 10
1127.856077
 20
-109.162258
 10
1125.078297
 20
-111.274123
 10
1122.300517
 20
-113.385988
 10
1119.522737
 20
-115.445853
 10
1116.744957
 20
-117.402995
 10
1113.967177
 20
-119.209224
 10
1111.189397
 20
-120.820065
 10
1108.411617
 20
-122.195853
 10
1105.633837
 20
-123.302711
 10
1102.856057
 20
-124.113386
 10
1100.078277
 20
-124.607916
 10
1097.300497
 20
-124.774123
 10
1094.522717
 20
-124.607916
 10
1091.744937
 20
-124.113386
 10
1088.967157
 20
-123.302711
 10
1086.189377
 20
-122.195853
 10
1083.411597
 20
-120.820065
 10
1080.633817
 20
-119.209224
 10
1077.856037
 20
-117.402995
 10
1075.078257
 20
-115.445853
 10
1072.300477
 20
-113.385988
 10
1069.522697
 20
-111.274123
 10
1066.744917
 20
-109.162258
 10
1063.967137
 20
-107.102394
 10
1061.189357
 20
-105.145251
 10
1058.411577
 20
-103.339022
 10
1055.633797
 20
-101.728182
 10
1052.856017
 20
-100.352394
 10
1050.078237
 20
-99.245535
 10
1047.300457
 20
-98.43486
 10
1044.522677
 20
-97.940331
 10
1041.744897
 20
-97.774123
 10
1038.967117
 20
-97.940331
 10
1036.189337
 20
-98.43486
 10
1033.411557
 20
-99.245535
 10
1030.633777
 20
-100.352394
 10
1027.855997
 20
-101.728182
 10
1025.078217
 20
-103.339022
 10
1022.300437
 20
-105.145251
 10
1019.522657
 20
-107.102394
 10
1016.744877
 20
-109.162258
 10
1013.967097
 20
-111.274123
 10
1011.189317
 20
-113.385988
 10
1008.411537
 20
-115.445853
 10
1005.633757
 20
-117.402995
 10
1002.855977
 20
-119.209224
 10
1000.078197
 20
-120.820065
 10
997.300417
 20
-122.195853
 10
994.522637
 20
-123.302711
 10
991.744857
 20
-124.113386
 10
988.967077
 20
-124.607916
 10
986.189297
 20
-124.774123
 10
983.411517
 20
-124.607916
 10
980.633737
 20
-124.113386
 10
977.855957
 20
-123.302711
 10
975.078177
 20
-122.195853
 10
972.300397
 20
-120.820065
 10
969.522617
 20
-119.209224
 10
966.744837
 20
-117.402995
 10
963.967057
 20
-115.445853
 10
961.189277
 20
-113.385988
 10
958.411497
 20
-111.274123
 10
955.633717
 20
-109.162258
 10
952.855937
 20
-107.102394
 10
950.078157
 20
-105.145251
 10
947.300377
 20
-103.339022
 10
944.522597
 20
-101.728182
 10
941.744817
 20
-100.352394
 10
938.967037
 20
-99.245535
 10
936.189257
 20
-98.43486
 10
933.411477
 20
-97.940331
 10
930.633697
 20
-97.774123
 10
927.855917
 20
-97.940331
 10
925.078137
 20
-98.43486
 10
922.300357
 20
-99.245535
 10
919.522577
 20
-100.352394
 10
916.744797
 20
-101.728182
 10
913.967017
 20
-103.339022
 10
911.189237
 20
-105.145251
 10
908.411457
 20
-107.102394
 10
905.633677
 20
-109.162258
 10
902.855897
 20
-111.274123
 10
900.078117
 20
-113.385988
 10
897.300337
 20
-115.445853
 10
894.522557
 20
-117.402995
 10
891.744777
 20
-119.209224
 10
888.966997
 20
-120.820065
 10
886.189217
 20
-122.195853
 10
883.411437
 20
-123.302711
 10
880.633657
 20
-124.113386
 10
877.855877
 20
-124.607916
 10
875.078097
 20
-124.774123
 10
872.300317
 20
-124.607916
 10
869.522537
 20
-124.113386
 10
866.744757
 20
-123.302711
 10
863.966977
 20
-122.195853
 10
861.189197
 20
-120.820065
 10
858.411417
 20
-119.209224
 10
855.633637
 20
-117.402995
 10
852.855857
 20
-115.445853
 10
850.078077
 20
-113.385988
 10
847.300297
 20
-111.274123
 10
844.522517
 20
-109.162258
 10
841.744737
 20
-107.102394
 10
838.966957
 20
-105.145251
 10
836.189177
 20
-103.339022
 10
833.411397
 20
-101.728182
 10
830.633617
 20
-100.352394
 10
827.855837
 20
-99.245535
 10
825.078057
 20
-98.43486
 10
822.300277
 20
-97.940331
 10
819.522497
 20
-97.774123
 10
816.744717
 20
-97.940331
 10
813.966937
 20
-98.43486
 10
811.189157
 20
-99.245535
 10
808.411377
 20
-100.352394
 10
805.633597
 20
-101.728182
 10
802.855817
 20
-103.339022
 10
800.078037
 20
-105.145251
 10
797.300257
 20
-107.102394
 10
794.522477
 20
-109.162258
 10
791.744697
 20
-111.274123
 10
788.966917
 20
-113.385988
 10
786.189137
 20
-115.445853
 10
783.411357
 20
-117.402995
 10
780.633577
 20
-119.209224
 10
777.855797
 20
-120.820065
 10
775.078017
 20
-122.195853
 10
772.300237
 20
-123.302711
 10
769.522457
 20
-124.113386
 10
766.744677
 20
-124.607916
 10
763.966897
 20
-124.774123
 10
761.189117
 20
-124.607916
 10
758.411337
 20
-124.113386
 10
755.633557
 20
-123.302711
 10
752.855777
 20
-122.195853
 10
750.077997
 20
-120.820065
 10
747.300217
 20
-119.209224
 10
744.522437
 20
-117.402995
 10
741.744657
 20
-115.445853
 10
738.966877
 20
-113.385988
 10
736.189097
 20
-111.274123
 10
733.411317
 20
-109.162258
 10
730.633537
 20
-107.102394
 10
727.855757
 20
-105.145251
 10
725.077977
 20
-103.339022
 10
722.300197
 20
-101.728182
 10
719.522417
 20
-100.352394
 10
716.744637
 20
-99.245535
 10
713.966857
 20
-98.43486
 10
711.189077
 20
-97.940331
 10
708.411297
 20
-97.774123
 10
705.633517
 20
-97.940331
 10
702.855737
 20
-98.43486
 10
700.077957
 20
-99.245535
 10
697.300177
 20
-100.352394
 10
694.522397
 20
-101.728182
 10
691.744617
 20
-103.339022
 10
688.966837
 20
-105.145251
 10
686.189057
 20
-107.102394
 10
683.411277
 20
-109.162258
 10
680.633497
 20
-111.274123
 10
677.855717
 20
-113.385988
 10
675.077937
 20
-115.445853
 10
672.300157
 20
-117.402995
 10
669.522377
 20
-119.209224
 10
666.744597
 20
-120.820065
 10
663.966817
 20
-122.195853
 10
661.189037
 20
-123.302711
 10
658.411257
 20
-124.113386
 10
655.633477
 20
-124.607916
 10
652.855697
 20
-124.774123
 10
650.077917
 20
-124.607916
 10
647.300137
 20
-124.113386
 10
644.522357
 20
-123.302711
 10
641.744577
 20
-122.195853
 10
638.966797
 20
-120.820065
 10
636.189017
 20
-119.209224
 10
633.411237
 20
-117.402995
 10
630.633457
 20
-115.445853
 10
627.855677
 20
-113.385988
 10
625.077897
 20
-111.274123
 10
622.300117
 20
-109.162258
 10
619.522337
 20
-107.102394
 10
616.744557
 20
-105.145251
 10
613.966777
 20
-103.339022
 10
611.188997
 20
-101.728182
 10
608.411217
 20
-100.352394
 10
605.633437
 20
-99.245535
 10
602.855657
 20
-98.43486
 10
600.077877
 20
-97.940331
 10
597.300097
 20
-97.774123
 10
594.522317
 20
-97.940331
 10
591.744537
 20
-98.43486
 10
588.966757
 20
-99.245535
 10
586.188977
 20
-100.352394
 10
583.411197
 20
-101.728182
 10
580.633417
 20
-103.339022
 10
577.855637
 20
-105.145251
 10
575.077857
 20
-107.102394
 10
572.300077
 20
-109.162258
 10
569.522297
 20
-111.274123
 10
566.744517
 20
-113.385988
 10
563.966737
 20
-115.445853
 10
561.188957
 20
-117.402995
 10
558.411177
 20
-119.209224
 10
555.633397
 20
-120.820065
 10
552.855617
 20
-122.195853
 10
550.077837
 20
-123.302711
 10
547.300057
 20
-124.113386
 10
544.522277
 20
-124.607916
 10
541.744497
 20
-124.774123
 10
538.966717
 20
-124.607916
 10
536.188937
 20
-124.113386
 10
533.411157
 20
-123.302711
 10
530.633377
 20
-122.195853
 10
527.855597
 20
-120.820065
 10
525.077817
 20
-119.209224
 10
522.300037
 20
-117.402995
 10
519.522257
 20
-115.445853
 10
516.744477
 20
-113.385988
 10
513.966697
 20
-111.274123
 10
511.188917
 20
-109.162258
 10
508.411137
 20
-107.102394
 10
505.633357
 20
-105.145251
 10
502.855577
 20
-103.339022
 10
500.077797
 20
-101.728182
 10
497.300017
 20
-100.352394
 10
494.522237
 20
-99.245535
 10
491.744457
 20
-98.43486
 10
488.966677
 20
-97.940331
 10
486.188897
 20
-97.774123
 10
483.411117
 20
-97.940331
 10
480.633337
 20
-98.43486
 10
477.855557
 20
-99.245535
 10
475.077777
 20
-100.352394
 10
472.299997
 20
-101.728182
 10
469.522217
 20
-103.339022
 10
466.744437
 20
-105.145251
 10
463.966657
 20
-107.102394
 10
461.188877
 20
-109.162258
 10
458.411097
 20
-111.274123
 10
455.633317
 20
-113.385988
 10
452.855537
 20
-115.445853
 10
450.077757
 20
-117.402995
 10
447.299977
 20
-119.209224
 10
444.522197
 20
-120.820065
 10
441.744417
 20
-122.195853
 10
438.966637
 20
-123.302711
 10
436.188857
 20
-124.113386
 10
433.411077
 20
-124.607916
 10
430.633297
 20
-124.774123
 10
427.855517
 20
-124.607916
 10
425.077737
 20
-124.113386
 10
422.299957
 20
-123.302711
 10
419.522177
 20
-122.195853
 10
416.744397
 20
-120.820065
 10
413.966617
 20
-119.209224
 10
411.188837
 20
-117.402995
 10
408.411057
 20
-115.445853
 10
405.633277
 20
-113.385988
 10
402.855497
 20
-111.274123
 10
400.077717
 20
-109.162258
 10
397.299937
 20
-107.102394
 10
394.522157
 20
-105.145251
 10
391.744377
 20
-103.339022
 10
388.966597
 20
-101.728182
 10
386.188817
 20
-100.352394
 10
383.411037
 20
-99.245535
 10
380.633257
 20
-98.43486
 10
377.855477
 20
-97.940331
 10
375.077697
 20
-97.774123
 10
372.299917
 20
-97.940331
 10
369.522137
 20
-98.43486
 10
366.744357
 20
-99.245535
 10
363.966577
 20
-100.352394
 10
361.188797
 20
-101.728182
 10
358.411017
 20
-103.339022
 10
355.633237
 20
-105.145251
 10
352.855457
 20
-107.102394
 10
350.077677
 20
-109.162258
 10
347.299897
 20
-111.274123
 10
344.522117
 20
-113.385988
 10
341.744337
 20
-115.445853
 10
338.966557
 20
-117.402995
 10
336.188777
 20
-119.209224
 10
333.410997
 20
-120.820065
 10
330.633217
 20
-122.195853
 10
327.855437
 20
-123.302711
 10
325.077657
 20
-124.113386
 10
322.299877
 20
-124.607916
 10
319.522097
 20
-124.774123
 10
316.744317
 20
-124.607916
 10
313.966537
 20
-124.113386
 10
311.188757
 20
-123.302711
 10
308.410977
 20
-122.195853
 10
305.633197
 20
-120.820065
 10
302.855417
 20
-119.209224
 10
300.077637
 20
-117.402995
 10
297.299857
 20
-115.445853
 10
294.522077
 20
-113.385988
 10
291.744297
 20
-111.274123
 10
288.966517
 20
-109.162258
 10
286.188737
 20
-107.102394
 10
283.410957
 20
-105.145251
 10
280.633177
 20
-103.339022
 10
277.855397
 20
-101.728182
 10
275.077617
 20
-100.352394
 10
272.299837
 20
-99.245535
 10
269.522057
 20
-98.43486
 10
266.744277
 20
-97.940331
 10
263.966497
 20
-97.774123
 10
261.188717
 20
-97.940331
 10
258.410937
 20
-98.43486
 10
255.633157
 20
-99.245535
 10
252.855377
 20
-100.352394
 10
250.077597
 20
-101.728182
 10
247.299817
 20
-103.339022
 10
244.522037
 20
-105.145251
 10
241.744257
 20
-107.102394
 10
238.966477
 20
-109.162258
 10
236.188697
 20
-111.274123
 10
233.410917
 20
-113.385988
 10
230.633137
 20
-115.445853
 10
227.855357
 20
-117.402995
 10
225.077577
 20
-119.209224
 10
222.299797
 20
-120.820065
 10
219.522017
 20
-122.195853
 10
216.744237
 20
-123.302711
 10
213.966457
 20
-124.113386
 10
211.188677
 20
-124.607916
 10
208.410897
 20
-124.774123
 10
205.633117
 20
-124.607916
 10
202.855337
 20
-124.113386
 10
200.077557
 20
-123.302711
 10
197.299777
 20
-122.195853
 10
194.521997
 20
-120.820065
 10
191.744217
 20
-119.209224
 10
188.966437
 20
-117.402995
 10
186.188657
 20
-115.445853
 10
183.410877
 20
-113.385988
 10
180.633097
 20
-111.274123
 10
177.855317
 20
-109.162258
 10
175.077537
 20
-107.102394
 10
172.299757
 20
-105.145251
 10
169.521977
 20
-103.339022
 10
166.744197
 20
-101.728182
 10
163.966417
 20
-100.352394
 10
161.188637
 20
-99.245535
 10
158.410857
 20
-98.43486
 10
155.633077
 20
-97.940331
 10
152.855297
 20
-97.774123
 10
150.077517
 20
-97.940331
 10
147.299737
 20
-98.43486
 10
144.521957
 20
-99.245535
 10
141.744177
 20
-100.352394
 10
140.309529
 20
-101.062951
  0
LWPOLYLINE
  5
2E
100
AcDbEntity
  8
RAMEC
100
AcDbPolyline
 90
        4
 70
     1
 43
0.0
 10
0.0
 20
0.0
 10
0.0
 20
-294.001233
 10
1349.672502
 20
-294.001233
 10
1349.672502
 20
0.0
  0
DIMENSION
  5
30
100
AcDbEntity
  8
KOTY-UPLNE
100
AcDbDimension
  2
*D0
 10
263.966497
 20
-184.884928
 30
0.0
 11
208.410897
 21
-169.224928
 31
0.0
 12
2056.67261
 22
-1237.342654
 32
0.0
  3
UPLNE
100
AcDbAlignedDimension
 13
152.855297
 23
-97.774123
 33
0.0
 14
263.966497
 24
-97.774123
 34
0.0
100
AcDbRotatedDimension
1001
ACAD
1000
DSTYLE
1002
{
1070
    40
1040
3.0
1070
   147
1040
2.0
1002
}
  0
MTEXT
  5
3D
100
AcDbEntity
  8
POPIS
100
AcDbMText
 10
661.730741
 20
-42.124031
 30
0.0
 40
40.0
 41
1.0
 71
     5
 72
     1
  1
SP 27
  7
STYLE1
  0
DIMENSION
  5
40
100
AcDbEntity
  8
KOTY-UPLNE
100
AcDbDimension
  2
*D1
 10
1285.807372
 20
-124.773716
 30
0.0
 11
1270.147372
 21
-111.301621
 31
0.0
 12
2056.67261
 22
-1237.342654
 32
0.0
  3
UPLNE
100
AcDbAlignedDimension
 13
1157.856097
 23
-97.829526
 33
0.0
 14
1213.404897
 24
-124.773716
 34
0.0
 50
90.0
100
AcDbRotatedDimension
1001
ACAD
1000
DSTYLE
1002
{
1070
    40
1040
3.0
1070
   147
1040
2.0
1002
}
  0
ENDSEC
  0
SECTION
  2
OBJECTS
  0
DICTIONARY
  5
1A
100
AcDbDictionary
  3
ACAD_GROUP
350
18
  3
ACAD_MLINESTYLE
350
19
  0
DICTIONARY
  5
18
102
{ACAD_REACTORS
330
1A
102
}
100
AcDbDictionary
  0
DICTIONARY
  5
19
102
{ACAD_REACTORS
330
1A
102
}
100
AcDbDictionary
  3
STANDARD
350
1C
  0
MLINESTYLE
  5
1C
102
{ACAD_REACTORS
330
19
102
}
100
AcDbMlineStyle
  2
STANDARD
 70
     0
  3

 62
   256
 51
90.0
 52
90.0
 71
     2
 49
0.5
 62
   256
  6
BYLAYER
 49
-0.5
 62
   256
  6
BYLAYER
  0
ENDSEC
  0
EOF
