  0
SECTION
  2
HEADER
  9
$ACADVER
  1
AC1014
  9
$ACADMAINTVER
 70
     0
  9
$DWGCODEPAGE
  3
ANSI_1250
  9
$INSBASE
 10
0.0
 20
0.0
 30
0.0
  9
$EXTMIN
 10
372.263716
 20
188.152433
 30
0.0
  9
$EXTMAX
 10
878.033208
 20
2132.465923
 30
0.0
  9
$LIMMIN
 10
0.0
 20
0.0
  9
$LIMMAX
 10
1200.0
 20
880.0
  9
$ORTHOMODE
 70
     1
  9
$REGENMODE
 70
     1
  9
$FILLMODE
 70
     1
  9
$QTEXTMODE
 70
     0
  9
$MIRRTEXT
 70
     0
  9
$DRAGMODE
 70
     2
  9
$LTSCALE
 40
5.0
  9
$OSMODE
 70
   171
  9
$ATTMODE
 70
     1
  9
$TEXTSIZE
 40
100.0
  9
$TRACEWID
 40
1.0
  9
$TEXTSTYLE
  7
TOM
  9
$CLAYER
  8
KOTY-UPLNE
  9
$CELTYPE
  6
BYLAYER
  9
$CECOLOR
 62
   256
  9
$CELTSCALE
 40
1.0
  9
$DELOBJ
 70
     1
  9
$DISPSILH
 70
     0
  9
$DIMSCALE
 40
5.0
  9
$DIMASZ
 40
1.5
  9
$DIMEXO
 40
1.0
  9
$DIMDLI
 40
10.0
  9
$DIMRND
 40
1.0
  9
$DIMDLE
 40
1.0
  9
$DIMEXE
 40
0.5
  9
$DIMTP
 40
0.0
  9
$DIMTM
 40
0.0
  9
$DIMTXT
 40
1.5
  9
$DIMCEN
 40
2.0
  9
$DIMTSZ
 40
0.0
  9
$DIMTOL
 70
     0
  9
$DIMLIM
 70
     0
  9
$DIMTIH
 70
     0
  9
$DIMTOH
 70
     0
  9
$DIMSE1
 70
     0
  9
$DIMSE2
 70
     0
  9
$DIMTAD
 70
     1
  9
$DIMZIN
 70
     9
  9
$DIMBLK
  1

  9
$DIMASO
 70
     1
  9
$DIMSHO
 70
     1
  9
$DIMPOST
  1

  9
$DIMAPOST
  1

  9
$DIMALT
 70
     0
  9
$DIMALTD
 70
     2
  9
$DIMALTF
 40
25.4
  9
$DIMLFAC
 40
1.0
  9
$DIMTOFL
 70
     1
  9
$DIMTVP
 40
0.0
  9
$DIMTIX
 70
     0
  9
$DIMSOXD
 70
     0
  9
$DIMSAH
 70
     0
  9
$DIMBLK1
  1

  9
$DIMBLK2
  1

  9
$DIMSTYLE
  2
KOTY-VELKE
  9
$DIMCLRD
 70
   256
  9
$DIMCLRE
 70
   256
  9
$DIMCLRT
 70
     1
  9
$DIMTFAC
 40
1.0
  9
$DIMGAP
 40
0.5
  9
$DIMJUST
 70
     0
  9
$DIMSD1
 70
     0
  9
$DIMSD2
 70
     0
  9
$DIMTOLJ
 70
     1
  9
$DIMTZIN
 70
     8
  9
$DIMALTZ
 70
     8
  9
$DIMALTTZ
 70
     8
  9
$DIMFIT
 70
     5
  9
$DIMUPT
 70
     0
  9
$DIMUNIT
 70
     2
  9
$DIMDEC
 70
     0
  9
$DIMTDEC
 70
     0
  9
$DIMALTU
 70
     2
  9
$DIMALTTD
 70
     2
  9
$DIMTXSTY
  7
TOM
  9
$DIMAUNIT
 70
     0
  9
$LUNITS
 70
     2
  9
$LUPREC
 70
     2
  9
$SKETCHINC
 40
1.0
  9
$FILLETRAD
 40
3.0
  9
$AUNITS
 70
     0
  9
$AUPREC
 70
     4
  9
$MENU
  1
acad
  9
$ELEVATION
 40
0.0
  9
$PELEVATION
 40
0.0
  9
$THICKNESS
 40
0.0
  9
$LIMCHECK
 70
     0
  9
$BLIPMODE
 70
     0
  9
$CHAMFERA
 40
0.0
  9
$CHAMFERB
 40
0.0
  9
$CHAMFERC
 40
0.0
  9
$CHAMFERD
 40
0.0
  9
$SKPOLY
 70
     0
  9
$TDCREATE
 40
2450098.461194791
  9
$TDUPDATE
 40
2452896.056668518
  9
$TDINDWG
 40
0.4592314815
  9
$TDUSRTIMER
 40
0.4592314815
  9
$USRTIMER
 70
     1
  9
$ANGBASE
 50
0.0
  9
$ANGDIR
 70
     0
  9
$PDMODE
 70
     0
  9
$PDSIZE
 40
0.0
  9
$PLINEWID
 40
0.0
  9
$COORDS
 70
     2
  9
$SPLFRAME
 70
     0
  9
$SPLINETYPE
 70
     6
  9
$SPLINESEGS
 70
     8
  9
$ATTDIA
 70
     0
  9
$ATTREQ
 70
     1
  9
$HANDLING
 70
     1
  9
$HANDSEED
  5
154D
  9
$SURFTAB1
 70
     6
  9
$SURFTAB2
 70
     6
  9
$SURFTYPE
 70
     6
  9
$SURFU
 70
     6
  9
$SURFV
 70
     6
  9
$UCSNAME
  2

  9
$UCSORG
 10
0.0
 20
0.0
 30
0.0
  9
$UCSXDIR
 10
1.0
 20
0.0
 30
0.0
  9
$UCSYDIR
 10
0.0
 20
1.0
 30
0.0
  9
$PUCSNAME
  2

  9
$PUCSORG
 10
0.0
 20
0.0
 30
0.0
  9
$PUCSXDIR
 10
1.0
 20
0.0
 30
0.0
  9
$PUCSYDIR
 10
0.0
 20
1.0
 30
0.0
  9
$USERI1
 70
     0
  9
$USERI2
 70
     0
  9
$USERI3
 70
     0
  9
$USERI4
 70
     0
  9
$USERI5
 70
     0
  9
$USERR1
 40
0.0
  9
$USERR2
 40
0.0
  9
$USERR3
 40
0.0
  9
$USERR4
 40
0.0
  9
$USERR5
 40
0.0
  9
$WORLDVIEW
 70
     1
  9
$SHADEDGE
 70
     3
  9
$SHADEDIF
 70
    70
  9
$TILEMODE
 70
     1
  9
$MAXACTVP
 70
    16
  9
$PINSBASE
 10
0.0
 20
0.0
 30
0.0
  9
$PLIMCHECK
 70
     0
  9
$PEXTMIN
 10
27.943527
 20
19.928417
 30
0.0
  9
$PEXTMAX
 10
251.491745
 20
179.355751
 30
0.0
  9
$PLIMMIN
 10
-3.96875
 20
-7.14375
  9
$PLIMMAX
 10
292.929016
 20
202.900135
  9
$UNITMODE
 70
     0
  9
$VISRETAIN
 70
     0
  9
$PLINEGEN
 70
     0
  9
$PSLTSCALE
 70
     1
  9
$TREEDEPTH
 70
  3020
  9
$PICKSTYLE
 70
     3
  9
$CMLSTYLE
  2
STANDARD
  9
$CMLJUST
 70
     0
  9
$CMLSCALE
 40
1.0
  9
$PROXYGRAPHICS
 70
     1
  9
$MEASUREMENT
 70
     0
  0
ENDSEC
  0
SECTION
  2
CLASSES
  0
CLASS
  1
DICTIONARYVAR
  2
AcDbDictionaryVar
  3
"AutoCAD"
 90
        0
280
     0
281
     0
  0
CLASS
  1
LWPOLYLINE
  2
AcDbPolyline
  3
"AutoCAD"
 90
        0
280
     0
281
     1
  0
CLASS
  1
ACDBDICTIONARYWDFLT
  2
AcDbDictionaryWithDefault
  3
AutoCAD 2000
 90
        0
280
     0
281
     0
  0
CLASS
  1
ACDBPLACEHOLDER
  2
AcDbPlaceHolder
  3
AutoCAD 2000
 90
        0
280
     0
281
     0
  0
CLASS
  1
LAYOUT
  2
AcDbLayout
  3
AutoCAD 2000
 90
        0
280
     0
281
     0
  0
CLASS
  1
LONG_TRANSACTION
  2
AcDbLongTransaction
  3
AutoCAD 2000
 90
        0
280
     0
281
     0
  0
CLASS
  1
LWPOLYLINE
  2
AcDbPolyline
  3
"AutoCAD"
 90
        0
280
     0
281
     1
  0
CLASS
  1
HATCH
  2
AcDbHatch
  3
"ACAD_SEDONA"
 90
        0
280
     0
281
     1
  0
CLASS
  1
XRECORD
  2
AcDbXrecord
  3
"<Built In>"
 90
        0
280
     0
281
     0
  0
ENDSEC
  0
SECTION
  2
TABLES
  0
TABLE
  2
VPORT
  5
19
100
AcDbSymbolTable
 70
     3
  0
VPORT
  5
154C
100
AcDbSymbolTableRecord
100
AcDbViewportTableRecord
  2
*ACTIVE
 70
     0
 10
0.0
 20
0.0
 11
1.0
 21
1.0
 12
701.19503
 22
792.74724
 13
0.0
 23
0.0
 14
1.0
 24
1.0
 15
1000.0
 25
1000.0
 16
0.0
 26
0.0
 36
1.0
 17
0.0
 27
0.0
 37
0.0
 40
416.107855
 41
2.059548
 42
50.0
 43
0.0
 44
0.0
 50
0.0
 51
0.0
 71
     0
 72
 20000
 73
     1
 74
     1
 75
     0
 76
     0
 77
     0
 78
     0
  0
ENDTAB
  0
TABLE
  2
LTYPE
  5
14
100
AcDbSymbolTable
 70
     2
  0
LTYPE
  5
15
100
AcDbSymbolTableRecord
100
AcDbLinetypeTableRecord
  2
BYBLOCK
 70
     0
  3

 72
    65
 73
     0
 40
0.0
  0
LTYPE
  5
16
100
AcDbSymbolTableRecord
100
AcDbLinetypeTableRecord
  2
BYLAYER
 70
     0
  3

 72
    65
 73
     0
 40
0.0
  0
LTYPE
  5
8
100
AcDbSymbolTableRecord
100
AcDbLinetypeTableRecord
  2
AUSGEZOGEN
 70
     0
  3
Ausgezogene Linie
 72
    65
 73
     0
 40
0.0
  0
LTYPE
  5
3D1
100
AcDbSymbolTableRecord
100
AcDbLinetypeTableRecord
  2
CONTINUOUS
 70
     0
  3
Solid line
 72
    65
 73
     0
 40
0.0
  0
ENDTAB
  0
TABLE
  2
LAYER
  5
10
100
AcDbSymbolTable
 70
     6
  0
LAYER
  5
4
100
AcDbSymbolTableRecord
100
AcDbLayerTableRecord
  2
0
 70
     0
 62
     7
  6
AUSGEZOGEN
  0
LAYER
  5
31
102
{ACAD_XDICTIONARY
360
147
102
}
100
AcDbSymbolTableRecord
100
AcDbLayerTableRecord
  2
DEFPOINTS
 70
     0
 62
     7
  6
AUSGEZOGEN
  0
LAYER
  5
ABF
100
AcDbSymbolTableRecord
100
AcDbLayerTableRecord
  2
KOTY-UPLNE
 70
     0
 62
     5
  6
CONTINUOUS
  0
LAYER
  5
AC0
100
AcDbSymbolTableRecord
100
AcDbLayerTableRecord
  2
LAMELA-VELKA
 70
     0
 62
     7
  6
CONTINUOUS
  0
ENDTAB
  0
TABLE
  2
STYLE
  5
11
100
AcDbSymbolTable
 70
     3
  0
STYLE
  5
12
100
AcDbSymbolTableRecord
100
AcDbTextStyleTableRecord
  2
STANDARD
 70
     0
 40
0.0
 41
1.0
 50
0.0
 71
     0
 42
2.0
  3
txt8.shx
  4

  0
STYLE
  5
1F
100
AcDbSymbolTableRecord
100
AcDbTextStyleTableRecord
  2
SIMPLEX8
 70
     0
 40
0.0
 41
1.0
 50
0.0
 71
     0
 42
100.0
  3
simplex8.shx
  4

  0
STYLE
  5
26
102
{ACAD_XDICTIONARY
360
117
102
}
100
AcDbSymbolTableRecord
100
AcDbTextStyleTableRecord
  2
TOM
 70
     0
 40
0.0
 41
0.9
 50
0.0
 71
     0
 42
100.0
  3
simplex.shx
  4

  0
ENDTAB
  0
TABLE
  2
VIEW
  5
17
100
AcDbSymbolTable
 70
     0
  0
ENDTAB
  0
TABLE
  2
UCS
  5
18
100
AcDbSymbolTable
 70
     0
  0
ENDTAB
  0
TABLE
  2
APPID
  5
1B
100
AcDbSymbolTable
 70
     2
  0
APPID
  5
1C
100
AcDbSymbolTableRecord
100
AcDbRegAppTableRecord
  2
ACAD
 70
     0
  0
APPID
  5
3DA
100
AcDbSymbolTableRecord
100
AcDbRegAppTableRecord
  2
DCO15
 70
     0
  0
ENDTAB
  0
TABLE
  2
DIMSTYLE
  5
1D
100
AcDbSymbolTable
 70
     4
  0
DIMSTYLE
105
20
102
{ACAD_XDICTIONARY
360
145
102
}
100
AcDbSymbolTableRecord
100
AcDbDimStyleTableRecord
  2
PFLAUM2-35
 70
     0
  3

  4

  5

  6

  7

 40
2.0
 41
0.0
 42
1.0
 43
7.0
 44
1.0
 45
1.0
 46
1.0
 47
0.0
 48
0.0
140
3.5
141
2.0
142
1.0
143
25.4
144
1.0
145
0.0
146
1.0
147
0.0
 71
     0
 72
     0
 73
     0
 74
     0
 75
     0
 76
     0
 77
     1
 78
     8
170
     0
171
     2
172
     1
173
     0
174
     0
175
     0
176
     7
177
     7
178
    30
270
     2
271
     2
272
     2
273
     2
274
     2
340
1F
275
     0
280
     0
281
     0
282
     0
283
     1
284
     8
285
     8
286
     8
287
     5
288
     0
  0
DIMSTYLE
105
3D9
100
AcDbSymbolTableRecord
100
AcDbDimStyleTableRecord
  2
STANDARD
 70
     0
  3

  4

  5

  6

  7

 40
1.0
 41
0.18
 42
0.0625
 43
0.38
 44
0.18
 45
0.0
 46
0.0
 47
0.0
 48
0.0
140
0.18
141
0.09
142
0.0
143
25.4
144
1.0
145
0.0
146
1.0
147
0.09
 71
     0
 72
     0
 73
     1
 74
     1
 75
     0
 76
     0
 77
     0
 78
     0
170
     0
171
     2
172
     0
173
     0
174
     0
175
     0
176
     0
177
     0
178
     0
270
     2
271
     4
272
     4
273
     2
274
     2
340
12
275
     0
280
     0
281
     0
282
     0
283
     1
284
     0
285
     0
286
     0
287
     3
288
     0
  0
DIMSTYLE
105
ACF
102
{ACAD_REACTORS
330
F57
330
F7C
330
F89
330
12DB
330
14AE
330
14B1
330
14F3
330
14F5
330
14F4
330
14F8
330
14F7
102
}
100
AcDbSymbolTableRecord
100
AcDbDimStyleTableRecord
  2
KOTY-VELKE
 70
     0
  3

  4

  5

  6

  7

 40
3.0
 41
1.5
 42
1.0
 43
10.0
 44
0.0
 45
1.0
 46
1.0
 47
0.0
 48
0.0
140
1.5
141
2.0
142
0.0
143
25.4
144
1.0
145
0.0
146
1.0
147
1.5
 71
     0
 72
     0
 73
     0
 74
     0
 75
     0
 76
     0
 77
     1
 78
     9
170
     0
171
     2
172
     1
173
     0
174
     0
175
     0
176
   170
177
   170
178
    50
270
     2
271
     0
272
     0
273
     2
274
     2
340
26
275
     0
280
     0
281
     0
282
     0
283
     1
284
     8
285
     8
286
     8
287
     5
288
     0
  0
ENDTAB
  0
TABLE
  2
BLOCK_RECORD
  5
1
100
AcDbSymbolTable
 70
    30
  0
BLOCK_RECORD
  5
2
102
{ACAD_XDICTIONARY
360
13E
102
}
100
AcDbSymbolTableRecord
100
AcDbBlockTableRecord
  2
*MODEL_SPACE
  0
BLOCK_RECORD
  5
C
102
{ACAD_XDICTIONARY
360
111
102
}
100
AcDbSymbolTableRecord
100
AcDbBlockTableRecord
  2
*PAPER_SPACE
  0
BLOCK_RECORD
  5
F4B
100
AcDbSymbolTableRecord
100
AcDbBlockTableRecord
  2
*D13
  0
BLOCK_RECORD
  5
F70
100
AcDbSymbolTableRecord
100
AcDbBlockTableRecord
  2
*D15
  0
BLOCK_RECORD
  5
F7D
100
AcDbSymbolTableRecord
100
AcDbBlockTableRecord
  2
*D16
  0
BLOCK_RECORD
  5
12CF
100
AcDbSymbolTableRecord
100
AcDbBlockTableRecord
  2
*D17
  0
BLOCK_RECORD
  5
14A2
100
AcDbSymbolTableRecord
100
AcDbBlockTableRecord
  2
*D19
  0
BLOCK_RECORD
  5
14B6
100
AcDbSymbolTableRecord
100
AcDbBlockTableRecord
  2
*D20
  0
BLOCK_RECORD
  5
14C2
100
AcDbSymbolTableRecord
100
AcDbBlockTableRecord
  2
*D21
  0
BLOCK_RECORD
  5
14CE
100
AcDbSymbolTableRecord
100
AcDbBlockTableRecord
  2
*D22
  0
BLOCK_RECORD
  5
14DA
100
AcDbSymbolTableRecord
100
AcDbBlockTableRecord
  2
*D23
  0
BLOCK_RECORD
  5
14E6
100
AcDbSymbolTableRecord
100
AcDbBlockTableRecord
  2
*D24
  0
BLOCK_RECORD
  5
14F9
100
AcDbSymbolTableRecord
100
AcDbBlockTableRecord
  2
*D25
  0
BLOCK_RECORD
  5
1505
100
AcDbSymbolTableRecord
100
AcDbBlockTableRecord
  2
*D26
  0
BLOCK_RECORD
  5
1511
100
AcDbSymbolTableRecord
100
AcDbBlockTableRecord
  2
*D27
  0
BLOCK_RECORD
  5
151D
100
AcDbSymbolTableRecord
100
AcDbBlockTableRecord
  2
*D28
  0
BLOCK_RECORD
  5
1529
100
AcDbSymbolTableRecord
100
AcDbBlockTableRecord
  2
*D29
  0
ENDTAB
  0
ENDSEC
  0
SECTION
  2
BLOCKS
  0
BLOCK
  5
3
100
AcDbEntity
  8
0
100
AcDbBlockBegin
  2
*MODEL_SPACE
 70
     0
 10
0.0
 20
0.0
 30
0.0
  3
*MODEL_SPACE
  1

  0
ENDBLK
  5
9
100
AcDbEntity
  8
0
100
AcDbBlockEnd
  0
BLOCK
  5
D
100
AcDbEntity
 67
     1
  8
0
100
AcDbBlockBegin
  2
*PAPER_SPACE
 70
     0
 10
0.0
 20
0.0
 30
0.0
  3
*PAPER_SPACE
  1

  0
ENDBLK
  5
E
100
AcDbEntity
 67
     1
  8
0
100
AcDbBlockEnd
  0
BLOCK
  5
F4C
100
AcDbEntity
  8
0
100
AcDbBlockBegin
  2
*D13
 70
     1
 10
0.0
 20
0.0
 30
0.0
  3
*D13
  1

  0
LINE
  5
F4D
100
AcDbEntity
  8
0
  6
BYBLOCK
100
AcDbLine
 10
657.399673
 20
876.46503
 30
0.0
 11
728.033208
 21
876.46503
 31
0.0
  0
LINE
  5
F4E
100
AcDbEntity
  8
0
  6
BYBLOCK
100
AcDbLine
 10
693.004715
 20
850.96503
 30
0.0
 11
728.033208
 21
850.96503
 31
0.0
  0
LINE
  5
F4F
100
AcDbEntity
  8
0
  6
BYBLOCK
100
AcDbLine
 10
725.533208
 20
868.96503
 30
0.0
 11
725.533208
 21
858.46503
 31
0.0
  0
SOLID
  5
F50
100
AcDbEntity
  8
0
  6
BYBLOCK
100
AcDbTrace
 10
724.283208
 20
868.96503
 30
0.0
 11
726.783208
 21
868.96503
 31
0.0
 12
725.533208
 22
876.46503
 32
0.0
 13
725.533208
 23
876.46503
 33
0.0
  0
SOLID
  5
F51
100
AcDbEntity
  8
0
  6
BYBLOCK
100
AcDbTrace
 10
724.283208
 20
858.46503
 30
0.0
 11
726.783208
 21
858.46503
 31
0.0
 12
725.533208
 22
850.96503
 32
0.0
 13
725.533208
 23
850.96503
 33
0.0
  0
MTEXT
  5
F52
100
AcDbEntity
  8
0
  6
BYBLOCK
 62
     1
100
AcDbMText
 10
719.283208
 20
863.71503
 30
0.0
 40
7.5
 41
0.0
 71
     5
 72
     1
  1
\A1;26
  7
TOM
 11
0.0
 21
1.0
 31
0.0
  0
POINT
  5
F53
100
AcDbEntity
  8
DEFPOINTS
  6
BYBLOCK
 62
     0
100
AcDbPoint
 10
652.399673
 20
876.46503
 30
0.0
  0
POINT
  5
F54
100
AcDbEntity
  8
DEFPOINTS
  6
BYBLOCK
 62
     0
100
AcDbPoint
 10
688.004715
 20
850.96503
 30
0.0
  0
POINT
  5
F55
100
AcDbEntity
  8
DEFPOINTS
  6
BYBLOCK
 62
     0
100
AcDbPoint
 10
725.533208
 20
850.96503
 30
0.0
  0
ENDBLK
  5
F56
100
AcDbEntity
  8
0
100
AcDbBlockEnd
  0
BLOCK
  5
F71
100
AcDbEntity
  8
0
100
AcDbBlockBegin
  2
*D15
 70
     1
 10
0.0
 20
0.0
 30
0.0
  3
*D15
  1

  0
LINE
  5
F72
100
AcDbEntity
  8
0
  6
BYBLOCK
100
AcDbLine
 10
405.399673
 20
856.46503
 30
0.0
 11
405.399673
 21
897.517067
 31
0.0
  0
LINE
  5
F73
100
AcDbEntity
  8
0
  6
BYBLOCK
100
AcDbLine
 10
435.399673
 20
878.46503
 30
0.0
 11
435.399673
 21
897.517067
 31
0.0
  0
LINE
  5
F74
100
AcDbEntity
  8
0
  6
BYBLOCK
100
AcDbLine
 10
412.899673
 20
895.017067
 30
0.0
 11
427.899673
 21
895.017067
 31
0.0
  0
SOLID
  5
F75
100
AcDbEntity
  8
0
  6
BYBLOCK
100
AcDbTrace
 10
412.899673
 20
896.267067
 30
0.0
 11
412.899673
 21
893.767067
 31
0.0
 12
405.399673
 22
895.017067
 32
0.0
 13
405.399673
 23
895.017067
 33
0.0
  0
SOLID
  5
F76
100
AcDbEntity
  8
0
  6
BYBLOCK
100
AcDbTrace
 10
427.899673
 20
896.267067
 30
0.0
 11
427.899673
 21
893.767067
 31
0.0
 12
435.399673
 22
895.017067
 32
0.0
 13
435.399673
 23
895.017067
 33
0.0
  0
MTEXT
  5
F77
100
AcDbEntity
  8
0
  6
BYBLOCK
 62
     1
100
AcDbMText
 10
420.399673
 20
901.267067
 30
0.0
 40
7.5
 41
0.0
 71
     5
 72
     1
  1
\A1;30
  7
TOM
  0
POINT
  5
F78
100
AcDbEntity
  8
DEFPOINTS
  6
BYBLOCK
 62
     0
100
AcDbPoint
 10
405.399673
 20
851.46503
 30
0.0
  0
POINT
  5
F79
100
AcDbEntity
  8
DEFPOINTS
  6
BYBLOCK
 62
     0
100
AcDbPoint
 10
435.399673
 20
873.46503
 30
0.0
  0
POINT
  5
F7A
100
AcDbEntity
  8
DEFPOINTS
  6
BYBLOCK
 62
     0
100
AcDbPoint
 10
435.399673
 20
895.017067
 30
0.0
  0
ENDBLK
  5
F7B
100
AcDbEntity
  8
0
100
AcDbBlockEnd
  0
BLOCK
  5
F7E
100
AcDbEntity
  8
0
100
AcDbBlockBegin
  2
*D16
 70
     1
 10
0.0
 20
0.0
 30
0.0
  3
*D16
  1

  0
LINE
  5
F7F
100
AcDbEntity
  8
0
  6
BYBLOCK
100
AcDbLine
 10
655.399673
 20
878.46503
 30
0.0
 11
655.399673
 21
914.204515
 31
0.0
  0
LINE
  5
F80
100
AcDbEntity
  8
0
  6
BYBLOCK
100
AcDbLine
 10
695.161154
 20
857.776763
 30
0.0
 11
695.161154
 21
914.204515
 31
0.0
  0
LINE
  5
F81
100
AcDbEntity
  8
0
  6
BYBLOCK
100
AcDbLine
 10
662.899673
 20
911.704515
 30
0.0
 11
687.661154
 21
911.704515
 31
0.0
  0
SOLID
  5
F82
100
AcDbEntity
  8
0
  6
BYBLOCK
100
AcDbTrace
 10
662.899673
 20
912.954515
 30
0.0
 11
662.899673
 21
910.454515
 31
0.0
 12
655.399673
 22
911.704515
 32
0.0
 13
655.399673
 23
911.704515
 33
0.0
  0
SOLID
  5
F83
100
AcDbEntity
  8
0
  6
BYBLOCK
100
AcDbTrace
 10
687.661154
 20
912.954515
 30
0.0
 11
687.661154
 21
910.454515
 31
0.0
 12
695.161154
 22
911.704515
 32
0.0
 13
695.161154
 23
911.704515
 33
0.0
  0
MTEXT
  5
F84
100
AcDbEntity
  8
0
  6
BYBLOCK
 62
     1
100
AcDbMText
 10
675.280413
 20
917.954515
 30
0.0
 40
7.5
 41
0.0
 71
     5
 72
     1
  1
\A1;40
  7
TOM
  0
POINT
  5
F85
100
AcDbEntity
  8
DEFPOINTS
  6
BYBLOCK
 62
     0
100
AcDbPoint
 10
655.399673
 20
873.46503
 30
0.0
  0
POINT
  5
F86
100
AcDbEntity
  8
DEFPOINTS
  6
BYBLOCK
 62
     0
100
AcDbPoint
 10
695.161154
 20
852.776763
 30
0.0
  0
POINT
  5
F87
100
AcDbEntity
  8
DEFPOINTS
  6
BYBLOCK
 62
     0
100
AcDbPoint
 10
695.161154
 20
911.704515
 30
0.0
  0
ENDBLK
  5
F88
100
AcDbEntity
  8
0
100
AcDbBlockEnd
  0
BLOCK
  5
12DC
100
AcDbEntity
  8
0
100
AcDbBlockBegin
  2
*D17
 70
     1
 10
0.0
 20
0.0
 30
0.0
  3
*D17
  1

  0
LINE
  5
12DD
100
AcDbEntity
  8
0
  6
BYBLOCK
100
AcDbLine
 10
400.399673
 20
851.46503
 30
0.0
 11
379.763716
 21
851.46503
 31
0.0
  0
LINE
  5
12DE
100
AcDbEntity
  8
0
  6
BYBLOCK
100
AcDbLine
 10
433.399673
 20
876.46503
 30
0.0
 11
379.763716
 21
876.46503
 31
0.0
  0
LINE
  5
12DF
100
AcDbEntity
  8
0
  6
BYBLOCK
100
AcDbLine
 10
382.263716
 20
858.96503
 30
0.0
 11
382.263716
 21
868.96503
 31
0.0
  0
SOLID
  5
12E0
100
AcDbEntity
  8
0
  6
BYBLOCK
100
AcDbTrace
 10
381.013716
 20
858.96503
 30
0.0
 11
383.513716
 21
858.96503
 31
0.0
 12
382.263716
 22
851.46503
 32
0.0
 13
382.263716
 23
851.46503
 33
0.0
  0
SOLID
  5
12E1
100
AcDbEntity
  8
0
  6
BYBLOCK
100
AcDbTrace
 10
381.013716
 20
868.96503
 30
0.0
 11
383.513716
 21
868.96503
 31
0.0
 12
382.263716
 22
876.46503
 32
0.0
 13
382.263716
 23
876.46503
 33
0.0
  0
MTEXT
  5
12E2
100
AcDbEntity
  8
0
  6
BYBLOCK
 62
     1
100
AcDbMText
 10
376.013716
 20
863.96503
 30
0.0
 40
7.5
 41
0.0
 71
     5
 72
     1
  1
\A1;25
  7
TOM
 11
0.0
 21
1.0
 31
0.0
  0
POINT
  5
12E3
100
AcDbEntity
  8
DEFPOINTS
  6
BYBLOCK
 62
     0
100
AcDbPoint
 10
405.399673
 20
851.46503
 30
0.0
  0
POINT
  5
12E4
100
AcDbEntity
  8
DEFPOINTS
  6
BYBLOCK
 62
     0
100
AcDbPoint
 10
438.399673
 20
876.46503
 30
0.0
  0
POINT
  5
12E5
100
AcDbEntity
  8
DEFPOINTS
  6
BYBLOCK
 62
     0
100
AcDbPoint
 10
382.263716
 20
876.46503
 30
0.0
  0
ENDBLK
  5
12E6
100
AcDbEntity
  8
0
100
AcDbBlockEnd
  0
BLOCK
  5
14A3
100
AcDbEntity
  8
0
100
AcDbBlockBegin
  2
*D19
 70
     1
 10
0.0
 20
0.0
 30
0.0
  3
*D19
  1

  0
LINE
  5
14A4
100
AcDbEntity
  8
0
  6
BYBLOCK
100
AcDbLine
 10
655.399673
 20
883.46503
 30
0.0
 11
655.399673
 21
914.204515
 31
0.0
  0
LINE
  5
14A5
100
AcDbEntity
  8
0
  6
BYBLOCK
100
AcDbLine
 10
405.399673
 20
861.46503
 30
0.0
 11
405.399673
 21
914.204515
 31
0.0
  0
LINE
  5
14A6
100
AcDbEntity
  8
0
  6
BYBLOCK
100
AcDbLine
 10
647.899673
 20
911.704515
 30
0.0
 11
412.899673
 21
911.704515
 31
0.0
  0
SOLID
  5
14A7
100
AcDbEntity
  8
0
  6
BYBLOCK
100
AcDbTrace
 10
647.899673
 20
912.954515
 30
0.0
 11
647.899673
 21
910.454515
 31
0.0
 12
655.399673
 22
911.704515
 32
0.0
 13
655.399673
 23
911.704515
 33
0.0
  0
SOLID
  5
14A8
100
AcDbEntity
  8
0
  6
BYBLOCK
100
AcDbTrace
 10
412.899673
 20
912.954515
 30
0.0
 11
412.899673
 21
910.454515
 31
0.0
 12
405.399673
 22
911.704515
 32
0.0
 13
405.399673
 23
911.704515
 33
0.0
  0
MTEXT
  5
14A9
100
AcDbEntity
  8
0
  6
BYBLOCK
 62
     1
100
AcDbMText
 10
530.399673
 20
917.954515
 30
0.0
 40
7.5
 41
0.0
 71
     5
 72
     1
  1
\A1;250
  7
TOM
  0
POINT
  5
14AA
100
AcDbEntity
  8
DEFPOINTS
  6
BYBLOCK
 62
     0
100
AcDbPoint
 10
655.399673
 20
878.46503
 30
0.0
  0
POINT
  5
14AB
100
AcDbEntity
  8
DEFPOINTS
  6
BYBLOCK
 62
     0
100
AcDbPoint
 10
405.399673
 20
856.46503
 30
0.0
  0
POINT
  5
14AC
100
AcDbEntity
  8
DEFPOINTS
  6
BYBLOCK
 62
     0
100
AcDbPoint
 10
405.399673
 20
911.704515
 30
0.0
  0
ENDBLK
  5
14AD
100
AcDbEntity
  8
0
100
AcDbBlockEnd
  0
BLOCK
  5
14B7
100
AcDbEntity
  8
0
100
AcDbBlockBegin
  2
*D20
 70
     1
 10
0.0
 20
0.0
 30
0.0
  3
*D20
  1

  0
LINE
  5
14B8
100
AcDbEntity
  8
0
  6
BYBLOCK
100
AcDbLine
 10
657.399673
 20
876.46503
 30
0.0
 11
728.033208
 21
876.46503
 31
0.0
  0
LINE
  5
14B9
100
AcDbEntity
  8
0
  6
BYBLOCK
100
AcDbLine
 10
693.004715
 20
850.96503
 30
0.0
 11
728.033208
 21
850.96503
 31
0.0
  0
LINE
  5
14BA
100
AcDbEntity
  8
0
  6
BYBLOCK
100
AcDbLine
 10
725.533208
 20
868.96503
 30
0.0
 11
725.533208
 21
858.46503
 31
0.0
  0
SOLID
  5
14BB
100
AcDbEntity
  8
0
  6
BYBLOCK
100
AcDbTrace
 10
724.283208
 20
868.96503
 30
0.0
 11
726.783208
 21
868.96503
 31
0.0
 12
725.533208
 22
876.46503
 32
0.0
 13
725.533208
 23
876.46503
 33
0.0
  0
SOLID
  5
14BC
100
AcDbEntity
  8
0
  6
BYBLOCK
100
AcDbTrace
 10
724.283208
 20
858.46503
 30
0.0
 11
726.783208
 21
858.46503
 31
0.0
 12
725.533208
 22
850.96503
 32
0.0
 13
725.533208
 23
850.96503
 33
0.0
  0
MTEXT
  5
14BD
100
AcDbEntity
  8
0
  6
BYBLOCK
 62
     1
100
AcDbMText
 10
719.283208
 20
863.71503
 30
0.0
 40
7.5
 41
0.0
 71
     5
 72
     1
  1
\A1;26
  7
TOM
 11
0.0
 21
1.0
 31
0.0
  0
POINT
  5
14BE
100
AcDbEntity
  8
DEFPOINTS
  6
BYBLOCK
 62
     0
100
AcDbPoint
 10
652.399673
 20
876.46503
 30
0.0
  0
POINT
  5
14BF
100
AcDbEntity
  8
DEFPOINTS
  6
BYBLOCK
 62
     0
100
AcDbPoint
 10
688.004715
 20
850.96503
 30
0.0
  0
POINT
  5
14C0
100
AcDbEntity
  8
DEFPOINTS
  6
BYBLOCK
 62
     0
100
AcDbPoint
 10
725.533208
 20
850.96503
 30
0.0
  0
ENDBLK
  5
14C1
100
AcDbEntity
  8
0
100
AcDbBlockEnd
  0
BLOCK
  5
14C3
100
AcDbEntity
  8
0
100
AcDbBlockBegin
  2
*D21
 70
     1
 10
0.0
 20
0.0
 30
0.0
  3
*D21
  1

  0
LINE
  5
14C4
100
AcDbEntity
  8
0
  6
BYBLOCK
100
AcDbLine
 10
405.399673
 20
856.46503
 30
0.0
 11
405.399673
 21
897.517067
 31
0.0
  0
LINE
  5
14C5
100
AcDbEntity
  8
0
  6
BYBLOCK
100
AcDbLine
 10
435.399673
 20
878.46503
 30
0.0
 11
435.399673
 21
897.517067
 31
0.0
  0
LINE
  5
14C6
100
AcDbEntity
  8
0
  6
BYBLOCK
100
AcDbLine
 10
412.899673
 20
895.017067
 30
0.0
 11
427.899673
 21
895.017067
 31
0.0
  0
SOLID
  5
14C7
100
AcDbEntity
  8
0
  6
BYBLOCK
100
AcDbTrace
 10
412.899673
 20
896.267067
 30
0.0
 11
412.899673
 21
893.767067
 31
0.0
 12
405.399673
 22
895.017067
 32
0.0
 13
405.399673
 23
895.017067
 33
0.0
  0
SOLID
  5
14C8
100
AcDbEntity
  8
0
  6
BYBLOCK
100
AcDbTrace
 10
427.899673
 20
896.267067
 30
0.0
 11
427.899673
 21
893.767067
 31
0.0
 12
435.399673
 22
895.017067
 32
0.0
 13
435.399673
 23
895.017067
 33
0.0
  0
MTEXT
  5
14C9
100
AcDbEntity
  8
0
  6
BYBLOCK
 62
     1
100
AcDbMText
 10
420.399673
 20
901.267067
 30
0.0
 40
7.5
 41
0.0
 71
     5
 72
     1
  1
\A1;30
  7
TOM
  0
POINT
  5
14CA
100
AcDbEntity
  8
DEFPOINTS
  6
BYBLOCK
 62
     0
100
AcDbPoint
 10
405.399673
 20
851.46503
 30
0.0
  0
POINT
  5
14CB
100
AcDbEntity
  8
DEFPOINTS
  6
BYBLOCK
 62
     0
100
AcDbPoint
 10
435.399673
 20
873.46503
 30
0.0
  0
POINT
  5
14CC
100
AcDbEntity
  8
DEFPOINTS
  6
BYBLOCK
 62
     0
100
AcDbPoint
 10
435.399673
 20
895.017067
 30
0.0
  0
ENDBLK
  5
14CD
100
AcDbEntity
  8
0
100
AcDbBlockEnd
  0
BLOCK
  5
14CF
100
AcDbEntity
  8
0
100
AcDbBlockBegin
  2
*D22
 70
     1
 10
0.0
 20
0.0
 30
0.0
  3
*D22
  1

  0
LINE
  5
14D0
100
AcDbEntity
  8
0
  6
BYBLOCK
100
AcDbLine
 10
655.399673
 20
878.46503
 30
0.0
 11
655.399673
 21
914.204515
 31
0.0
  0
LINE
  5
14D1
100
AcDbEntity
  8
0
  6
BYBLOCK
100
AcDbLine
 10
695.161154
 20
857.776763
 30
0.0
 11
695.161154
 21
914.204515
 31
0.0
  0
LINE
  5
14D2
100
AcDbEntity
  8
0
  6
BYBLOCK
100
AcDbLine
 10
662.899673
 20
911.704515
 30
0.0
 11
687.661154
 21
911.704515
 31
0.0
  0
SOLID
  5
14D3
100
AcDbEntity
  8
0
  6
BYBLOCK
100
AcDbTrace
 10
662.899673
 20
912.954515
 30
0.0
 11
662.899673
 21
910.454515
 31
0.0
 12
655.399673
 22
911.704515
 32
0.0
 13
655.399673
 23
911.704515
 33
0.0
  0
SOLID
  5
14D4
100
AcDbEntity
  8
0
  6
BYBLOCK
100
AcDbTrace
 10
687.661154
 20
912.954515
 30
0.0
 11
687.661154
 21
910.454515
 31
0.0
 12
695.161154
 22
911.704515
 32
0.0
 13
695.161154
 23
911.704515
 33
0.0
  0
MTEXT
  5
14D5
100
AcDbEntity
  8
0
  6
BYBLOCK
 62
     1
100
AcDbMText
 10
675.280413
 20
917.954515
 30
0.0
 40
7.5
 41
0.0
 71
     5
 72
     1
  1
\A1;40
  7
TOM
  0
POINT
  5
14D6
100
AcDbEntity
  8
DEFPOINTS
  6
BYBLOCK
 62
     0
100
AcDbPoint
 10
655.399673
 20
873.46503
 30
0.0
  0
POINT
  5
14D7
100
AcDbEntity
  8
DEFPOINTS
  6
BYBLOCK
 62
     0
100
AcDbPoint
 10
695.161154
 20
852.776763
 30
0.0
  0
POINT
  5
14D8
100
AcDbEntity
  8
DEFPOINTS
  6
BYBLOCK
 62
     0
100
AcDbPoint
 10
695.161154
 20
911.704515
 30
0.0
  0
ENDBLK
  5
14D9
100
AcDbEntity
  8
0
100
AcDbBlockEnd
  0
BLOCK
  5
14DB
100
AcDbEntity
  8
0
100
AcDbBlockBegin
  2
*D23
 70
     1
 10
0.0
 20
0.0
 30
0.0
  3
*D23
  1

  0
LINE
  5
14DC
100
AcDbEntity
  8
0
  6
BYBLOCK
100
AcDbLine
 10
400.399673
 20
851.46503
 30
0.0
 11
379.763716
 21
851.46503
 31
0.0
  0
LINE
  5
14DD
100
AcDbEntity
  8
0
  6
BYBLOCK
100
AcDbLine
 10
433.399673
 20
876.46503
 30
0.0
 11
379.763716
 21
876.46503
 31
0.0
  0
LINE
  5
14DE
100
AcDbEntity
  8
0
  6
BYBLOCK
100
AcDbLine
 10
382.263716
 20
858.96503
 30
0.0
 11
382.263716
 21
868.96503
 31
0.0
  0
SOLID
  5
14DF
100
AcDbEntity
  8
0
  6
BYBLOCK
100
AcDbTrace
 10
381.013716
 20
858.96503
 30
0.0
 11
383.513716
 21
858.96503
 31
0.0
 12
382.263716
 22
851.46503
 32
0.0
 13
382.263716
 23
851.46503
 33
0.0
  0
SOLID
  5
14E0
100
AcDbEntity
  8
0
  6
BYBLOCK
100
AcDbTrace
 10
381.013716
 20
868.96503
 30
0.0
 11
383.513716
 21
868.96503
 31
0.0
 12
382.263716
 22
876.46503
 32
0.0
 13
382.263716
 23
876.46503
 33
0.0
  0
MTEXT
  5
14E1
100
AcDbEntity
  8
0
  6
BYBLOCK
 62
     1
100
AcDbMText
 10
376.013716
 20
863.96503
 30
0.0
 40
7.5
 41
0.0
 71
     5
 72
     1
  1
\A1;25
  7
TOM
 11
0.0
 21
1.0
 31
0.0
  0
POINT
  5
14E2
100
AcDbEntity
  8
DEFPOINTS
  6
BYBLOCK
 62
     0
100
AcDbPoint
 10
405.399673
 20
851.46503
 30
0.0
  0
POINT
  5
14E3
100
AcDbEntity
  8
DEFPOINTS
  6
BYBLOCK
 62
     0
100
AcDbPoint
 10
438.399673
 20
876.46503
 30
0.0
  0
POINT
  5
14E4
100
AcDbEntity
  8
DEFPOINTS
  6
BYBLOCK
 62
     0
100
AcDbPoint
 10
382.263716
 20
876.46503
 30
0.0
  0
ENDBLK
  5
14E5
100
AcDbEntity
  8
0
100
AcDbBlockEnd
  0
BLOCK
  5
1535
100
AcDbEntity
  8
0
100
AcDbBlockBegin
  2
*D24
 70
     1
 10
0.0
 20
0.0
 30
0.0
  3
*D24
  1

  0
LINE
  5
1536
100
AcDbEntity
  8
0
  6
BYBLOCK
100
AcDbLine
 10
738.399673
 20
778.399499
 30
0.0
 11
738.399673
 21
809.138985
 31
0.0
  0
LINE
  5
1537
100
AcDbEntity
  8
0
  6
BYBLOCK
100
AcDbLine
 10
405.399673
 20
756.399499
 30
0.0
 11
405.399673
 21
809.138985
 31
0.0
  0
LINE
  5
1538
100
AcDbEntity
  8
0
  6
BYBLOCK
100
AcDbLine
 10
730.899673
 20
806.638985
 30
0.0
 11
412.899673
 21
806.638985
 31
0.0
  0
SOLID
  5
1539
100
AcDbEntity
  8
0
  6
BYBLOCK
100
AcDbTrace
 10
730.899673
 20
807.888985
 30
0.0
 11
730.899673
 21
805.388985
 31
0.0
 12
738.399673
 22
806.638985
 32
0.0
 13
738.399673
 23
806.638985
 33
0.0
  0
SOLID
  5
153A
100
AcDbEntity
  8
0
  6
BYBLOCK
100
AcDbTrace
 10
412.899673
 20
807.888985
 30
0.0
 11
412.899673
 21
805.388985
 31
0.0
 12
405.399673
 22
806.638985
 32
0.0
 13
405.399673
 23
806.638985
 33
0.0
  0
MTEXT
  5
153B
100
AcDbEntity
  8
0
  6
BYBLOCK
 62
     1
100
AcDbMText
 10
571.899673
 20
812.888985
 30
0.0
 40
7.5
 41
0.0
 71
     5
 72
     1
  1
\A1;333
  7
TOM
  0
POINT
  5
153C
100
AcDbEntity
  8
DEFPOINTS
  6
BYBLOCK
 62
     0
100
AcDbPoint
 10
738.399673
 20
773.399499
 30
0.0
  0
POINT
  5
153D
100
AcDbEntity
  8
DEFPOINTS
  6
BYBLOCK
 62
     0
100
AcDbPoint
 10
405.399673
 20
751.399499
 30
0.0
  0
POINT
  5
153E
100
AcDbEntity
  8
DEFPOINTS
  6
BYBLOCK
 62
     0
100
AcDbPoint
 10
405.399673
 20
806.638985
 30
0.0
  0
ENDBLK
  5
153F
100
AcDbEntity
  8
0
100
AcDbBlockEnd
  0
BLOCK
  5
1540
100
AcDbEntity
  8
0
100
AcDbBlockBegin
  2
*D25
 70
     1
 10
0.0
 20
0.0
 30
0.0
  3
*D25
  1

  0
LINE
  5
1541
100
AcDbEntity
  8
0
  6
BYBLOCK
100
AcDbLine
 10
805.399673
 20
673.333968
 30
0.0
 11
805.399673
 21
704.073454
 31
0.0
  0
LINE
  5
1542
100
AcDbEntity
  8
0
  6
BYBLOCK
100
AcDbLine
 10
405.399673
 20
651.333968
 30
0.0
 11
405.399673
 21
704.073454
 31
0.0
  0
LINE
  5
1543
100
AcDbEntity
  8
0
  6
BYBLOCK
100
AcDbLine
 10
797.899673
 20
701.573454
 30
0.0
 11
412.899673
 21
701.573454
 31
0.0
  0
SOLID
  5
1544
100
AcDbEntity
  8
0
  6
BYBLOCK
100
AcDbTrace
 10
797.899673
 20
702.823454
 30
0.0
 11
797.899673
 21
700.323454
 31
0.0
 12
805.399673
 22
701.573454
 32
0.0
 13
805.399673
 23
701.573454
 33
0.0
  0
SOLID
  5
1545
100
AcDbEntity
  8
0
  6
BYBLOCK
100
AcDbTrace
 10
412.899673
 20
702.823454
 30
0.0
 11
412.899673
 21
700.323454
 31
0.0
 12
405.399673
 22
701.573454
 32
0.0
 13
405.399673
 23
701.573454
 33
0.0
  0
MTEXT
  5
1546
100
AcDbEntity
  8
0
  6
BYBLOCK
 62
     1
100
AcDbMText
 10
605.399673
 20
707.823454
 30
0.0
 40
7.5
 41
0.0
 71
     5
 72
     1
  1
\A1;400
  7
TOM
  0
POINT
  5
1547
100
AcDbEntity
  8
DEFPOINTS
  6
BYBLOCK
 62
     0
100
AcDbPoint
 10
805.399673
 20
668.333968
 30
0.0
  0
POINT
  5
1548
100
AcDbEntity
  8
DEFPOINTS
  6
BYBLOCK
 62
     0
100
AcDbPoint
 10
405.399673
 20
646.333968
 30
0.0
  0
POINT
  5
1549
100
AcDbEntity
  8
DEFPOINTS
  6
BYBLOCK
 62
     0
100
AcDbPoint
 10
405.399673
 20
701.573454
 30
0.0
  0
ENDBLK
  5
154A
100
AcDbEntity
  8
0
100
AcDbBlockEnd
  0
BLOCK
  5
1506
100
AcDbEntity
  8
0
100
AcDbBlockBegin
  2
*D26
 70
     1
 10
0.0
 20
0.0
 30
0.0
  3
*D26
  1

  0
LINE
  5
1507
100
AcDbEntity
  8
0
  6
BYBLOCK
100
AcDbLine
 10
400.399673
 20
746.399499
 30
0.0
 11
379.763716
 21
746.399499
 31
0.0
  0
LINE
  5
1508
100
AcDbEntity
  8
0
  6
BYBLOCK
100
AcDbLine
 10
433.399673
 20
771.399499
 30
0.0
 11
379.763716
 21
771.399499
 31
0.0
  0
LINE
  5
1509
100
AcDbEntity
  8
0
  6
BYBLOCK
100
AcDbLine
 10
382.263716
 20
753.899499
 30
0.0
 11
382.263716
 21
763.899499
 31
0.0
  0
SOLID
  5
150A
100
AcDbEntity
  8
0
  6
BYBLOCK
100
AcDbTrace
 10
381.013716
 20
753.899499
 30
0.0
 11
383.513716
 21
753.899499
 31
0.0
 12
382.263716
 22
746.399499
 32
0.0
 13
382.263716
 23
746.399499
 33
0.0
  0
SOLID
  5
150B
100
AcDbEntity
  8
0
  6
BYBLOCK
100
AcDbTrace
 10
381.013716
 20
763.899499
 30
0.0
 11
383.513716
 21
763.899499
 31
0.0
 12
382.263716
 22
771.399499
 32
0.0
 13
382.263716
 23
771.399499
 33
0.0
  0
MTEXT
  5
150C
100
AcDbEntity
  8
0
  6
BYBLOCK
 62
     1
100
AcDbMText
 10
376.013716
 20
758.899499
 30
0.0
 40
7.5
 41
0.0
 71
     5
 72
     1
  1
\A1;25
  7
TOM
 11
0.0
 21
1.0
 31
0.0
  0
POINT
  5
150D
100
AcDbEntity
  8
DEFPOINTS
  6
BYBLOCK
 62
     0
100
AcDbPoint
 10
405.399673
 20
746.399499
 30
0.0
  0
POINT
  5
150E
100
AcDbEntity
  8
DEFPOINTS
  6
BYBLOCK
 62
     0
100
AcDbPoint
 10
438.399673
 20
771.399499
 30
0.0
  0
POINT
  5
150F
100
AcDbEntity
  8
DEFPOINTS
  6
BYBLOCK
 62
     0
100
AcDbPoint
 10
382.263716
 20
771.399499
 30
0.0
  0
ENDBLK
  5
1510
100
AcDbEntity
  8
0
100
AcDbBlockEnd
  0
BLOCK
  5
1512
100
AcDbEntity
  8
0
100
AcDbBlockBegin
  2
*D27
 70
     1
 10
0.0
 20
0.0
 30
0.0
  3
*D27
  1

  0
LINE
  5
1513
100
AcDbEntity
  8
0
  6
BYBLOCK
100
AcDbLine
 10
405.399673
 20
751.399499
 30
0.0
 11
405.399673
 21
792.451536
 31
0.0
  0
LINE
  5
1514
100
AcDbEntity
  8
0
  6
BYBLOCK
100
AcDbLine
 10
435.399673
 20
773.399499
 30
0.0
 11
435.399673
 21
792.451536
 31
0.0
  0
LINE
  5
1515
100
AcDbEntity
  8
0
  6
BYBLOCK
100
AcDbLine
 10
412.899673
 20
789.951536
 30
0.0
 11
427.899673
 21
789.951536
 31
0.0
  0
SOLID
  5
1516
100
AcDbEntity
  8
0
  6
BYBLOCK
100
AcDbTrace
 10
412.899673
 20
791.201536
 30
0.0
 11
412.899673
 21
788.701536
 31
0.0
 12
405.399673
 22
789.951536
 32
0.0
 13
405.399673
 23
789.951536
 33
0.0
  0
SOLID
  5
1517
100
AcDbEntity
  8
0
  6
BYBLOCK
100
AcDbTrace
 10
427.899673
 20
791.201536
 30
0.0
 11
427.899673
 21
788.701536
 31
0.0
 12
435.399673
 22
789.951536
 32
0.0
 13
435.399673
 23
789.951536
 33
0.0
  0
MTEXT
  5
1518
100
AcDbEntity
  8
0
  6
BYBLOCK
 62
     1
100
AcDbMText
 10
420.399673
 20
796.201536
 30
0.0
 40
7.5
 41
0.0
 71
     5
 72
     1
  1
\A1;30
  7
TOM
  0
POINT
  5
1519
100
AcDbEntity
  8
DEFPOINTS
  6
BYBLOCK
 62
     0
100
AcDbPoint
 10
405.399673
 20
746.399499
 30
0.0
  0
POINT
  5
151A
100
AcDbEntity
  8
DEFPOINTS
  6
BYBLOCK
 62
     0
100
AcDbPoint
 10
435.399673
 20
768.399499
 30
0.0
  0
POINT
  5
151B
100
AcDbEntity
  8
DEFPOINTS
  6
BYBLOCK
 62
     0
100
AcDbPoint
 10
435.399673
 20
789.951536
 30
0.0
  0
ENDBLK
  5
151C
100
AcDbEntity
  8
0
100
AcDbBlockEnd
  0
BLOCK
  5
151E
100
AcDbEntity
  8
0
100
AcDbBlockBegin
  2
*D28
 70
     1
 10
0.0
 20
0.0
 30
0.0
  3
*D28
  1

  0
LINE
  5
151F
100
AcDbEntity
  8
0
  6
BYBLOCK
100
AcDbLine
 10
655.399673
 20
773.399499
 30
0.0
 11
655.399673
 21
809.138985
 31
0.0
  0
LINE
  5
1520
100
AcDbEntity
  8
0
  6
BYBLOCK
100
AcDbLine
 10
695.161154
 20
752.711232
 30
0.0
 11
695.161154
 21
809.138985
 31
0.0
  0
LINE
  5
1521
100
AcDbEntity
  8
0
  6
BYBLOCK
100
AcDbLine
 10
662.899673
 20
806.638985
 30
0.0
 11
687.661154
 21
806.638985
 31
0.0
  0
SOLID
  5
1522
100
AcDbEntity
  8
0
  6
BYBLOCK
100
AcDbTrace
 10
662.899673
 20
807.888985
 30
0.0
 11
662.899673
 21
805.388985
 31
0.0
 12
655.399673
 22
806.638985
 32
0.0
 13
655.399673
 23
806.638985
 33
0.0
  0
SOLID
  5
1523
100
AcDbEntity
  8
0
  6
BYBLOCK
100
AcDbTrace
 10
687.661154
 20
807.888985
 30
0.0
 11
687.661154
 21
805.388985
 31
0.0
 12
695.161154
 22
806.638985
 32
0.0
 13
695.161154
 23
806.638985
 33
0.0
  0
MTEXT
  5
1524
100
AcDbEntity
  8
0
  6
BYBLOCK
 62
     1
100
AcDbMText
 10
675.280413
 20
812.888985
 30
0.0
 40
7.5
 41
0.0
 71
     5
 72
     1
  1
\A1;40
  7
TOM
  0
POINT
  5
1525
100
AcDbEntity
  8
DEFPOINTS
  6
BYBLOCK
 62
     0
100
AcDbPoint
 10
655.399673
 20
768.399499
 30
0.0
  0
POINT
  5
1526
100
AcDbEntity
  8
DEFPOINTS
  6
BYBLOCK
 62
     0
100
AcDbPoint
 10
695.161154
 20
747.711232
 30
0.0
  0
POINT
  5
1527
100
AcDbEntity
  8
DEFPOINTS
  6
BYBLOCK
 62
     0
100
AcDbPoint
 10
695.161154
 20
806.638985
 30
0.0
  0
ENDBLK
  5
1528
100
AcDbEntity
  8
0
100
AcDbBlockEnd
  0
BLOCK
  5
152A
100
AcDbEntity
  8
0
100
AcDbBlockBegin
  2
*D29
 70
     1
 10
0.0
 20
0.0
 30
0.0
  3
*D29
  1

  0
LINE
  5
152B
100
AcDbEntity
  8
0
  6
BYBLOCK
100
AcDbLine
 10
657.399673
 20
771.399499
 30
0.0
 11
728.033208
 21
771.399499
 31
0.0
  0
LINE
  5
152C
100
AcDbEntity
  8
0
  6
BYBLOCK
100
AcDbLine
 10
693.004715
 20
745.899499
 30
0.0
 11
728.033208
 21
745.899499
 31
0.0
  0
LINE
  5
152D
100
AcDbEntity
  8
0
  6
BYBLOCK
100
AcDbLine
 10
725.533208
 20
763.899499
 30
0.0
 11
725.533208
 21
753.399499
 31
0.0
  0
SOLID
  5
152E
100
AcDbEntity
  8
0
  6
BYBLOCK
100
AcDbTrace
 10
724.283208
 20
763.899499
 30
0.0
 11
726.783208
 21
763.899499
 31
0.0
 12
725.533208
 22
771.399499
 32
0.0
 13
725.533208
 23
771.399499
 33
0.0
  0
SOLID
  5
152F
100
AcDbEntity
  8
0
  6
BYBLOCK
100
AcDbTrace
 10
724.283208
 20
753.399499
 30
0.0
 11
726.783208
 21
753.399499
 31
0.0
 12
725.533208
 22
745.899499
 32
0.0
 13
725.533208
 23
745.899499
 33
0.0
  0
MTEXT
  5
1530
100
AcDbEntity
  8
0
  6
BYBLOCK
 62
     1
100
AcDbMText
 10
719.283208
 20
758.649499
 30
0.0
 40
7.5
 41
0.0
 71
     5
 72
     1
  1
\A1;26
  7
TOM
 11
0.0
 21
1.0
 31
0.0
  0
POINT
  5
1531
100
AcDbEntity
  8
DEFPOINTS
  6
BYBLOCK
 62
     0
100
AcDbPoint
 10
652.399673
 20
771.399499
 30
0.0
  0
POINT
  5
1532
100
AcDbEntity
  8
DEFPOINTS
  6
BYBLOCK
 62
     0
100
AcDbPoint
 10
688.004715
 20
745.899499
 30
0.0
  0
POINT
  5
1533
100
AcDbEntity
  8
DEFPOINTS
  6
BYBLOCK
 62
     0
100
AcDbPoint
 10
725.533208
 20
745.899499
 30
0.0
  0
ENDBLK
  5
1534
100
AcDbEntity
  8
0
100
AcDbBlockEnd
  0
ENDSEC
  0
SECTION
  2
ENTITIES
  0
MTEXT
  5
55A
100
AcDbEntity
  8
0
100
AcDbMText
 10
534.380229
 20
958.082903
 30
0.0
 40
10.0
 41
86.114952
 71
     1
 72
     5
  1
MF 25
  7
TOM
1001
ACAD
1000
MTEXTBEGIN
1070
    73
1070
     1
1070
    44
1040
1.0
1070
    74
1070
     0
1000
MTEXTEND
  0
POINT
  5
56D
100
AcDbEntity
  8
DEFPOINTS
  6
BYBLOCK
 62
     0
100
AcDbPoint
 10
405.399673
 20
851.46503
 30
0.0
  0
LWPOLYLINE
  5
AC6
100
AcDbEntity
  8
LAMELA-VELKA
100
AcDbPolyline
 90
       12
 70
     0
 43
2.0
 10
405.399673
 20
851.46503
 10
432.399673
 20
851.46503
 42
0.414214
 10
435.399673
 20
854.46503
 10
435.399673
 20
873.46503
 42
-0.414214
 10
438.399673
 20
876.46503
 10
652.399673
 20
876.46503
 42
-0.414214
 10
655.399673
 20
873.46503
 10
655.399673
 20
853.96503
 42
0.414214
 10
658.399673
 20
850.96503
 10
688.004715
 20
850.96503
 42
0.065543
 10
688.781173
 20
851.067252
 10
695.161154
 20
852.776763
  0
DIMENSION
  5
F57
100
AcDbEntity
  8
KOTY-UPLNE
100
AcDbDimension
  2
*D13
 10
725.533208
 20
850.96503
 30
0.0
 11
719.283208
 21
863.71503
 31
0.0
 70
    32
  3
KOTY-VELKE
100
AcDbAlignedDimension
 13
652.399673
 23
876.46503
 33
0.0
 14
688.004715
 24
850.96503
 34
0.0
 50
90.0
100
AcDbRotatedDimension
1001
ACAD
1000
DSTYLE
1002
{
1070
    40
1040
5.0
1070
   147
1040
0.5
1070
    44
1040
0.5
1070
   178
1070
     1
1070
   177
1070
   256
1070
   176
1070
   256
1002
}
  0
DIMENSION
  5
F7C
100
AcDbEntity
  8
KOTY-UPLNE
100
AcDbDimension
  2
*D15
 10
435.399673
 20
895.017067
 30
0.0
 11
420.399673
 21
901.267067
 31
0.0
 70
    32
  3
KOTY-VELKE
100
AcDbAlignedDimension
 13
405.399673
 23
851.46503
 33
0.0
 14
435.399673
 24
873.46503
 34
0.0
100
AcDbRotatedDimension
1001
ACAD
1000
DSTYLE
1002
{
1070
    40
1040
5.0
1070
   147
1040
0.5
1070
    44
1040
0.5
1070
   178
1070
     1
1070
   177
1070
   256
1070
   176
1070
   256
1002
}
  0
DIMENSION
  5
F89
100
AcDbEntity
  8
KOTY-UPLNE
100
AcDbDimension
  2
*D16
 10
695.161154
 20
911.704515
 30
0.0
 11
675.280413
 21
917.954515
 31
0.0
 70
    32
  3
KOTY-VELKE
100
AcDbAlignedDimension
 13
655.399673
 23
873.46503
 33
0.0
 14
695.161154
 24
852.776763
 34
0.0
100
AcDbRotatedDimension
1001
ACAD
1000
DSTYLE
1002
{
1070
    40
1040
5.0
1070
   147
1040
0.5
1070
    44
1040
0.5
1070
   178
1070
     1
1070
   177
1070
   256
1070
   176
1070
   256
1002
}
  0
DIMENSION
  5
12DB
100
AcDbEntity
  8
KOTY-UPLNE
100
AcDbDimension
  2
*D17
 10
382.263716
 20
876.46503
 30
0.0
 11
376.013716
 21
863.96503
 31
0.0
 70
    32
  3
KOTY-VELKE
100
AcDbAlignedDimension
 13
405.399673
 23
851.46503
 33
0.0
 14
438.399673
 24
876.46503
 34
0.0
 50
90.0
100
AcDbRotatedDimension
1001
ACAD
1000
DSTYLE
1002
{
1070
    40
1040
5.0
1070
   147
1040
0.5
1070
    44
1040
0.5
1070
   178
1070
     1
1070
   177
1070
   256
1070
   176
1070
   256
1002
}
  0
DIMENSION
  5
14AE
100
AcDbEntity
  8
KOTY-UPLNE
100
AcDbDimension
  2
*D19
 10
405.399673
 20
911.704515
 30
0.0
 11
530.399673
 21
917.954515
 31
0.0
 70
    32
  3
KOTY-VELKE
100
AcDbAlignedDimension
 13
655.399673
 23
878.46503
 33
0.0
 14
405.399673
 24
856.46503
 34
0.0
100
AcDbRotatedDimension
1001
ACAD
1000
DSTYLE
1002
{
1070
    40
1040
5.0
1070
   147
1040
0.5
1070
    44
1040
0.5
1070
   178
1070
     1
1070
   177
1070
   256
1070
   176
1070
   256
1002
}
  0
DIMENSION
  5
14AF
100
AcDbEntity
  8
KOTY-UPLNE
100
AcDbDimension
  2
*D24
 10
405.399673
 20
806.638985
 30
0.0
 11
571.899673
 21
812.888985
 31
0.0
 70
    32
  3
KOTY-VELKE
100
AcDbAlignedDimension
 13
738.399673
 23
773.399499
 33
0.0
 14
405.399673
 24
751.399499
 34
0.0
100
AcDbRotatedDimension
1001
ACAD
1000
DSTYLE
1002
{
1070
    40
1040
5.0
1070
   147
1040
0.5
1070
    44
1040
0.5
1070
   178
1070
     1
1070
   177
1070
   256
1070
   176
1070
   256
1002
}
  0
LWPOLYLINE
  5
14B0
100
AcDbEntity
  8
LAMELA-VELKA
100
AcDbPolyline
 90
       12
 70
     0
 43
2.0
 10
405.399673
 20
746.399499
 10
432.399673
 20
746.399499
 42
0.414214
 10
435.399673
 20
749.399499
 10
435.399673
 20
768.399499
 42
-0.414214
 10
438.399673
 20
771.399499
 10
735.399673
 20
771.399499
 42
-0.414214
 10
738.399673
 20
768.399499
 10
738.399673
 20
748.899499
 42
0.414214
 10
741.399673
 20
745.899499
 10
771.004715
 20
745.899499
 42
0.065543
 10
771.781173
 20
746.001721
 10
778.161154
 20
747.711232
  0
DIMENSION
  5
14B1
100
AcDbEntity
  8
KOTY-UPLNE
100
AcDbDimension
  2
*D23
 10
382.263716
 20
771.399499
 30
0.0
 11
376.013716
 21
758.899499
 31
0.0
 12
0.0
 22
-105.065531
 32
0.0
 70
    32
  3
KOTY-VELKE
100
AcDbAlignedDimension
 13
405.399673
 23
746.399499
 33
0.0
 14
438.399673
 24
771.399499
 34
0.0
 50
90.0
100
AcDbRotatedDimension
1001
ACAD
1000
DSTYLE
1002
{
1070
    40
1040
5.0
1070
   147
1040
0.5
1070
    44
1040
0.5
1070
   178
1070
     1
1070
   177
1070
   256
1070
   176
1070
   256
1002
}
  0
DIMENSION
  5
14B2
100
AcDbEntity
  8
KOTY-UPLNE
100
AcDbDimension
  2
*D21
 10
435.399673
 20
789.951536
 30
0.0
 11
420.399673
 21
796.201536
 31
0.0
 12
0.0
 22
-105.065531
 32
0.0
 70
    32
  3
KOTY-VELKE
100
AcDbAlignedDimension
 13
405.399673
 23
746.399499
 33
0.0
 14
435.399673
 24
768.399499
 34
0.0
100
AcDbRotatedDimension
1001
ACAD
1000
DSTYLE
1002
{
1070
    40
1040
5.0
1070
   147
1040
0.5
1070
    44
1040
0.5
1070
   178
1070
     1
1070
   177
1070
   256
1070
   176
1070
   256
1002
}
  0
POINT
  5
14B3
100
AcDbEntity
  8
DEFPOINTS
  6
BYBLOCK
 62
     0
100
AcDbPoint
 10
405.399673
 20
746.399499
 30
0.0
  0
DIMENSION
  5
14B4
100
AcDbEntity
  8
KOTY-UPLNE
100
AcDbDimension
  2
*D22
 10
778.161154
 20
806.638985
 30
0.0
 11
675.280413
 21
812.888985
 31
0.0
 12
83.0
 22
-105.065531
 32
0.0
 70
    32
  3
KOTY-VELKE
100
AcDbAlignedDimension
 13
738.399673
 23
768.399499
 33
0.0
 14
778.161154
 24
747.711232
 34
0.0
100
AcDbRotatedDimension
1001
ACAD
1000
DSTYLE
1002
{
1070
    40
1040
5.0
1070
   147
1040
0.5
1070
    44
1040
0.5
1070
   178
1070
     1
1070
   177
1070
   256
1070
   176
1070
   256
1002
}
  0
DIMENSION
  5
14B5
100
AcDbEntity
  8
KOTY-UPLNE
100
AcDbDimension
  2
*D20
 10
808.533208
 20
745.899499
 30
0.0
 11
719.283208
 21
758.649499
 31
0.0
 12
83.0
 22
-105.065531
 32
0.0
 70
    32
  3
KOTY-VELKE
100
AcDbAlignedDimension
 13
735.399673
 23
771.399499
 33
0.0
 14
771.004715
 24
745.899499
 34
0.0
 50
90.0
100
AcDbRotatedDimension
1001
ACAD
1000
DSTYLE
1002
{
1070
    40
1040
5.0
1070
   147
1040
0.5
1070
    44
1040
0.5
1070
   178
1070
     1
1070
   177
1070
   256
1070
   176
1070
   256
1002
}
  0
LWPOLYLINE
  5
14F2
100
AcDbEntity
  8
LAMELA-VELKA
100
AcDbPolyline
 90
       12
 70
     0
 43
2.0
 10
405.399673
 20
641.333968
 10
432.399673
 20
641.333968
 42
0.414214
 10
435.399673
 20
644.333968
 10
435.399673
 20
663.333968
 42
-0.414214
 10
438.399673
 20
666.333968
 10
802.399673
 20
666.333968
 42
-0.414214
 10
805.399673
 20
663.333968
 10
805.399673
 20
643.833968
 42
0.414214
 10
808.399673
 20
640.833968
 10
838.004715
 20
640.833968
 42
0.065543
 10
838.781173
 20
640.936191
 10
845.161154
 20
642.645701
  0
DIMENSION
  5
14F3
100
AcDbEntity
  8
KOTY-UPLNE
100
AcDbDimension
  2
*D25
 10
405.399673
 20
701.573454
 30
0.0
 11
605.399673
 21
707.823454
 31
0.0
 70
    32
  3
KOTY-VELKE
100
AcDbAlignedDimension
 13
805.399673
 23
668.333968
 33
0.0
 14
405.399673
 24
646.333968
 34
0.0
100
AcDbRotatedDimension
1001
ACAD
1000
DSTYLE
1002
{
1070
    40
1040
5.0
1070
   147
1040
0.5
1070
    44
1040
0.5
1070
   178
1070
     1
1070
   177
1070
   256
1070
   176
1070
   256
1002
}
  0
DIMENSION
  5
14F4
100
AcDbEntity
  8
KOTY-UPLNE
100
AcDbDimension
  2
*D27
 10
435.399673
 20
684.886005
 30
0.0
 11
420.399673
 21
691.136005
 31
0.0
 12
0.0
 22
-105.065531
 32
0.0
 70
    32
  3
KOTY-VELKE
100
AcDbAlignedDimension
 13
405.399673
 23
641.333968
 33
0.0
 14
435.399673
 24
663.333968
 34
0.0
100
AcDbRotatedDimension
1001
ACAD
1000
DSTYLE
1002
{
1070
    40
1040
5.0
1070
   147
1040
0.5
1070
    44
1040
0.5
1070
   178
1070
     1
1070
   177
1070
   256
1070
   176
1070
   256
1002
}
  0
DIMENSION
  5
14F5
100
AcDbEntity
  8
KOTY-UPLNE
100
AcDbDimension
  2
*D26
 10
382.263716
 20
666.333968
 30
0.0
 11
376.013716
 21
653.833968
 31
0.0
 12
0.0
 22
-105.065531
 32
0.0
 70
    32
  3
KOTY-VELKE
100
AcDbAlignedDimension
 13
405.399673
 23
641.333968
 33
0.0
 14
438.399673
 24
666.333968
 34
0.0
 50
90.0
100
AcDbRotatedDimension
1001
ACAD
1000
DSTYLE
1002
{
1070
    40
1040
5.0
1070
   147
1040
0.5
1070
    44
1040
0.5
1070
   178
1070
     1
1070
   177
1070
   256
1070
   176
1070
   256
1002
}
  0
POINT
  5
14F6
100
AcDbEntity
  8
DEFPOINTS
  6
BYBLOCK
 62
     0
100
AcDbPoint
 10
405.399673
 20
641.333968
 30
0.0
  0
DIMENSION
  5
14F7
100
AcDbEntity
  8
KOTY-UPLNE
100
AcDbDimension
  2
*D29
 10
875.533208
 20
640.833968
 30
0.0
 11
719.283208
 21
653.583968
 31
0.0
 12
150.0
 22
-105.065531
 32
0.0
 70
    32
  3
KOTY-VELKE
100
AcDbAlignedDimension
 13
802.399673
 23
666.333968
 33
0.0
 14
838.004715
 24
640.833968
 34
0.0
 50
90.0
100
AcDbRotatedDimension
1001
ACAD
1000
DSTYLE
1002
{
1070
    40
1040
5.0
1070
   147
1040
0.5
1070
    44
1040
0.5
1070
   178
1070
     1
1070
   177
1070
   256
1070
   176
1070
   256
1002
}
  0
DIMENSION
  5
14F8
100
AcDbEntity
  8
KOTY-UPLNE
100
AcDbDimension
  2
*D28
 10
845.161154
 20
701.573454
 30
0.0
 11
675.280413
 21
707.823454
 31
0.0
 12
150.0
 22
-105.065531
 32
0.0
 70
    32
  3
KOTY-VELKE
100
AcDbAlignedDimension
 13
805.399673
 23
663.333968
 33
0.0
 14
845.161154
 24
642.645701
 34
0.0
100
AcDbRotatedDimension
1001
ACAD
1000
DSTYLE
1002
{
1070
    40
1040
5.0
1070
   147
1040
0.5
1070
    44
1040
0.5
1070
   178
1070
     1
1070
   177
1070
   256
1070
   176
1070
   256
1002
}
  0
ENDSEC
  0
SECTION
  2
OBJECTS
  0
DICTIONARY
  5
7
100
AcDbDictionary
  3
ACAD_GROUP
350
22
  3
ACAD_LAYOUT
350
B
  3
ACAD_MLINESTYLE
350
23
  3
ACAD_PLOTSETTINGS
350
24
  3
ACAD_PLOTSTYLENAME
350
6
  3
ACDBHEADERROUNDTRIPXREC
350
11D
  3
DWGPROPS
350
52
  0
DICTIONARY
  5
147
100
AcDbDictionary
280
     1
  3
ACAD_XREC_ROUNDTRIP
360
148
  0
DICTIONARY
  5
117
100
AcDbDictionary
280
     1
  3
ACAD_XREC_ROUNDTRIP
360
118
  0
DICTIONARY
  5
145
100
AcDbDictionary
280
     1
  3
ACAD_XREC_ROUNDTRIP
360
146
  0
DICTIONARY
  5
13E
100
AcDbDictionary
280
     1
  3
ACAD_LAYOUTSELFREF
360
13F
  0
DICTIONARY
  5
111
100
AcDbDictionary
280
     1
  3
ACAD_LAYOUTSELFREF
360
142
  3
ACAD_XREC_ROUNDTRIP
360
112
  0
DICTIONARY
  5
22
102
{ACAD_REACTORS
330
7
102
}
100
AcDbDictionary
  0
DICTIONARY
  5
B
102
{ACAD_XDICTIONARY
360
140
102
}
102
{ACAD_REACTORS
330
7
102
}
100
AcDbDictionary
  3
LAYOUT2
350
F
  3
MODEL
350
A
  0
DICTIONARY
  5
23
102
{ACAD_REACTORS
330
7
102
}
100
AcDbDictionary
  3
STANDARD
350
27
  0
DICTIONARY
  5
24
102
{ACAD_REACTORS
330
7
102
}
100
AcDbDictionary
  0
ACAD_PROXY_OBJECT
  5
6
102
{ACAD_REACTORS
330
7
102
}
100
AcDbProxyObject
 90
      499
 91
      502
 93
       86
310
405010041939BDC9B585B0
350
5
340
5
 94
        0
  0
DICTIONARY
  5
11D
102
{ACAD_REACTORS
330
7
102
}
100
AcDbDictionary
  3
CEPSNTYPE
350
127
  3
DIMSTYLEDATA
350
12B
  3
FINGERPRINTGUID
350
128
  3
HYPERLINKBASE
350
120
  3
INSUNITS
350
126
  3
LAYOUTDICT
350
122
  3
LWETCUNION
350
125
  3
PLOTSETDICT
350
123
  3
PLOTSTYLNAMDICT
350
124
  3
PSVPSCALE
350
12A
  3
PUCSBASE
350
12E
  3
PUCSORGBACK
350
134
  3
PUCSORGBOTTOM
350
130
  3
PUCSORGFRONT
350
133
  3
PUCSORGLEFT
350
131
  3
PUCSORGRIGHT
350
132
  3
PUCSORGTOP
350
12F
  3
PUCSORTHOREF
350
12C
  3
PUCSORTHOVIEW
350
12D
  3
STYLESHEET
350
121
  3
TSTACKALIGN
350
11E
  3
TSTACKSIZE
350
11F
  3
UCSBASE
350
137
  3
UCSORGBACK
350
13D
  3
UCSORGBOTTOM
350
139
  3
UCSORGFRONT
350
13C
  3
UCSORGLEFT
350
13A
  3
UCSORGRIGHT
350
13B
  3
UCSORGTOP
350
138
  3
UCSORTHOREF
350
135
  3
UCSORTHOVIEW
350
136
  3
VERSIONGUID
350
129
  0
XRECORD
  5
52
102
{ACAD_REACTORS
330
7
102
}
100
AcDbXrecord
  1
DWGPROPS COOKIE
  2

  3

  4

  6

  7

  8
tom
  9

300
=
301
=
302
=
303
=
304
=
305
=
306
=
307
=
308
=
309
=
 40
0.356595
 41
2450098.461195
 42
2452040.602766
  1

 90
        0
  0
XRECORD
  5
148
102
{ACAD_REACTORS
330
147
102
}
100
AcDbXrecord
102
PLOTBIT
280
     0
  0
XRECORD
  5
118
102
{ACAD_REACTORS
330
117
102
}
100
AcDbXrecord
102
EXTNAMES
  1
TOM
  2
tom
  0
XRECORD
  5
146
102
{ACAD_REACTORS
330
145
102
}
100
AcDbXrecord
102
ACADR14ROUNDTRIP
1000
DSTYLE
1002
{
1070
   279
 70
     2
1002
}
  0
XRECORD
  5
13F
102
{ACAD_REACTORS
330
13E
102
}
100
AcDbXrecord
340
2
  0
XRECORD
  5
142
102
{ACAD_REACTORS
330
111
102
}
100
AcDbXrecord
340
C
  0
XRECORD
  5
112
102
{ACAD_REACTORS
330
111
102
}
100
AcDbXrecord
102
EXTNAMES
  1
*PAPER_SPACE
  2
*Paper_Space
  0
DICTIONARY
  5
140
100
AcDbDictionary
280
     1
  3
ACAD_XREC_ROUNDTRIP
360
141
  0
ACAD_PROXY_OBJECT
  5
F
102
{ACAD_REACTORS
330
B
102
}
100
AcDbProxyObject
 90
      499
 91
      504
 93
     1484
310
91943616E6F6E20427562626C652D4A657420424A432D343030302C8080000002033931C4000000000333F0A9000000000080ED0C4000000000003003D000000008067416A400000001017639C901024134A40501416AA543D513D34C4B5CDA591A5B99CB98DD1891069074C61796F75743240501A80000000003003F00000
310
00080CE4C7300000001037539C9000000039F3571A502A6A6A0000000022FC4ED00D0CCCCB8ACED3340800000060BC6F6F401999B993D89AD99020
330
C
330
0
340
0
340
0
 94
        0
  0
ACAD_PROXY_OBJECT
  5
A
102
{ACAD_REACTORS
330
B
102
}
100
AcDbProxyObject
 90
      499
 91
      504
 93
     1796
310
9144B796F63657261204D6974612046532D31383030290B8000000C067381B40000000102F06C51000000000068381B40000000002E06C510000000080253F6A400000003834239C90102413400000000002012100AE47E17A148E5E40405014100055D792FC8379401026BDF13AE5E0500049AA63FFE6283402D878F5E855
310
EE41024000000000000144043D513D34C4B5CDA591A5B99CB98DD18A26A666666666724FC0055D792FC8379C01026BDF13AE5E0701054D6F64656C901A800000000000000000000000000000000000000000000A1000000000000008902A6A6AAAAF
330
2
330
0
340
0
340
0
 94
        0
  0
MLINESTYLE
  5
27
102
{ACAD_REACTORS
330
23
102
}
100
AcDbMlineStyle
  2
STANDARD
 70
     0
  3

 62
   256
 51
90.0
 52
90.0
 71
     2
 49
0.5
 62
   256
  6
BYLAYER
 49
-0.5
 62
   256
  6
BYLAYER
  0
ACAD_PROXY_OBJECT
  5
5
102
{ACAD_REACTORS
330
6
102
}
100
AcDbProxyObject
 90
      499
 91
      503
 93
        0
 94
        0
  0
XRECORD
  5
127
102
{ACAD_REACTORS
330
11D
102
}
100
AcDbXrecord
 90
        0
  0
XRECORD
  5
12B
102
{ACAD_REACTORS
330
11D
102
}
100
AcDbXrecord
1000
DSTYLE
1002
{
1070
   179
 70
     4
1070
   278
 70
    44
1070
   279
 70
     2
1070
   289
 70
     1
1002
}
  0
XRECORD
  5
128
102
{ACAD_REACTORS
330
11D
102
}
100
AcDbXrecord
  1
{986116A0-451F-11D5-BBCF-006097BB053F}
  0
XRECORD
  5
120
102
{ACAD_REACTORS
330
11D
102
}
100
AcDbXrecord
  1

  0
XRECORD
  5
126
102
{ACAD_REACTORS
330
11D
102
}
100
AcDbXrecord
 90
        0
  0
XRECORD
  5
122
102
{ACAD_REACTORS
330
11D
102
}
100
AcDbXrecord
340
B
  0
XRECORD
  5
125
102
{ACAD_REACTORS
330
11D
102
}
100
AcDbXrecord
 90
    10781
  0
XRECORD
  5
123
102
{ACAD_REACTORS
330
11D
102
}
100
AcDbXrecord
340
24
  0
XRECORD
  5
124
102
{ACAD_REACTORS
330
11D
102
}
100
AcDbXrecord
340
6
  0
XRECORD
  5
12A
102
{ACAD_REACTORS
330
11D
102
}
100
AcDbXrecord
 40
0.0
  0
XRECORD
  5
12E
102
{ACAD_REACTORS
330
11D
102
}
100
AcDbXrecord
340
0
  0
XRECORD
  5
134
102
{ACAD_REACTORS
330
11D
102
}
100
AcDbXrecord
 10
0.0
 20
0.0
 30
0.0
  0
XRECORD
  5
130
102
{ACAD_REACTORS
330
11D
102
}
100
AcDbXrecord
 10
0.0
 20
0.0
 30
0.0
  0
XRECORD
  5
133
102
{ACAD_REACTORS
330
11D
102
}
100
AcDbXrecord
 10
0.0
 20
0.0
 30
0.0
  0
XRECORD
  5
131
102
{ACAD_REACTORS
330
11D
102
}
100
AcDbXrecord
 10
0.0
 20
0.0
 30
0.0
  0
XRECORD
  5
132
102
{ACAD_REACTORS
330
11D
102
}
100
AcDbXrecord
 10
0.0
 20
0.0
 30
0.0
  0
XRECORD
  5
12F
102
{ACAD_REACTORS
330
11D
102
}
100
AcDbXrecord
 10
0.0
 20
0.0
 30
0.0
  0
XRECORD
  5
12C
102
{ACAD_REACTORS
330
11D
102
}
100
AcDbXrecord
340
0
  0
XRECORD
  5
12D
102
{ACAD_REACTORS
330
11D
102
}
100
AcDbXrecord
 70
     0
  0
XRECORD
  5
121
102
{ACAD_REACTORS
330
11D
102
}
100
AcDbXrecord
  1
TOM1-siding.ctb
  0
XRECORD
  5
11E
102
{ACAD_REACTORS
330
11D
102
}
100
AcDbXrecord
 90
        1
  0
XRECORD
  5
11F
102
{ACAD_REACTORS
330
11D
102
}
100
AcDbXrecord
 90
       70
  0
XRECORD
  5
137
102
{ACAD_REACTORS
330
11D
102
}
100
AcDbXrecord
340
0
  0
XRECORD
  5
13D
102
{ACAD_REACTORS
330
11D
102
}
100
AcDbXrecord
 10
0.0
 20
0.0
 30
0.0
  0
XRECORD
  5
139
102
{ACAD_REACTORS
330
11D
102
}
100
AcDbXrecord
 10
0.0
 20
0.0
 30
0.0
  0
XRECORD
  5
13C
102
{ACAD_REACTORS
330
11D
102
}
100
AcDbXrecord
 10
0.0
 20
0.0
 30
0.0
  0
XRECORD
  5
13A
102
{ACAD_REACTORS
330
11D
102
}
100
AcDbXrecord
 10
0.0
 20
0.0
 30
0.0
  0
XRECORD
  5
13B
102
{ACAD_REACTORS
330
11D
102
}
100
AcDbXrecord
 10
0.0
 20
0.0
 30
0.0
  0
XRECORD
  5
138
102
{ACAD_REACTORS
330
11D
102
}
100
AcDbXrecord
 10
0.0
 20
0.0
 30
0.0
  0
XRECORD
  5
135
102
{ACAD_REACTORS
330
11D
102
}
100
AcDbXrecord
340
0
  0
XRECORD
  5
136
102
{ACAD_REACTORS
330
11D
102
}
100
AcDbXrecord
 70
     0
  0
XRECORD
  5
129
102
{ACAD_REACTORS
330
11D
102
}
100
AcDbXrecord
  1
{F5D44C6B-50ED-11D5-BBCF-006097BB053F}
  0
XRECORD
  5
141
102
{ACAD_REACTORS
330
140
102
}
100
AcDbXrecord
102
EXTNAMES
  1
LAYOUT2
  2
Layout2
  1
MODEL
  2
Model
  0
ENDSEC
  0
EOF
