  0
SECTION
  2
HEADER
  9
$ACADVER
  1
AC1014
  9
$ACADMAINTVER
 70
     0
  9
$DWGCODEPAGE
  3
ANSI_1250
  9
$INSBASE
 10
0.0
 20
0.0
 30
0.0
  9
$EXTMIN
 10
-0.604163
 20
-345.41544
 30
-0.001526
  9
$EXTMAX
 10
1350.027541
 20
0.382088
 30
0.0
  9
$LIMMIN
 10
-1000.0
 20
-1000.0
  9
$LIMMAX
 10
1000.0
 20
1000.0
  9
$ORTHOMODE
 70
     0
  9
$REGENMODE
 70
     1
  9
$FILLMODE
 70
     1
  9
$QTEXTMODE
 70
     0
  9
$MIRRTEXT
 70
     0
  9
$DRAGMODE
 70
     2
  9
$LTSCALE
 40
3.0
  9
$OSMODE
 70
    32
  9
$ATTMODE
 70
     1
  9
$TEXTSIZE
 40
50.0
  9
$TRACEWID
 40
0.05
  9
$TEXTSTYLE
  7
STANDARD
  9
$CLAYER
  8
KOTY-UPLNE
  9
$CELTYPE
  6
BYLAYER
  9
$CECOLOR
 62
   256
  9
$CELTSCALE
 40
1.0
  9
$DELOBJ
 70
     1
  9
$DISPSILH
 70
     0
  9
$DIMSCALE
 40
3.0
  9
$DIMASZ
 40
5.0
  9
$DIMEXO
 40
1.0
  9
$DIMDLI
 40
0.0
  9
$DIMRND
 40
1.0
  9
$DIMDLE
 40
1.0
  9
$DIMEXE
 40
2.0
  9
$DIMTP
 40
0.0
  9
$DIMTM
 40
0.0
  9
$DIMTXT
 40
6.44
  9
$DIMCEN
 40
1.0
  9
$DIMTSZ
 40
0.0
  9
$DIMTOL
 70
     0
  9
$DIMLIM
 70
     0
  9
$DIMTIH
 70
     0
  9
$DIMTOH
 70
     0
  9
$DIMSE1
 70
     0
  9
$DIMSE2
 70
     0
  9
$DIMTAD
 70
     3
  9
$DIMZIN
 70
     0
  9
$DIMBLK
  1

  9
$DIMASO
 70
     1
  9
$DIMSHO
 70
     0
  9
$DIMPOST
  1

  9
$DIMAPOST
  1

  9
$DIMALT
 70
     0
  9
$DIMALTD
 70
     2
  9
$DIMALTF
 40
25.4
  9
$DIMLFAC
 40
1.0
  9
$DIMTOFL
 70
     1
  9
$DIMTVP
 40
0.0
  9
$DIMTIX
 70
     1
  9
$DIMSOXD
 70
     0
  9
$DIMSAH
 70
     0
  9
$DIMBLK1
  1

  9
$DIMBLK2
  1

  9
$DIMSTYLE
  2
UPLNE
  9
$DIMCLRD
 70
   256
  9
$DIMCLRE
 70
   256
  9
$DIMCLRT
 70
     5
  9
$DIMTFAC
 40
1.0
  9
$DIMGAP
 40
2.0
  9
$DIMJUST
 70
     0
  9
$DIMSD1
 70
     0
  9
$DIMSD2
 70
     0
  9
$DIMTOLJ
 70
     1
  9
$DIMTZIN
 70
     0
  9
$DIMALTZ
 70
     0
  9
$DIMALTTZ
 70
     0
  9
$DIMFIT
 70
     5
  9
$DIMUPT
 70
     0
  9
$DIMUNIT
 70
     2
  9
$DIMDEC
 70
     0
  9
$DIMTDEC
 70
     0
  9
$DIMALTU
 70
     2
  9
$DIMALTTD
 70
     2
  9
$DIMTXSTY
  7
STANDARD
  9
$DIMAUNIT
 70
     0
  9
$LUNITS
 70
     2
  9
$LUPREC
 70
     2
  9
$SKETCHINC
 40
0.1
  9
$FILLETRAD
 40
5.0
  9
$AUNITS
 70
     0
  9
$AUPREC
 70
     2
  9
$MENU
  1
acad
  9
$ELEVATION
 40
0.0
  9
$PELEVATION
 40
0.0
  9
$THICKNESS
 40
0.0
  9
$LIMCHECK
 70
     0
  9
$BLIPMODE
 70
     1
  9
$CHAMFERA
 40
0.0
  9
$CHAMFERB
 40
0.0
  9
$CHAMFERC
 40
0.0
  9
$CHAMFERD
 40
0.0
  9
$SKPOLY
 70
     0
  9
$TDCREATE
 40
2448722.252204629
  9
$TDUPDATE
 40
2452465.882968518
  9
$TDINDWG
 40
2.5466464120
  9
$TDUSRTIMER
 40
2.5466464120
  9
$USRTIMER
 70
     1
  9
$ANGBASE
 50
0.0
  9
$ANGDIR
 70
     0
  9
$PDMODE
 70
     0
  9
$PDSIZE
 40
0.0
  9
$PLINEWID
 40
0.0
  9
$COORDS
 70
     2
  9
$SPLFRAME
 70
     0
  9
$SPLINETYPE
 70
     6
  9
$SPLINESEGS
 70
     8
  9
$ATTDIA
 70
     0
  9
$ATTREQ
 70
     1
  9
$HANDLING
 70
     1
  9
$HANDSEED
  5
61
  9
$SURFTAB1
 70
     6
  9
$SURFTAB2
 70
     6
  9
$SURFTYPE
 70
     6
  9
$SURFU
 70
     6
  9
$SURFV
 70
     6
  9
$UCSNAME
  2

  9
$UCSORG
 10
0.0
 20
0.0
 30
0.0
  9
$UCSXDIR
 10
1.0
 20
0.0
 30
0.0
  9
$UCSYDIR
 10
0.0
 20
1.0
 30
0.0
  9
$PUCSNAME
  2

  9
$PUCSORG
 10
0.0
 20
0.0
 30
0.0
  9
$PUCSXDIR
 10
1.0
 20
0.0
 30
0.0
  9
$PUCSYDIR
 10
0.0
 20
1.0
 30
0.0
  9
$USERI1
 70
     1
  9
$USERI2
 70
     0
  9
$USERI3
 70
     0
  9
$USERI4
 70
     0
  9
$USERI5
 70
     0
  9
$USERR1
 40
0.0
  9
$USERR2
 40
0.0
  9
$USERR3
 40
0.0
  9
$USERR4
 40
0.0
  9
$USERR5
 40
0.0
  9
$WORLDVIEW
 70
     1
  9
$SHADEDGE
 70
     3
  9
$SHADEDIF
 70
    70
  9
$TILEMODE
 70
     1
  9
$MAXACTVP
 70
    16
  9
$PINSBASE
 10
0.0
 20
0.0
 30
0.0
  9
$PLIMCHECK
 70
     0
  9
$PEXTMIN
 10
1.000000E+20
 20
1.000000E+20
 30
1.000000E+20
  9
$PEXTMAX
 10
-1.000000E+20
 20
-1.000000E+20
 30
-1.000000E+20
  9
$PLIMMIN
 10
0.0
 20
0.0
  9
$PLIMMAX
 10
12.0
 20
9.0
  9
$UNITMODE
 70
     0
  9
$VISRETAIN
 70
     0
  9
$PLINEGEN
 70
     0
  9
$PSLTSCALE
 70
     0
  9
$TREEDEPTH
 70
  3020
  9
$PICKSTYLE
 70
     0
  9
$CMLSTYLE
  2
STANDARD
  9
$CMLJUST
 70
     0
  9
$CMLSCALE
 40
1.0
  9
$PROXYGRAPHICS
 70
     1
  9
$MEASUREMENT
 70
     0
  0
ENDSEC
  0
SECTION
  2
CLASSES
  0
CLASS
  1
LWPOLYLINE
  2
AcDbPolyline
  3
"AutoCAD"
 90
        0
280
     0
281
     1
  0
CLASS
  1
DICTIONARYVAR
  2
AcDbDictionaryVar
  3
"AutoCAD"
 90
        0
280
     0
281
     0
  0
ENDSEC
  0
SECTION
  2
TABLES
  0
TABLE
  2
VPORT
  5
12
100
AcDbSymbolTable
 70
     3
  0
VPORT
  5
60
100
AcDbSymbolTableRecord
100
AcDbViewportTableRecord
  2
*ACTIVE
 70
     0
 10
0.0
 20
0.0
 11
1.0
 21
1.0
 12
679.918284
 22
-176.206247
 13
0.0
 23
0.0
 14
1.0
 24
1.0
 15
600.0
 25
600.0
 16
0.0
 26
0.0
 36
1.0
 17
0.0
 27
0.0
 37
0.0
 40
669.591111
 41
2.224444
 42
50.0
 43
0.0
 44
0.0
 50
0.0
 51
0.0
 71
     0
 72
   100
 73
     1
 74
     0
 75
     0
 76
     0
 77
     0
 78
     0
  0
ENDTAB
  0
TABLE
  2
LTYPE
  5
D
100
AcDbSymbolTable
 70
     1
  0
LTYPE
  5
E
100
AcDbSymbolTableRecord
100
AcDbLinetypeTableRecord
  2
BYBLOCK
 70
     0
  3

 72
    65
 73
     0
 40
0.0
  0
LTYPE
  5
F
100
AcDbSymbolTableRecord
100
AcDbLinetypeTableRecord
  2
BYLAYER
 70
     0
  3

 72
    65
 73
     0
 40
0.0
  0
LTYPE
  5
5
100
AcDbSymbolTableRecord
100
AcDbLinetypeTableRecord
  2
CONTINUOUS
 70
     0
  3
Solid line
 72
    65
 73
     0
 40
0.0
  0
ENDTAB
  0
TABLE
  2
LAYER
  5
A
100
AcDbSymbolTable
 70
     6
  0
LAYER
  5
4
100
AcDbSymbolTableRecord
100
AcDbLayerTableRecord
  2
0
 70
     0
 62
     7
  6
CONTINUOUS
  0
LAYER
  5
1B
100
AcDbSymbolTableRecord
100
AcDbLayerTableRecord
  2
KOTY-UPLNE
 70
     0
 62
     7
  6
CONTINUOUS
  0
LAYER
  5
3C
100
AcDbSymbolTableRecord
100
AcDbLayerTableRecord
  2
RAMEC
 70
     0
 62
     5
  6
CONTINUOUS
  0
LAYER
  5
4B
100
AcDbSymbolTableRecord
100
AcDbLayerTableRecord
  2
POPIS
 70
     0
 62
     1
  6
CONTINUOUS
  0
LAYER
  5
27
100
AcDbSymbolTableRecord
100
AcDbLayerTableRecord
  2
DEFPOINTS
 70
     0
 62
     7
  6
CONTINUOUS
  0
LAYER
  5
3A
100
AcDbSymbolTableRecord
100
AcDbLayerTableRecord
  2
TRAPEZ-VELKY
 70
     0
 62
     7
  6
CONTINUOUS
  0
ENDTAB
  0
TABLE
  2
STYLE
  5
B
100
AcDbSymbolTable
 70
     2
  0
STYLE
  5
C
100
AcDbSymbolTableRecord
100
AcDbTextStyleTableRecord
  2
STANDARD
 70
     0
 40
0.0
 41
0.9
 50
0.0
 71
     0
 42
50.0
  3
simplex.shx
  4

  0
STYLE
  5
4C
100
AcDbSymbolTableRecord
100
AcDbTextStyleTableRecord
  2
STYLE1
 70
     0
 40
0.0
 41
0.9
 50
0.0
 71
     0
 42
50.0
  3
simplex.shx
  4

  0
ENDTAB
  0
TABLE
  2
VIEW
  5
10
100
AcDbSymbolTable
 70
     0
  0
ENDTAB
  0
TABLE
  2
UCS
  5
11
100
AcDbSymbolTable
 70
     0
  0
ENDTAB
  0
TABLE
  2
APPID
  5
14
100
AcDbSymbolTable
 70
     1
  0
APPID
  5
15
100
AcDbSymbolTableRecord
100
AcDbRegAppTableRecord
  2
ACAD
 70
     0
  0
ENDTAB
  0
TABLE
  2
DIMSTYLE
  5
16
100
AcDbSymbolTable
 70
     1
  0
DIMSTYLE
105
1D
102
{ACAD_REACTORS
330
4D
330
3D
330
2C
330
1E
102
}
100
AcDbSymbolTableRecord
100
AcDbDimStyleTableRecord
  2
UPLNE
 70
     0
  3

  4

  5

  6

  7

 40
5.0
 41
5.0
 42
1.0
 43
0.0
 44
2.0
 45
1.0
 46
1.0
 47
0.0
 48
0.0
140
6.44
141
1.0
142
0.0
143
25.4
144
1.0
145
0.0
146
1.0
147
1.0
 71
     0
 72
     0
 73
     0
 74
     0
 75
     0
 76
     0
 77
     3
 78
     0
170
     0
171
     2
172
     1
173
     0
174
     1
175
     0
176
   256
177
   256
178
     5
270
     2
271
     0
272
     0
273
     2
274
     2
340
C
275
     0
280
     0
281
     0
282
     0
283
     1
284
     0
285
     0
286
     0
287
     5
288
     0
  0
ENDTAB
  0
TABLE
  2
BLOCK_RECORD
  5
1
100
AcDbSymbolTable
 70
     4
  0
BLOCK_RECORD
  5
2
100
AcDbSymbolTableRecord
100
AcDbBlockTableRecord
  2
*MODEL_SPACE
  0
BLOCK_RECORD
  5
7
100
AcDbSymbolTableRecord
100
AcDbBlockTableRecord
  2
*PAPER_SPACE
  0
BLOCK_RECORD
  5
4E
100
AcDbSymbolTableRecord
100
AcDbBlockTableRecord
  2
*D0
  0
BLOCK_RECORD
  5
3E
100
AcDbSymbolTableRecord
100
AcDbBlockTableRecord
  2
*D1
  0
BLOCK_RECORD
  5
2D
100
AcDbSymbolTableRecord
100
AcDbBlockTableRecord
  2
*D2
  0
BLOCK_RECORD
  5
1F
100
AcDbSymbolTableRecord
100
AcDbBlockTableRecord
  2
*D3
  0
ENDTAB
  0
ENDSEC
  0
SECTION
  2
BLOCKS
  0
BLOCK
  5
3
100
AcDbEntity
  8
0
100
AcDbBlockBegin
  2
*MODEL_SPACE
 70
     0
 10
0.0
 20
0.0
 30
0.0
  3
*MODEL_SPACE
  1

  0
ENDBLK
  5
6
100
AcDbEntity
  8
0
100
AcDbBlockEnd
  0
BLOCK
  5
8
100
AcDbEntity
 67
     1
  8
0
100
AcDbBlockBegin
  2
*PAPER_SPACE
 70
     0
 10
0.0
 20
0.0
 30
0.0
  3
*PAPER_SPACE
  1

  0
ENDBLK
  5
9
100
AcDbEntity
 67
     1
  8
0
100
AcDbBlockEnd
  0
BLOCK
  5
5A
100
AcDbEntity
  8
0
100
AcDbBlockBegin
  2
*D0
 70
     1
 10
0.0
 20
0.0
 30
0.0
  3
*D0
  1

  0
LINE
  5
4F
100
AcDbEntity
  8
0
  6
BYBLOCK
100
AcDbLine
 10
-836.817313
 20
1739.457726
 30
0.0
 11
-767.241502
 21
1739.457726
 31
0.0
  0
LINE
  5
50
100
AcDbEntity
  8
0
  6
BYBLOCK
100
AcDbLine
 10
-874.817313
 20
1721.457726
 30
0.0
 11
-767.241502
 21
1721.457726
 31
0.0
  0
LINE
  5
51
100
AcDbEntity
  8
0
  6
BYBLOCK
100
AcDbLine
 10
-773.241502
 20
1754.457726
 30
0.0
 11
-773.241502
 21
1769.457726
 31
0.0
  0
LINE
  5
52
100
AcDbEntity
  8
0
  6
BYBLOCK
100
AcDbLine
 10
-773.241502
 20
1706.457726
 30
0.0
 11
-773.241502
 21
1691.457726
 31
0.0
  0
LINE
  5
53
100
AcDbEntity
  8
0
  6
BYBLOCK
100
AcDbLine
 10
-773.241502
 20
1739.457726
 30
0.0
 11
-773.241502
 21
1721.457726
 31
0.0
  0
SOLID
  5
54
100
AcDbEntity
  8
0
  6
BYBLOCK
100
AcDbTrace
 10
-775.741502
 20
1754.457726
 30
0.0
 11
-770.741502
 21
1754.457726
 31
0.0
 12
-773.241502
 22
1739.457726
 32
0.0
 13
-773.241502
 23
1739.457726
 33
0.0
  0
SOLID
  5
55
100
AcDbEntity
  8
0
  6
BYBLOCK
100
AcDbTrace
 10
-775.741502
 20
1706.457726
 30
0.0
 11
-770.741502
 21
1706.457726
 31
0.0
 12
-773.241502
 22
1721.457726
 32
0.0
 13
-773.241502
 23
1721.457726
 33
0.0
  0
MTEXT
  5
56
100
AcDbEntity
  8
0
  6
BYBLOCK
 62
     5
100
AcDbMText
 10
-788.901502
 20
1730.457726
 30
0.0
 40
19.32
 41
0.0
 71
     5
 72
     1
  1
\A1;18
 11
0.0
 21
1.0
 31
0.0
  0
POINT
  5
57
100
AcDbEntity
  8
DEFPOINTS
  6
BYBLOCK
 62
     0
100
AcDbPoint
 10
-839.817313
 20
1739.457726
 30
0.0
  0
POINT
  5
58
100
AcDbEntity
  8
DEFPOINTS
  6
BYBLOCK
 62
     0
100
AcDbPoint
 10
-877.817313
 20
1721.457726
 30
0.0
  0
POINT
  5
59
100
AcDbEntity
  8
DEFPOINTS
  6
BYBLOCK
 62
     0
100
AcDbPoint
 10
-773.241502
 20
1721.457726
 30
0.0
  0
ENDBLK
  5
5B
100
AcDbEntity
  8
0
100
AcDbBlockEnd
  0
BLOCK
  5
48
100
AcDbEntity
  8
0
100
AcDbBlockBegin
  2
*D1
 70
     1
 10
0.0
 20
0.0
 30
0.0
  3
*D1
  1

  0
LINE
  5
3F
100
AcDbEntity
  8
0
  6
BYBLOCK
100
AcDbLine
 10
-1903.817313
 20
1736.457726
 30
0.0
 11
-1903.817313
 21
1650.457726
 31
0.0
  0
LINE
  5
40
100
AcDbEntity
  8
0
  6
BYBLOCK
100
AcDbLine
 10
-1827.817313
 20
1736.457726
 30
0.0
 11
-1827.817313
 21
1650.457726
 31
0.0
  0
LINE
  5
41
100
AcDbEntity
  8
0
  6
BYBLOCK
100
AcDbLine
 10
-1888.817313
 20
1656.457726
 30
0.0
 11
-1842.817313
 21
1656.457726
 31
0.0
  0
SOLID
  5
42
100
AcDbEntity
  8
0
  6
BYBLOCK
100
AcDbTrace
 10
-1888.817313
 20
1658.957726
 30
0.0
 11
-1888.817313
 21
1653.957726
 31
0.0
 12
-1903.817313
 22
1656.457726
 32
0.0
 13
-1903.817313
 23
1656.457726
 33
0.0
  0
SOLID
  5
43
100
AcDbEntity
  8
0
  6
BYBLOCK
100
AcDbTrace
 10
-1842.817313
 20
1658.957726
 30
0.0
 11
-1842.817313
 21
1653.957726
 31
0.0
 12
-1827.817313
 22
1656.457726
 32
0.0
 13
-1827.817313
 23
1656.457726
 33
0.0
  0
MTEXT
  5
44
100
AcDbEntity
  8
0
  6
BYBLOCK
 62
     5
100
AcDbMText
 10
-1865.817313
 20
1672.117726
 30
0.0
 40
19.32
 41
0.0
 71
     5
 72
     1
  1
\A1;76
  0
POINT
  5
45
100
AcDbEntity
  8
DEFPOINTS
  6
BYBLOCK
 62
     0
100
AcDbPoint
 10
-1903.817313
 20
1739.457726
 30
0.0
  0
POINT
  5
46
100
AcDbEntity
  8
DEFPOINTS
  6
BYBLOCK
 62
     0
100
AcDbPoint
 10
-1827.817313
 20
1739.457726
 30
0.0
  0
POINT
  5
47
100
AcDbEntity
  8
DEFPOINTS
  6
BYBLOCK
 62
     0
100
AcDbPoint
 10
-1827.817313
 20
1656.457726
 30
0.0
  0
ENDBLK
  5
49
100
AcDbEntity
  8
0
100
AcDbBlockEnd
  0
BLOCK
  5
37
100
AcDbEntity
  8
0
100
AcDbBlockBegin
  2
*D2
 70
     1
 10
0.0
 20
0.0
 30
0.0
  3
*D2
  1

  0
LINE
  5
2E
100
AcDbEntity
  8
0
  6
BYBLOCK
100
AcDbLine
 10
-1903.817313
 20
1736.457726
 30
0.0
 11
-1903.817313
 21
1595.457726
 31
0.0
  0
LINE
  5
2F
100
AcDbEntity
  8
0
  6
BYBLOCK
100
AcDbLine
 10
-915.817313
 20
1736.457726
 30
0.0
 11
-915.817313
 21
1595.457726
 31
0.0
  0
LINE
  5
30
100
AcDbEntity
  8
0
  6
BYBLOCK
100
AcDbLine
 10
-1888.817313
 20
1601.457726
 30
0.0
 11
-930.817313
 21
1601.457726
 31
0.0
  0
SOLID
  5
31
100
AcDbEntity
  8
0
  6
BYBLOCK
100
AcDbTrace
 10
-1888.817313
 20
1603.957726
 30
0.0
 11
-1888.817313
 21
1598.957726
 31
0.0
 12
-1903.817313
 22
1601.457726
 32
0.0
 13
-1903.817313
 23
1601.457726
 33
0.0
  0
SOLID
  5
32
100
AcDbEntity
  8
0
  6
BYBLOCK
100
AcDbTrace
 10
-930.817313
 20
1603.957726
 30
0.0
 11
-930.817313
 21
1598.957726
 31
0.0
 12
-915.817313
 22
1601.457726
 32
0.0
 13
-915.817313
 23
1601.457726
 33
0.0
  0
MTEXT
  5
33
100
AcDbEntity
  8
0
  6
BYBLOCK
 62
     5
100
AcDbMText
 10
-1409.817313
 20
1617.117726
 30
0.0
 40
19.32
 41
0.0
 71
     5
 72
     1
  1
\A1;988
  0
POINT
  5
34
100
AcDbEntity
  8
DEFPOINTS
  6
BYBLOCK
 62
     0
100
AcDbPoint
 10
-1903.817313
 20
1739.457726
 30
0.0
  0
POINT
  5
35
100
AcDbEntity
  8
DEFPOINTS
  6
BYBLOCK
 62
     0
100
AcDbPoint
 10
-915.817313
 20
1739.457726
 30
0.0
  0
POINT
  5
36
100
AcDbEntity
  8
DEFPOINTS
  6
BYBLOCK
 62
     0
100
AcDbPoint
 10
-915.817313
 20
1601.457726
 30
0.0
  0
ENDBLK
  5
38
100
AcDbEntity
  8
0
100
AcDbBlockEnd
  0
BLOCK
  5
2A
100
AcDbEntity
  8
0
100
AcDbBlockBegin
  2
*D3
 70
     1
 10
0.0
 20
0.0
 30
0.0
  3
*D3
  1

  0
LINE
  5
20
100
AcDbEntity
  8
0
  6
BYBLOCK
100
AcDbLine
 10
-839.817313
 20
1736.457726
 30
0.0
 11
-839.817313
 21
1535.457726
 31
0.0
  0
LINE
  5
21
100
AcDbEntity
  8
0
  6
BYBLOCK
100
AcDbLine
 10
-1903.817313
 20
1736.457726
 30
0.0
 11
-1903.817313
 21
1535.457726
 31
0.0
  0
LINE
  5
22
100
AcDbEntity
  8
0
  6
BYBLOCK
100
AcDbLine
 10
-854.817313
 20
1541.457726
 30
0.0
 11
-1888.817313
 21
1541.457726
 31
0.0
  0
SOLID
  5
23
100
AcDbEntity
  8
0
  6
BYBLOCK
100
AcDbTrace
 10
-854.817313
 20
1543.957726
 30
0.0
 11
-854.817313
 21
1538.957726
 31
0.0
 12
-839.817313
 22
1541.457726
 32
0.0
 13
-839.817313
 23
1541.457726
 33
0.0
  0
SOLID
  5
24
100
AcDbEntity
  8
0
  6
BYBLOCK
100
AcDbTrace
 10
-1888.817313
 20
1543.957726
 30
0.0
 11
-1888.817313
 21
1538.957726
 31
0.0
 12
-1903.817313
 22
1541.457726
 32
0.0
 13
-1903.817313
 23
1541.457726
 33
0.0
  0
MTEXT
  5
25
100
AcDbEntity
  8
0
  6
BYBLOCK
 62
     5
100
AcDbMText
 10
-1371.817313
 20
1557.117726
 30
0.0
 40
19.32
 41
0.0
 71
     5
 72
     1
  1
\A1;1064
  0
POINT
  5
26
100
AcDbEntity
  8
DEFPOINTS
  6
BYBLOCK
 62
     0
100
AcDbPoint
 10
-839.817313
 20
1739.457726
 30
0.0
  0
POINT
  5
28
100
AcDbEntity
  8
DEFPOINTS
  6
BYBLOCK
 62
     0
100
AcDbPoint
 10
-1903.817313
 20
1739.457726
 30
0.0
  0
POINT
  5
29
100
AcDbEntity
  8
DEFPOINTS
  6
BYBLOCK
 62
     0
100
AcDbPoint
 10
-1903.817313
 20
1541.457726
 30
0.0
  0
ENDBLK
  5
2B
100
AcDbEntity
  8
0
100
AcDbBlockEnd
  0
ENDSEC
  0
SECTION
  2
ENTITIES
  0
DIMENSION
  5
1E
100
AcDbEntity
  8
KOTY-UPLNE
100
AcDbDimension
  2
*D3
 10
152.855297
 20
-295.884928
 30
0.0
 11
684.855297
 21
-280.224928
 31
0.0
 12
2056.67261
 22
-1837.342654
 32
0.0
  3
UPLNE
100
AcDbAlignedDimension
 13
1216.855297
 23
-97.884928
 33
0.0
 14
152.855297
 24
-97.884928
 34
0.0
100
AcDbRotatedDimension
1001
ACAD
1000
DSTYLE
1002
{
1070
    40
1040
3.0
1070
   147
1040
2.0
1002
}
  0
DIMENSION
  5
2C
100
AcDbEntity
  8
KOTY-UPLNE
100
AcDbDimension
  2
*D2
 10
1140.855297
 20
-235.884928
 30
0.0
 11
646.855297
 21
-220.224928
 31
0.0
 12
2056.67261
 22
-1837.342654
 32
0.0
  3
UPLNE
100
AcDbAlignedDimension
 13
152.855297
 23
-97.884928
 33
0.0
 14
1140.855297
 24
-97.884928
 34
0.0
100
AcDbRotatedDimension
1001
ACAD
1000
DSTYLE
1002
{
1070
    40
1040
3.0
1070
   147
1040
2.0
1002
}
  0
LWPOLYLINE
  5
39
100
AcDbEntity
  8
TRAPEZ-VELKY
100
AcDbPolyline
 90
      573
 70
     0
 43
5.0
 10
142.614738
 20
-100.939537
 10
143.355297
 20
-100.520967
 10
145.255297
 20
-99.603775
 10
147.155297
 20
-98.865869
 10
149.055297
 20
-98.325419
 10
150.955297
 20
-97.995733
 10
152.855297
 20
-97.884928
 10
154.755297
 20
-97.995733
 10
156.655297
 20
-98.325419
 10
158.555297
 20
-98.865869
 10
160.455297
 20
-99.603775
 10
162.355297
 20
-100.520967
 10
164.255297
 20
-101.594861
 10
166.155297
 20
-102.799014
 10
168.055297
 20
-104.103775
 10
169.955297
 20
-105.477018
 10
171.855297
 20
-106.884928
 10
173.755297
 20
-108.292838
 10
175.655297
 20
-109.666081
 10
177.555297
 20
-110.970843
 10
179.455297
 20
-112.174995
 10
181.355297
 20
-113.248889
 10
183.255297
 20
-114.166081
 10
185.155297
 20
-114.903987
 10
187.055297
 20
-115.444437
 10
188.955297
 20
-115.774123
 10
190.855297
 20
-115.884928
 10
192.755297
 20
-115.774123
 10
194.655297
 20
-115.444437
 10
196.555297
 20
-114.903987
 10
198.455297
 20
-114.166081
 10
200.355297
 20
-113.248889
 10
202.255297
 20
-112.174995
 10
204.155297
 20
-110.970843
 10
206.055297
 20
-109.666081
 10
207.955297
 20
-108.292838
 10
209.855297
 20
-106.884928
 10
211.755297
 20
-105.477018
 10
213.655297
 20
-104.103775
 10
215.555297
 20
-102.799014
 10
217.455297
 20
-101.594861
 10
219.355297
 20
-100.520967
 10
221.255297
 20
-99.603775
 10
223.155297
 20
-98.865869
 10
225.055297
 20
-98.325419
 10
226.955297
 20
-97.995733
 10
228.855297
 20
-97.884928
 10
230.755297
 20
-97.995733
 10
232.655297
 20
-98.325419
 10
234.555297
 20
-98.865869
 10
236.455297
 20
-99.603775
 10
238.355297
 20
-100.520967
 10
240.255297
 20
-101.594861
 10
242.155297
 20
-102.799014
 10
244.055297
 20
-104.103775
 10
245.955297
 20
-105.477018
 10
247.855297
 20
-106.884928
 10
249.755297
 20
-108.292838
 10
251.655297
 20
-109.666081
 10
253.555297
 20
-110.970843
 10
255.455297
 20
-112.174995
 10
257.355297
 20
-113.248889
 10
259.255297
 20
-114.166081
 10
261.155297
 20
-114.903987
 10
263.055297
 20
-115.444437
 10
264.955297
 20
-115.774123
 10
266.855297
 20
-115.884928
 10
268.755297
 20
-115.774123
 10
270.655297
 20
-115.444437
 10
272.555297
 20
-114.903987
 10
274.455297
 20
-114.166081
 10
276.355297
 20
-113.248889
 10
278.255297
 20
-112.174995
 10
280.155297
 20
-110.970843
 10
282.055297
 20
-109.666081
 10
283.955297
 20
-108.292838
 10
285.855297
 20
-106.884928
 10
287.755297
 20
-105.477018
 10
289.655297
 20
-104.103775
 10
291.555297
 20
-102.799014
 10
293.455297
 20
-101.594861
 10
295.355297
 20
-100.520967
 10
297.255297
 20
-99.603775
 10
299.155297
 20
-98.865869
 10
301.055297
 20
-98.325419
 10
302.955297
 20
-97.995733
 10
304.855297
 20
-97.884928
 10
306.755297
 20
-97.995733
 10
308.655297
 20
-98.325419
 10
310.555297
 20
-98.865869
 10
312.455297
 20
-99.603775
 10
314.355297
 20
-100.520967
 10
316.255297
 20
-101.594861
 10
318.155297
 20
-102.799014
 10
320.055297
 20
-104.103775
 10
321.955297
 20
-105.477018
 10
323.855297
 20
-106.884928
 10
325.755297
 20
-108.292838
 10
327.655297
 20
-109.666081
 10
329.555297
 20
-110.970843
 10
331.455297
 20
-112.174995
 10
333.355297
 20
-113.248889
 10
335.255297
 20
-114.166081
 10
337.155297
 20
-114.903987
 10
339.055297
 20
-115.444437
 10
340.955297
 20
-115.774123
 10
342.855297
 20
-115.884928
 10
344.755297
 20
-115.774123
 10
346.655297
 20
-115.444437
 10
348.555297
 20
-114.903987
 10
350.455297
 20
-114.166081
 10
352.355297
 20
-113.248889
 10
354.255297
 20
-112.174995
 10
356.155297
 20
-110.970843
 10
358.055297
 20
-109.666081
 10
359.955297
 20
-108.292838
 10
361.855297
 20
-106.884928
 10
363.755297
 20
-105.477018
 10
365.655297
 20
-104.103775
 10
367.555297
 20
-102.799014
 10
369.455297
 20
-101.594861
 10
371.355297
 20
-100.520967
 10
373.255297
 20
-99.603775
 10
375.155297
 20
-98.865869
 10
377.055297
 20
-98.325419
 10
378.955297
 20
-97.995733
 10
380.855297
 20
-97.884928
 10
382.755297
 20
-97.995733
 10
384.655297
 20
-98.325419
 10
386.555297
 20
-98.865869
 10
388.455297
 20
-99.603775
 10
390.355297
 20
-100.520967
 10
392.255297
 20
-101.594861
 10
394.155297
 20
-102.799014
 10
396.055297
 20
-104.103775
 10
397.955297
 20
-105.477018
 10
399.855297
 20
-106.884928
 10
401.755297
 20
-108.292838
 10
403.655297
 20
-109.666081
 10
405.555297
 20
-110.970843
 10
407.455297
 20
-112.174995
 10
409.355297
 20
-113.248889
 10
411.255297
 20
-114.166081
 10
413.155297
 20
-114.903987
 10
415.055297
 20
-115.444437
 10
416.955297
 20
-115.774123
 10
418.855297
 20
-115.884928
 10
420.755297
 20
-115.774123
 10
422.655297
 20
-115.444437
 10
424.555297
 20
-114.903987
 10
426.455297
 20
-114.166081
 10
428.355297
 20
-113.248889
 10
430.255297
 20
-112.174995
 10
432.155297
 20
-110.970843
 10
434.055297
 20
-109.666081
 10
435.955297
 20
-108.292838
 10
437.855297
 20
-106.884928
 10
439.755297
 20
-105.477018
 10
441.655297
 20
-104.103775
 10
443.555297
 20
-102.799014
 10
445.455297
 20
-101.594861
 10
447.355297
 20
-100.520967
 10
449.255297
 20
-99.603775
 10
451.155297
 20
-98.865869
 10
453.055297
 20
-98.325419
 10
454.955297
 20
-97.995733
 10
456.855297
 20
-97.884928
 10
458.755297
 20
-97.995733
 10
460.655297
 20
-98.325419
 10
462.555297
 20
-98.865869
 10
464.455297
 20
-99.603775
 10
466.355297
 20
-100.520967
 10
468.255297
 20
-101.594861
 10
470.155297
 20
-102.799014
 10
472.055297
 20
-104.103775
 10
473.955297
 20
-105.477018
 10
475.855297
 20
-106.884928
 10
477.755297
 20
-108.292838
 10
479.655297
 20
-109.666081
 10
481.555297
 20
-110.970843
 10
483.455297
 20
-112.174995
 10
485.355297
 20
-113.248889
 10
487.255297
 20
-114.166081
 10
489.155297
 20
-114.903987
 10
491.055297
 20
-115.444437
 10
492.955297
 20
-115.774123
 10
494.855297
 20
-115.884928
 10
496.755297
 20
-115.774123
 10
498.655297
 20
-115.444437
 10
500.555297
 20
-114.903987
 10
502.455297
 20
-114.166081
 10
504.355297
 20
-113.248889
 10
506.255297
 20
-112.174995
 10
508.155297
 20
-110.970843
 10
510.055297
 20
-109.666081
 10
511.955297
 20
-108.292838
 10
513.855297
 20
-106.884928
 10
515.755297
 20
-105.477018
 10
517.655297
 20
-104.103775
 10
519.555297
 20
-102.799014
 10
521.455297
 20
-101.594861
 10
523.355297
 20
-100.520967
 10
525.255297
 20
-99.603775
 10
527.155297
 20
-98.865869
 10
529.055297
 20
-98.325419
 10
530.955297
 20
-97.995733
 10
532.855297
 20
-97.884928
 10
534.755297
 20
-97.995733
 10
536.655297
 20
-98.325419
 10
538.555297
 20
-98.865869
 10
540.455297
 20
-99.603775
 10
542.355297
 20
-100.520967
 10
544.255297
 20
-101.594861
 10
546.155297
 20
-102.799014
 10
548.055297
 20
-104.103775
 10
549.955297
 20
-105.477018
 10
551.855297
 20
-106.884928
 10
553.755297
 20
-108.292838
 10
555.655297
 20
-109.666081
 10
557.555297
 20
-110.970843
 10
559.455297
 20
-112.174995
 10
561.355297
 20
-113.248889
 10
563.255297
 20
-114.166081
 10
565.155297
 20
-114.903987
 10
567.055297
 20
-115.444437
 10
568.955297
 20
-115.774123
 10
570.855297
 20
-115.884928
 10
572.755297
 20
-115.774123
 10
574.655297
 20
-115.444437
 10
576.555297
 20
-114.903987
 10
578.455297
 20
-114.166081
 10
580.355297
 20
-113.248889
 10
582.255297
 20
-112.174995
 10
584.155297
 20
-110.970843
 10
586.055297
 20
-109.666081
 10
587.955297
 20
-108.292838
 10
589.855297
 20
-106.884928
 10
591.755297
 20
-105.477018
 10
593.655297
 20
-104.103775
 10
595.555297
 20
-102.799014
 10
597.455297
 20
-101.594861
 10
599.355297
 20
-100.520967
 10
601.255297
 20
-99.603775
 10
603.155297
 20
-98.865869
 10
605.055297
 20
-98.325419
 10
606.955297
 20
-97.995733
 10
608.855297
 20
-97.884928
 10
610.755297
 20
-97.995733
 10
612.655297
 20
-98.325419
 10
614.555297
 20
-98.865869
 10
616.455297
 20
-99.603775
 10
618.355297
 20
-100.520967
 10
620.255297
 20
-101.594861
 10
622.155297
 20
-102.799014
 10
624.055297
 20
-104.103775
 10
625.955297
 20
-105.477018
 10
627.855297
 20
-106.884928
 10
629.755297
 20
-108.292838
 10
631.655297
 20
-109.666081
 10
633.555297
 20
-110.970843
 10
635.455297
 20
-112.174995
 10
637.355297
 20
-113.248889
 10
639.255297
 20
-114.166081
 10
641.155297
 20
-114.903987
 10
643.055297
 20
-115.444437
 10
644.955297
 20
-115.774123
 10
646.855297
 20
-115.884928
 10
648.755297
 20
-115.774123
 10
650.655297
 20
-115.444437
 10
652.555297
 20
-114.903987
 10
654.455297
 20
-114.166081
 10
656.355297
 20
-113.248889
 10
658.255297
 20
-112.174995
 10
660.155297
 20
-110.970843
 10
662.055297
 20
-109.666081
 10
663.955297
 20
-108.292838
 10
665.855297
 20
-106.884928
 10
667.755297
 20
-105.477018
 10
669.655297
 20
-104.103775
 10
671.555297
 20
-102.799014
 10
673.455297
 20
-101.594861
 10
675.355297
 20
-100.520967
 10
677.255297
 20
-99.603775
 10
679.155297
 20
-98.865869
 10
681.055297
 20
-98.325419
 10
682.955297
 20
-97.995733
 10
684.855297
 20
-97.884928
 10
686.755297
 20
-97.995733
 10
688.655297
 20
-98.325419
 10
690.555297
 20
-98.865869
 10
692.455297
 20
-99.603775
 10
694.355297
 20
-100.520967
 10
696.255297
 20
-101.594861
 10
698.155297
 20
-102.799014
 10
700.055297
 20
-104.103775
 10
701.955297
 20
-105.477018
 10
703.855297
 20
-106.884928
 10
705.755297
 20
-108.292838
 10
707.655297
 20
-109.666081
 10
709.555297
 20
-110.970843
 10
711.455297
 20
-112.174995
 10
713.355297
 20
-113.248889
 10
715.255297
 20
-114.166081
 10
717.155297
 20
-114.903987
 10
719.055297
 20
-115.444437
 10
720.955297
 20
-115.774123
 10
722.855297
 20
-115.884928
 10
724.755297
 20
-115.774123
 10
726.655297
 20
-115.444437
 10
728.555297
 20
-114.903987
 10
730.455297
 20
-114.166081
 10
732.355297
 20
-113.248889
 10
734.255297
 20
-112.174995
 10
736.155297
 20
-110.970843
 10
738.055297
 20
-109.666081
 10
739.955297
 20
-108.292838
 10
741.855297
 20
-106.884928
 10
743.755297
 20
-105.477018
 10
745.655297
 20
-104.103775
 10
747.555297
 20
-102.799014
 10
749.455297
 20
-101.594861
 10
751.355297
 20
-100.520967
 10
753.255297
 20
-99.603775
 10
755.155297
 20
-98.865869
 10
757.055297
 20
-98.325419
 10
758.955297
 20
-97.995733
 10
760.855297
 20
-97.884928
 10
762.755297
 20
-97.995733
 10
764.655297
 20
-98.325419
 10
766.555297
 20
-98.865869
 10
768.455297
 20
-99.603775
 10
770.355297
 20
-100.520967
 10
772.255297
 20
-101.594861
 10
774.155297
 20
-102.799014
 10
776.055297
 20
-104.103775
 10
777.955297
 20
-105.477018
 10
779.855297
 20
-106.884928
 10
781.755297
 20
-108.292838
 10
783.655297
 20
-109.666081
 10
785.555297
 20
-110.970843
 10
787.455297
 20
-112.174995
 10
789.355297
 20
-113.248889
 10
791.255297
 20
-114.166081
 10
793.155297
 20
-114.903987
 10
795.055297
 20
-115.444437
 10
796.955297
 20
-115.774123
 10
798.855297
 20
-115.884928
 10
800.755297
 20
-115.774123
 10
802.655297
 20
-115.444437
 10
804.555297
 20
-114.903987
 10
806.455297
 20
-114.166081
 10
808.355297
 20
-113.248889
 10
810.255297
 20
-112.174995
 10
812.155297
 20
-110.970843
 10
814.055297
 20
-109.666081
 10
815.955297
 20
-108.292838
 10
817.855297
 20
-106.884928
 10
819.755297
 20
-105.477018
 10
821.655297
 20
-104.103775
 10
823.555297
 20
-102.799014
 10
825.455297
 20
-101.594861
 10
827.355297
 20
-100.520967
 10
829.255297
 20
-99.603775
 10
831.155297
 20
-98.865869
 10
833.055297
 20
-98.325419
 10
834.955297
 20
-97.995733
 10
836.855297
 20
-97.884928
 10
838.755297
 20
-97.995733
 10
840.655297
 20
-98.325419
 10
842.555297
 20
-98.865869
 10
844.455297
 20
-99.603775
 10
846.355297
 20
-100.520967
 10
848.255297
 20
-101.594861
 10
850.155297
 20
-102.799014
 10
852.055297
 20
-104.103775
 10
853.955297
 20
-105.477018
 10
855.855297
 20
-106.884928
 10
857.755297
 20
-108.292838
 10
859.655297
 20
-109.666081
 10
861.555297
 20
-110.970843
 10
863.455297
 20
-112.174995
 10
865.355297
 20
-113.248889
 10
867.255297
 20
-114.166081
 10
869.155297
 20
-114.903987
 10
871.055297
 20
-115.444437
 10
872.955297
 20
-115.774123
 10
874.855297
 20
-115.884928
 10
876.755297
 20
-115.774123
 10
878.655297
 20
-115.444437
 10
880.555297
 20
-114.903987
 10
882.455297
 20
-114.166081
 10
884.355297
 20
-113.248889
 10
886.255297
 20
-112.174995
 10
888.155297
 20
-110.970843
 10
890.055297
 20
-109.666081
 10
891.955297
 20
-108.292838
 10
893.855297
 20
-106.884928
 10
895.755297
 20
-105.477018
 10
897.655297
 20
-104.103775
 10
899.555297
 20
-102.799014
 10
901.455297
 20
-101.594861
 10
903.355297
 20
-100.520967
 10
905.255297
 20
-99.603775
 10
907.155297
 20
-98.865869
 10
909.055297
 20
-98.325419
 10
910.955297
 20
-97.995733
 10
912.855297
 20
-97.884928
 10
914.755297
 20
-97.995733
 10
916.655297
 20
-98.325419
 10
918.555297
 20
-98.865869
 10
920.455297
 20
-99.603775
 10
922.355297
 20
-100.520967
 10
924.255297
 20
-101.594861
 10
926.155297
 20
-102.799014
 10
928.055297
 20
-104.103775
 10
929.955297
 20
-105.477018
 10
931.855297
 20
-106.884928
 10
933.755297
 20
-108.292838
 10
935.655297
 20
-109.666081
 10
937.555297
 20
-110.970843
 10
939.455297
 20
-112.174995
 10
941.355297
 20
-113.248889
 10
943.255297
 20
-114.166081
 10
945.155297
 20
-114.903987
 10
947.055297
 20
-115.444437
 10
948.955297
 20
-115.774123
 10
950.855297
 20
-115.884928
 10
952.755297
 20
-115.774123
 10
954.655297
 20
-115.444437
 10
956.555297
 20
-114.903987
 10
958.455297
 20
-114.166081
 10
960.355297
 20
-113.248889
 10
962.255297
 20
-112.174995
 10
964.155297
 20
-110.970843
 10
966.055297
 20
-109.666081
 10
967.955297
 20
-108.292838
 10
969.855297
 20
-106.884928
 10
971.755297
 20
-105.477018
 10
973.655297
 20
-104.103775
 10
975.555297
 20
-102.799014
 10
977.455297
 20
-101.594861
 10
979.355297
 20
-100.520967
 10
981.255297
 20
-99.603775
 10
983.155297
 20
-98.865869
 10
985.055297
 20
-98.325419
 10
986.955297
 20
-97.995733
 10
988.855297
 20
-97.884928
 10
990.755297
 20
-97.995733
 10
992.655297
 20
-98.325419
 10
994.555297
 20
-98.865869
 10
996.455297
 20
-99.603775
 10
998.355297
 20
-100.520967
 10
1000.255297
 20
-101.594861
 10
1002.155297
 20
-102.799014
 10
1004.055297
 20
-104.103775
 10
1005.955297
 20
-105.477018
 10
1007.855297
 20
-106.884928
 10
1009.755297
 20
-108.292838
 10
1011.655297
 20
-109.666081
 10
1013.555297
 20
-110.970843
 10
1015.455297
 20
-112.174995
 10
1017.355297
 20
-113.248889
 10
1019.255297
 20
-114.166081
 10
1021.155297
 20
-114.903987
 10
1023.055297
 20
-115.444437
 10
1024.955297
 20
-115.774123
 10
1026.855297
 20
-115.884928
 10
1028.755297
 20
-115.774123
 10
1030.655297
 20
-115.444437
 10
1032.555297
 20
-114.903987
 10
1034.455297
 20
-114.166081
 10
1036.355297
 20
-113.248889
 10
1038.255297
 20
-112.174995
 10
1040.155297
 20
-110.970843
 10
1042.055297
 20
-109.666081
 10
1043.955297
 20
-108.292838
 10
1045.855297
 20
-106.884928
 10
1047.755297
 20
-105.477018
 10
1049.655297
 20
-104.103775
 10
1051.555297
 20
-102.799014
 10
1053.455297
 20
-101.594861
 10
1055.355297
 20
-100.520967
 10
1057.255297
 20
-99.603775
 10
1059.155297
 20
-98.865869
 10
1061.055297
 20
-98.325419
 10
1062.955297
 20
-97.995733
 10
1064.855297
 20
-97.884928
 10
1066.755297
 20
-97.995733
 10
1068.655297
 20
-98.325419
 10
1070.555297
 20
-98.865869
 10
1072.455297
 20
-99.603775
 10
1074.355297
 20
-100.520967
 10
1076.255297
 20
-101.594861
 10
1078.155297
 20
-102.799014
 10
1080.055297
 20
-104.103775
 10
1081.955297
 20
-105.477018
 10
1083.855297
 20
-106.884928
 10
1085.755297
 20
-108.292838
 10
1087.655297
 20
-109.666081
 10
1089.555297
 20
-110.970843
 10
1091.455297
 20
-112.174995
 10
1093.355297
 20
-113.248889
 10
1095.255297
 20
-114.166081
 10
1097.155297
 20
-114.903987
 10
1099.055297
 20
-115.444437
 10
1100.955297
 20
-115.774123
 10
1102.855297
 20
-115.884928
 10
1104.755297
 20
-115.774123
 10
1106.655297
 20
-115.444437
 10
1108.555297
 20
-114.903987
 10
1110.455297
 20
-114.166081
 10
1112.355297
 20
-113.248889
 10
1114.255297
 20
-112.174995
 10
1116.155297
 20
-110.970843
 10
1118.055297
 20
-109.666081
 10
1119.955297
 20
-108.292838
 10
1121.855297
 20
-106.884928
 10
1123.755297
 20
-105.477018
 10
1125.655297
 20
-104.103775
 10
1127.555297
 20
-102.799014
 10
1129.455297
 20
-101.594861
 10
1131.355297
 20
-100.520967
 10
1133.255297
 20
-99.603775
 10
1135.155297
 20
-98.865869
 10
1137.055297
 20
-98.325419
 10
1138.955297
 20
-97.995733
 10
1140.855297
 20
-97.884928
 10
1142.755297
 20
-97.995733
 10
1144.655297
 20
-98.325419
 10
1146.555297
 20
-98.865869
 10
1148.455297
 20
-99.603775
 10
1150.355297
 20
-100.520967
 10
1152.255297
 20
-101.594861
 10
1154.155297
 20
-102.799014
 10
1156.055297
 20
-104.103775
 10
1157.955297
 20
-105.477018
 10
1159.855297
 20
-106.884928
 10
1161.755297
 20
-108.292838
 10
1163.655297
 20
-109.666081
 10
1165.555297
 20
-110.970843
 10
1167.455297
 20
-112.174995
 10
1169.355297
 20
-113.248889
 10
1171.255297
 20
-114.166081
 10
1173.155297
 20
-114.903987
 10
1175.055297
 20
-115.444437
 10
1176.955297
 20
-115.774123
 10
1178.855297
 20
-115.884928
 10
1180.755297
 20
-115.774123
 10
1182.655297
 20
-115.444437
 10
1184.555297
 20
-114.903987
 10
1186.455297
 20
-114.166081
 10
1188.355297
 20
-113.248889
 10
1190.255297
 20
-112.174995
 10
1192.155297
 20
-110.970843
 10
1194.055297
 20
-109.666081
 10
1195.955297
 20
-108.292838
 10
1197.855297
 20
-106.884928
 10
1199.755297
 20
-105.477018
 10
1201.655297
 20
-104.103775
 10
1203.555297
 20
-102.799014
 10
1205.455297
 20
-101.594861
 10
1207.355297
 20
-100.520967
 10
1209.255297
 20
-99.603775
 10
1211.155297
 20
-98.865869
 10
1213.055297
 20
-98.325419
 10
1214.955297
 20
-97.995733
 10
1216.855297
 20
-97.884928
 10
1218.755297
 20
-97.995733
 10
1220.655297
 20
-98.325419
 10
1222.555297
 20
-98.865869
 10
1224.455297
 20
-99.603775
 10
1226.355297
 20
-100.520967
 10
1227.095857
 20
-100.939537
  0
LWPOLYLINE
  5
3B
100
AcDbEntity
  8
RAMEC
100
AcDbPolyline
 90
        4
 70
     1
 43
0.0
 10
0.0
 20
0.0
 10
0.0
 20
-345.001233
 10
1349.672502
 20
-345.001233
 10
1349.672502
 20
0.0
  0
DIMENSION
  5
3D
100
AcDbEntity
  8
KOTY-UPLNE
100
AcDbDimension
  2
*D1
 10
228.855297
 20
-180.884928
 30
0.0
 11
190.855297
 21
-165.224928
 31
0.0
 12
2056.67261
 22
-1837.342654
 32
0.0
  3
UPLNE
100
AcDbAlignedDimension
 13
152.855297
 23
-97.884928
 33
0.0
 14
228.855297
 24
-97.884928
 34
0.0
100
AcDbRotatedDimension
1001
ACAD
1000
DSTYLE
1002
{
1070
    40
1040
3.0
1070
   147
1040
2.0
1002
}
  0
MTEXT
  5
4A
100
AcDbEntity
  8
POPIS
100
AcDbMText
 10
661.730741
 20
-42.124031
 30
0.0
 40
40.0
 41
1.0
 71
     5
 72
     1
  1
SP 18
  7
STYLE1
  0
DIMENSION
  5
4D
100
AcDbEntity
  8
KOTY-UPLNE
100
AcDbDimension
  2
*D0
 10
1283.431107
 20
-115.884928
 30
0.0
 11
1267.771107
 21
-106.884928
 31
0.0
 12
2056.67261
 22
-1837.342654
 32
0.0
  3
UPLNE
100
AcDbAlignedDimension
 13
1216.855297
 23
-97.884928
 33
0.0
 14
1178.855297
 24
-115.884928
 34
0.0
 50
90.0
100
AcDbRotatedDimension
1001
ACAD
1000
DSTYLE
1002
{
1070
    40
1040
3.0
1070
   147
1040
2.0
1002
}
  0
ENDSEC
  0
SECTION
  2
OBJECTS
  0
DICTIONARY
  5
1A
100
AcDbDictionary
  3
ACAD_GROUP
350
18
  3
ACAD_MLINESTYLE
350
19
  0
DICTIONARY
  5
18
102
{ACAD_REACTORS
330
1A
102
}
100
AcDbDictionary
  0
DICTIONARY
  5
19
102
{ACAD_REACTORS
330
1A
102
}
100
AcDbDictionary
  3
STANDARD
350
1C
  0
MLINESTYLE
  5
1C
102
{ACAD_REACTORS
330
19
102
}
100
AcDbMlineStyle
  2
STANDARD
 70
     0
  3

 62
   256
 51
90.0
 52
90.0
 71
     2
 49
0.5
 62
   256
  6
BYLAYER
 49
-0.5
 62
   256
  6
BYLAYER
  0
ENDSEC
  0
EOF
