  0
SECTION
  2
HEADER
  9
$ACADVER
  1
AC1014
  9
$ACADMAINTVER
 70
     0
  9
$DWGCODEPAGE
  3
ANSI_1250
  9
$INSBASE
 10
0.0
 20
0.0
 30
0.0
  9
$EXTMIN
 10
0.0
 20
-309.001233
 30
0.0
  9
$EXTMAX
 10
1349.672502
 20
0.0
 30
0.0
  9
$LIMMIN
 10
-1000.0
 20
-1000.0
  9
$LIMMAX
 10
1000.0
 20
1000.0
  9
$ORTHOMODE
 70
     0
  9
$REGENMODE
 70
     1
  9
$FILLMODE
 70
     1
  9
$QTEXTMODE
 70
     0
  9
$MIRRTEXT
 70
     0
  9
$DRAGMODE
 70
     2
  9
$LTSCALE
 40
3.0
  9
$OSMODE
 70
    32
  9
$ATTMODE
 70
     1
  9
$TEXTSIZE
 40
50.0
  9
$TRACEWID
 40
0.05
  9
$TEXTSTYLE
  7
STANDARD
  9
$CLAYER
  8
KOTY-UPLNE
  9
$CELTYPE
  6
BYLAYER
  9
$CECOLOR
 62
   256
  9
$CELTSCALE
 40
1.0
  9
$DELOBJ
 70
     1
  9
$DISPSILH
 70
     0
  9
$DIMSCALE
 40
3.0
  9
$DIMASZ
 40
5.0
  9
$DIMEXO
 40
1.0
  9
$DIMDLI
 40
0.0
  9
$DIMRND
 40
1.0
  9
$DIMDLE
 40
1.0
  9
$DIMEXE
 40
2.0
  9
$DIMTP
 40
0.0
  9
$DIMTM
 40
0.0
  9
$DIMTXT
 40
6.44
  9
$DIMCEN
 40
1.0
  9
$DIMTSZ
 40
0.0
  9
$DIMTOL
 70
     0
  9
$DIMLIM
 70
     0
  9
$DIMTIH
 70
     0
  9
$DIMTOH
 70
     0
  9
$DIMSE1
 70
     0
  9
$DIMSE2
 70
     0
  9
$DIMTAD
 70
     3
  9
$DIMZIN
 70
     0
  9
$DIMBLK
  1

  9
$DIMASO
 70
     1
  9
$DIMSHO
 70
     0
  9
$DIMPOST
  1

  9
$DIMAPOST
  1

  9
$DIMALT
 70
     0
  9
$DIMALTD
 70
     2
  9
$DIMALTF
 40
25.4
  9
$DIMLFAC
 40
1.0
  9
$DIMTOFL
 70
     1
  9
$DIMTVP
 40
0.0
  9
$DIMTIX
 70
     1
  9
$DIMSOXD
 70
     0
  9
$DIMSAH
 70
     0
  9
$DIMBLK1
  1

  9
$DIMBLK2
  1

  9
$DIMSTYLE
  2
UPLNE
  9
$DIMCLRD
 70
   256
  9
$DIMCLRE
 70
   256
  9
$DIMCLRT
 70
     5
  9
$DIMTFAC
 40
1.0
  9
$DIMGAP
 40
2.0
  9
$DIMJUST
 70
     0
  9
$DIMSD1
 70
     0
  9
$DIMSD2
 70
     0
  9
$DIMTOLJ
 70
     1
  9
$DIMTZIN
 70
     0
  9
$DIMALTZ
 70
     0
  9
$DIMALTTZ
 70
     0
  9
$DIMFIT
 70
     5
  9
$DIMUPT
 70
     0
  9
$DIMUNIT
 70
     2
  9
$DIMDEC
 70
     0
  9
$DIMTDEC
 70
     0
  9
$DIMALTU
 70
     2
  9
$DIMALTTD
 70
     2
  9
$DIMTXSTY
  7
STANDARD
  9
$DIMAUNIT
 70
     0
  9
$LUNITS
 70
     2
  9
$LUPREC
 70
     2
  9
$SKETCHINC
 40
0.1
  9
$FILLETRAD
 40
5.0
  9
$AUNITS
 70
     0
  9
$AUPREC
 70
     2
  9
$MENU
  1
acad
  9
$ELEVATION
 40
0.0
  9
$PELEVATION
 40
0.0
  9
$THICKNESS
 40
0.0
  9
$LIMCHECK
 70
     0
  9
$BLIPMODE
 70
     1
  9
$CHAMFERA
 40
0.0
  9
$CHAMFERB
 40
0.0
  9
$CHAMFERC
 40
0.0
  9
$CHAMFERD
 40
0.0
  9
$SKPOLY
 70
     0
  9
$TDCREATE
 40
2448722.252204629
  9
$TDUPDATE
 40
2452465.883705324
  9
$TDINDWG
 40
2.5464226852
  9
$TDUSRTIMER
 40
2.5464226852
  9
$USRTIMER
 70
     1
  9
$ANGBASE
 50
0.0
  9
$ANGDIR
 70
     0
  9
$PDMODE
 70
     0
  9
$PDSIZE
 40
0.0
  9
$PLINEWID
 40
0.0
  9
$COORDS
 70
     2
  9
$SPLFRAME
 70
     0
  9
$SPLINETYPE
 70
     6
  9
$SPLINESEGS
 70
     8
  9
$ATTDIA
 70
     0
  9
$ATTREQ
 70
     1
  9
$HANDLING
 70
     1
  9
$HANDSEED
  5
53
  9
$SURFTAB1
 70
     6
  9
$SURFTAB2
 70
     6
  9
$SURFTYPE
 70
     6
  9
$SURFU
 70
     6
  9
$SURFV
 70
     6
  9
$UCSNAME
  2

  9
$UCSORG
 10
0.0
 20
0.0
 30
0.0
  9
$UCSXDIR
 10
1.0
 20
0.0
 30
0.0
  9
$UCSYDIR
 10
0.0
 20
1.0
 30
0.0
  9
$PUCSNAME
  2

  9
$PUCSORG
 10
0.0
 20
0.0
 30
0.0
  9
$PUCSXDIR
 10
1.0
 20
0.0
 30
0.0
  9
$PUCSYDIR
 10
0.0
 20
1.0
 30
0.0
  9
$USERI1
 70
     1
  9
$USERI2
 70
     0
  9
$USERI3
 70
     0
  9
$USERI4
 70
     0
  9
$USERI5
 70
     0
  9
$USERR1
 40
0.0
  9
$USERR2
 40
0.0
  9
$USERR3
 40
0.0
  9
$USERR4
 40
0.0
  9
$USERR5
 40
0.0
  9
$WORLDVIEW
 70
     1
  9
$SHADEDGE
 70
     3
  9
$SHADEDIF
 70
    70
  9
$TILEMODE
 70
     1
  9
$MAXACTVP
 70
    16
  9
$PINSBASE
 10
0.0
 20
0.0
 30
0.0
  9
$PLIMCHECK
 70
     0
  9
$PEXTMIN
 10
1.000000E+20
 20
1.000000E+20
 30
1.000000E+20
  9
$PEXTMAX
 10
-1.000000E+20
 20
-1.000000E+20
 30
-1.000000E+20
  9
$PLIMMIN
 10
0.0
 20
0.0
  9
$PLIMMAX
 10
12.0
 20
9.0
  9
$UNITMODE
 70
     0
  9
$VISRETAIN
 70
     0
  9
$PLINEGEN
 70
     0
  9
$PSLTSCALE
 70
     0
  9
$TREEDEPTH
 70
  3020
  9
$PICKSTYLE
 70
     0
  9
$CMLSTYLE
  2
STANDARD
  9
$CMLJUST
 70
     0
  9
$CMLSCALE
 40
1.0
  9
$PROXYGRAPHICS
 70
     1
  9
$MEASUREMENT
 70
     0
  0
ENDSEC
  0
SECTION
  2
CLASSES
  0
CLASS
  1
LWPOLYLINE
  2
AcDbPolyline
  3
"AutoCAD"
 90
        0
280
     0
281
     1
  0
CLASS
  1
DICTIONARYVAR
  2
AcDbDictionaryVar
  3
"AutoCAD"
 90
        0
280
     0
281
     0
  0
ENDSEC
  0
SECTION
  2
TABLES
  0
TABLE
  2
VPORT
  5
12
100
AcDbSymbolTable
 70
     2
  0
VPORT
  5
52
100
AcDbSymbolTableRecord
100
AcDbViewportTableRecord
  2
*ACTIVE
 70
     0
 10
0.0
 20
0.0
 11
1.0
 21
1.0
 12
655.74347
 22
-124.133734
 13
0.0
 23
0.0
 14
1.0
 24
1.0
 15
600.0
 25
600.0
 16
0.0
 26
0.0
 36
1.0
 17
0.0
 27
0.0
 37
0.0
 40
678.70243
 41
2.224444
 42
50.0
 43
0.0
 44
0.0
 50
0.0
 51
0.0
 71
     0
 72
   100
 73
     1
 74
     0
 75
     0
 76
     0
 77
     0
 78
     0
  0
ENDTAB
  0
TABLE
  2
LTYPE
  5
D
100
AcDbSymbolTable
 70
     1
  0
LTYPE
  5
E
100
AcDbSymbolTableRecord
100
AcDbLinetypeTableRecord
  2
BYBLOCK
 70
     0
  3

 72
    65
 73
     0
 40
0.0
  0
LTYPE
  5
F
100
AcDbSymbolTableRecord
100
AcDbLinetypeTableRecord
  2
BYLAYER
 70
     0
  3

 72
    65
 73
     0
 40
0.0
  0
LTYPE
  5
5
100
AcDbSymbolTableRecord
100
AcDbLinetypeTableRecord
  2
CONTINUOUS
 70
     0
  3
Solid line
 72
    65
 73
     0
 40
0.0
  0
ENDTAB
  0
TABLE
  2
LAYER
  5
A
100
AcDbSymbolTable
 70
     6
  0
LAYER
  5
4
100
AcDbSymbolTableRecord
100
AcDbLayerTableRecord
  2
0
 70
     0
 62
     7
  6
CONTINUOUS
  0
LAYER
  5
1B
100
AcDbSymbolTableRecord
100
AcDbLayerTableRecord
  2
KOTY-UPLNE
 70
     0
 62
     7
  6
CONTINUOUS
  0
LAYER
  5
2F
100
AcDbSymbolTableRecord
100
AcDbLayerTableRecord
  2
RAMEC
 70
     0
 62
     5
  6
CONTINUOUS
  0
LAYER
  5
4D
100
AcDbSymbolTableRecord
100
AcDbLayerTableRecord
  2
POPIS
 70
     0
 62
     1
  6
CONTINUOUS
  0
LAYER
  5
27
100
AcDbSymbolTableRecord
100
AcDbLayerTableRecord
  2
DEFPOINTS
 70
     0
 62
     7
  6
CONTINUOUS
  0
LAYER
  5
2D
100
AcDbSymbolTableRecord
100
AcDbLayerTableRecord
  2
TRAPEZ-VELKY
 70
     0
 62
     7
  6
CONTINUOUS
  0
ENDTAB
  0
TABLE
  2
STYLE
  5
B
100
AcDbSymbolTable
 70
     2
  0
STYLE
  5
C
100
AcDbSymbolTableRecord
100
AcDbTextStyleTableRecord
  2
STANDARD
 70
     0
 40
0.0
 41
0.9
 50
0.0
 71
     0
 42
50.0
  3
simplex.shx
  4

  0
STYLE
  5
4E
100
AcDbSymbolTableRecord
100
AcDbTextStyleTableRecord
  2
STYLE1
 70
     0
 40
0.0
 41
0.9
 50
0.0
 71
     0
 42
50.0
  3
simplex.shx
  4

  0
ENDTAB
  0
TABLE
  2
VIEW
  5
10
100
AcDbSymbolTable
 70
     0
  0
ENDTAB
  0
TABLE
  2
UCS
  5
11
100
AcDbSymbolTable
 70
     0
  0
ENDTAB
  0
TABLE
  2
APPID
  5
14
100
AcDbSymbolTable
 70
     1
  0
APPID
  5
15
100
AcDbSymbolTableRecord
100
AcDbRegAppTableRecord
  2
ACAD
 70
     0
  0
ENDTAB
  0
TABLE
  2
DIMSTYLE
  5
16
100
AcDbSymbolTable
 70
     1
  0
DIMSTYLE
105
1D
102
{ACAD_REACTORS
330
30
330
1E
330
3D
102
}
100
AcDbSymbolTableRecord
100
AcDbDimStyleTableRecord
  2
UPLNE
 70
     0
  3

  4

  5

  6

  7

 40
5.0
 41
5.0
 42
1.0
 43
0.0
 44
2.0
 45
1.0
 46
1.0
 47
0.0
 48
0.0
140
6.44
141
1.0
142
0.0
143
25.4
144
1.0
145
0.0
146
1.0
147
1.0
 71
     0
 72
     0
 73
     0
 74
     0
 75
     0
 76
     0
 77
     3
 78
     0
170
     0
171
     2
172
     1
173
     0
174
     1
175
     0
176
   256
177
   256
178
     5
270
     2
271
     0
272
     0
273
     2
274
     2
340
C
275
     0
280
     0
281
     0
282
     0
283
     1
284
     0
285
     0
286
     0
287
     5
288
     0
  0
ENDTAB
  0
TABLE
  2
BLOCK_RECORD
  5
1
100
AcDbSymbolTable
 70
     3
  0
BLOCK_RECORD
  5
2
100
AcDbSymbolTableRecord
100
AcDbBlockTableRecord
  2
*MODEL_SPACE
  0
BLOCK_RECORD
  5
7
100
AcDbSymbolTableRecord
100
AcDbBlockTableRecord
  2
*PAPER_SPACE
  0
BLOCK_RECORD
  5
31
100
AcDbSymbolTableRecord
100
AcDbBlockTableRecord
  2
*D0
  0
BLOCK_RECORD
  5
1F
100
AcDbSymbolTableRecord
100
AcDbBlockTableRecord
  2
*D1
  0
BLOCK_RECORD
  5
3E
100
AcDbSymbolTableRecord
100
AcDbBlockTableRecord
  2
*D2
  0
ENDTAB
  0
ENDSEC
  0
SECTION
  2
BLOCKS
  0
BLOCK
  5
3
100
AcDbEntity
  8
0
100
AcDbBlockBegin
  2
*MODEL_SPACE
 70
     0
 10
0.0
 20
0.0
 30
0.0
  3
*MODEL_SPACE
  1

  0
ENDBLK
  5
6
100
AcDbEntity
  8
0
100
AcDbBlockEnd
  0
BLOCK
  5
8
100
AcDbEntity
 67
     1
  8
0
100
AcDbBlockBegin
  2
*PAPER_SPACE
 70
     0
 10
0.0
 20
0.0
 30
0.0
  3
*PAPER_SPACE
  1

  0
ENDBLK
  5
9
100
AcDbEntity
 67
     1
  8
0
100
AcDbBlockEnd
  0
BLOCK
  5
3B
100
AcDbEntity
  8
0
100
AcDbBlockBegin
  2
*D0
 70
     1
 10
0.0
 20
0.0
 30
0.0
  3
*D0
  1

  0
LINE
  5
32
100
AcDbEntity
  8
0
  6
BYBLOCK
100
AcDbLine
 10
-1903.817313
 20
536.457726
 30
0.0
 11
-1903.817313
 21
431.457726
 31
0.0
  0
LINE
  5
33
100
AcDbEntity
  8
0
  6
BYBLOCK
100
AcDbLine
 10
-1743.817313
 20
536.457726
 30
0.0
 11
-1743.817313
 21
431.457726
 31
0.0
  0
LINE
  5
34
100
AcDbEntity
  8
0
  6
BYBLOCK
100
AcDbLine
 10
-1888.817313
 20
437.457726
 30
0.0
 11
-1758.817313
 21
437.457726
 31
0.0
  0
SOLID
  5
35
100
AcDbEntity
  8
0
  6
BYBLOCK
100
AcDbTrace
 10
-1888.817313
 20
439.957726
 30
0.0
 11
-1888.817313
 21
434.957726
 31
0.0
 12
-1903.817313
 22
437.457726
 32
0.0
 13
-1903.817313
 23
437.457726
 33
0.0
  0
SOLID
  5
36
100
AcDbEntity
  8
0
  6
BYBLOCK
100
AcDbTrace
 10
-1758.817313
 20
439.957726
 30
0.0
 11
-1758.817313
 21
434.957726
 31
0.0
 12
-1743.817313
 22
437.457726
 32
0.0
 13
-1743.817313
 23
437.457726
 33
0.0
  0
MTEXT
  5
37
100
AcDbEntity
  8
0
  6
BYBLOCK
 62
     5
100
AcDbMText
 10
-1823.817313
 20
453.117726
 30
0.0
 40
19.32
 41
0.0
 71
     5
 72
     1
  1
\A1;160
  0
POINT
  5
38
100
AcDbEntity
  8
DEFPOINTS
  6
BYBLOCK
 62
     0
100
AcDbPoint
 10
-1903.817313
 20
539.457726
 30
0.0
  0
POINT
  5
39
100
AcDbEntity
  8
DEFPOINTS
  6
BYBLOCK
 62
     0
100
AcDbPoint
 10
-1743.817313
 20
539.457726
 30
0.0
  0
POINT
  5
3A
100
AcDbEntity
  8
DEFPOINTS
  6
BYBLOCK
 62
     0
100
AcDbPoint
 10
-1743.817313
 20
437.457726
 30
0.0
  0
ENDBLK
  5
3C
100
AcDbEntity
  8
0
100
AcDbBlockEnd
  0
BLOCK
  5
2A
100
AcDbEntity
  8
0
100
AcDbBlockBegin
  2
*D1
 70
     1
 10
0.0
 20
0.0
 30
0.0
  3
*D1
  1

  0
LINE
  5
20
100
AcDbEntity
  8
0
  6
BYBLOCK
100
AcDbLine
 10
-1903.817313
 20
536.457726
 30
0.0
 11
-1903.817313
 21
371.457726
 31
0.0
  0
LINE
  5
21
100
AcDbEntity
  8
0
  6
BYBLOCK
100
AcDbLine
 10
-943.817313
 20
536.457726
 30
0.0
 11
-943.817313
 21
371.457726
 31
0.0
  0
LINE
  5
22
100
AcDbEntity
  8
0
  6
BYBLOCK
100
AcDbLine
 10
-1888.817313
 20
377.457726
 30
0.0
 11
-958.817313
 21
377.457726
 31
0.0
  0
SOLID
  5
23
100
AcDbEntity
  8
0
  6
BYBLOCK
100
AcDbTrace
 10
-1888.817313
 20
379.957726
 30
0.0
 11
-1888.817313
 21
374.957726
 31
0.0
 12
-1903.817313
 22
377.457726
 32
0.0
 13
-1903.817313
 23
377.457726
 33
0.0
  0
SOLID
  5
24
100
AcDbEntity
  8
0
  6
BYBLOCK
100
AcDbTrace
 10
-958.817313
 20
379.957726
 30
0.0
 11
-958.817313
 21
374.957726
 31
0.0
 12
-943.817313
 22
377.457726
 32
0.0
 13
-943.817313
 23
377.457726
 33
0.0
  0
MTEXT
  5
25
100
AcDbEntity
  8
0
  6
BYBLOCK
 62
     5
100
AcDbMText
 10
-1423.817313
 20
393.117726
 30
0.0
 40
19.32
 41
0.0
 71
     5
 72
     1
  1
\A1;960
  0
POINT
  5
26
100
AcDbEntity
  8
DEFPOINTS
  6
BYBLOCK
 62
     0
100
AcDbPoint
 10
-1903.817313
 20
539.457726
 30
0.0
  0
POINT
  5
28
100
AcDbEntity
  8
DEFPOINTS
  6
BYBLOCK
 62
     0
100
AcDbPoint
 10
-943.817313
 20
539.457726
 30
0.0
  0
POINT
  5
29
100
AcDbEntity
  8
DEFPOINTS
  6
BYBLOCK
 62
     0
100
AcDbPoint
 10
-943.817313
 20
377.457726
 30
0.0
  0
ENDBLK
  5
2B
100
AcDbEntity
  8
0
100
AcDbBlockEnd
  0
BLOCK
  5
4A
100
AcDbEntity
  8
0
100
AcDbBlockBegin
  2
*D2
 70
     1
 10
0.0
 20
0.0
 30
0.0
  3
*D2
  1

  0
LINE
  5
3F
100
AcDbEntity
  8
0
  6
BYBLOCK
100
AcDbLine
 10
-940.817313
 20
539.457726
 30
0.0
 11
-773.855881
 21
539.457726
 31
0.0
  0
LINE
  5
40
100
AcDbEntity
  8
0
  6
BYBLOCK
100
AcDbLine
 10
-860.158915
 20
497.500282
 30
0.0
 11
-773.855881
 21
497.500282
 31
0.0
  0
LINE
  5
41
100
AcDbEntity
  8
0
  6
BYBLOCK
100
AcDbLine
 10
-779.855881
 20
554.457726
 30
0.0
 11
-779.855881
 21
569.457726
 31
0.0
  0
LINE
  5
42
100
AcDbEntity
  8
0
  6
BYBLOCK
100
AcDbLine
 10
-779.855881
 20
482.500282
 30
0.0
 11
-779.855881
 21
467.500282
 31
0.0
  0
LINE
  5
43
100
AcDbEntity
  8
0
  6
BYBLOCK
100
AcDbLine
 10
-779.855881
 20
539.457726
 30
0.0
 11
-779.855881
 21
497.500282
 31
0.0
  0
SOLID
  5
44
100
AcDbEntity
  8
0
  6
BYBLOCK
100
AcDbTrace
 10
-782.355881
 20
554.457726
 30
0.0
 11
-777.355881
 21
554.457726
 31
0.0
 12
-779.855881
 22
539.457726
 32
0.0
 13
-779.855881
 23
539.457726
 33
0.0
  0
SOLID
  5
45
100
AcDbEntity
  8
0
  6
BYBLOCK
100
AcDbTrace
 10
-782.355881
 20
482.500282
 30
0.0
 11
-777.355881
 21
482.500282
 31
0.0
 12
-779.855881
 22
497.500282
 32
0.0
 13
-779.855881
 23
497.500282
 33
0.0
  0
MTEXT
  5
46
100
AcDbEntity
  8
0
  6
BYBLOCK
 62
     5
100
AcDbMText
 10
-795.515881
 20
518.479004
 30
0.0
 40
19.32
 41
0.0
 71
     5
 72
     1
  1
\A1;42
 11
0.0
 21
1.0
 31
0.0
  0
POINT
  5
47
100
AcDbEntity
  8
DEFPOINTS
  6
BYBLOCK
 62
     0
100
AcDbPoint
 10
-943.817313
 20
539.457726
 30
0.0
  0
POINT
  5
48
100
AcDbEntity
  8
DEFPOINTS
  6
BYBLOCK
 62
     0
100
AcDbPoint
 10
-863.158915
 20
497.500282
 30
0.0
  0
POINT
  5
49
100
AcDbEntity
  8
DEFPOINTS
  6
BYBLOCK
 62
     0
100
AcDbPoint
 10
-779.855881
 20
497.500282
 30
0.0
  0
ENDBLK
  5
4B
100
AcDbEntity
  8
0
100
AcDbBlockEnd
  0
ENDSEC
  0
SECTION
  2
ENTITIES
  0
DIMENSION
  5
1E
100
AcDbEntity
  8
KOTY-UPLNE
100
AcDbDimension
  2
*D1
 10
1112.855297
 20
-259.884928
 30
0.0
 11
632.855297
 21
-244.224928
 31
0.0
 12
2056.67261
 22
-637.342654
 32
0.0
  3
UPLNE
100
AcDbAlignedDimension
 13
152.855297
 23
-97.884928
 33
0.0
 14
1112.855297
 24
-97.884928
 34
0.0
100
AcDbRotatedDimension
1001
ACAD
1000
DSTYLE
1002
{
1070
    40
1040
3.0
1070
   147
1040
2.0
1002
}
  0
LWPOLYLINE
  5
2C
100
AcDbEntity
  8
TRAPEZ-VELKY
100
AcDbPolyline
 90
      268
 70
     0
 43
5.0
 10
131.270707
 20
-105.028333
 10
132.855297
 20
-104.035686
 10
136.855297
 20
-101.895571
 10
140.855297
 20
-100.173791
 10
144.855297
 20
-98.912741
 10
148.855297
 20
-98.143473
 10
152.855297
 20
-97.884928
 10
156.855297
 20
-98.143473
 10
160.855297
 20
-98.912741
 10
164.855297
 20
-100.173791
 10
168.855297
 20
-101.895571
 10
172.855297
 20
-104.035686
 10
176.855297
 20
-106.541438
 10
180.855297
 20
-109.351128
 10
184.855297
 20
-112.395571
 10
188.855297
 20
-115.599804
 10
192.855297
 20
-118.884928
 10
196.855297
 20
-122.170052
 10
200.855297
 20
-125.374285
 10
204.855297
 20
-128.418729
 10
208.855297
 20
-131.228418
 10
212.855297
 20
-133.734171
 10
216.855297
 20
-135.874285
 10
220.855297
 20
-137.596065
 10
224.855297
 20
-138.857115
 10
228.855297
 20
-139.626383
 10
232.855297
 20
-139.884928
 10
236.855297
 20
-139.626383
 10
240.855297
 20
-138.857115
 10
244.855297
 20
-137.596065
 10
248.855297
 20
-135.874285
 10
252.855297
 20
-133.734171
 10
256.855297
 20
-131.228418
 10
260.855297
 20
-128.418729
 10
264.855297
 20
-125.374285
 10
268.855297
 20
-122.170052
 10
272.855297
 20
-118.884928
 10
276.855297
 20
-115.599804
 10
280.855297
 20
-112.395571
 10
284.855297
 20
-109.351128
 10
288.855297
 20
-106.541438
 10
292.855297
 20
-104.035686
 10
296.855297
 20
-101.895571
 10
300.855297
 20
-100.173791
 10
304.855297
 20
-98.912741
 10
308.855297
 20
-98.143473
 10
312.855297
 20
-97.884928
 10
316.855297
 20
-98.143473
 10
320.855297
 20
-98.912741
 10
324.855297
 20
-100.173791
 10
328.855297
 20
-101.895571
 10
332.855297
 20
-104.035686
 10
336.855297
 20
-106.541438
 10
340.855297
 20
-109.351128
 10
344.855297
 20
-112.395571
 10
348.855297
 20
-115.599804
 10
352.855297
 20
-118.884928
 10
356.855297
 20
-122.170052
 10
360.855297
 20
-125.374285
 10
364.855297
 20
-128.418729
 10
368.855297
 20
-131.228418
 10
372.855297
 20
-133.734171
 10
376.855297
 20
-135.874285
 10
380.855297
 20
-137.596065
 10
384.855297
 20
-138.857115
 10
388.855297
 20
-139.626383
 10
392.855297
 20
-139.884928
 10
396.855297
 20
-139.626383
 10
400.855297
 20
-138.857115
 10
404.855297
 20
-137.596065
 10
408.855297
 20
-135.874285
 10
412.855297
 20
-133.734171
 10
416.855297
 20
-131.228418
 10
420.855297
 20
-128.418729
 10
424.855297
 20
-125.374285
 10
428.855297
 20
-122.170052
 10
432.855297
 20
-118.884928
 10
436.855297
 20
-115.599804
 10
440.855297
 20
-112.395571
 10
444.855297
 20
-109.351128
 10
448.855297
 20
-106.541438
 10
452.855297
 20
-104.035686
 10
456.855297
 20
-101.895571
 10
460.855297
 20
-100.173791
 10
464.855297
 20
-98.912741
 10
468.855297
 20
-98.143473
 10
472.855297
 20
-97.884928
 10
476.855297
 20
-98.143473
 10
480.855297
 20
-98.912741
 10
484.855297
 20
-100.173791
 10
488.855297
 20
-101.895571
 10
492.855297
 20
-104.035686
 10
496.855297
 20
-106.541438
 10
500.855297
 20
-109.351128
 10
504.855297
 20
-112.395571
 10
508.855297
 20
-115.599804
 10
512.855297
 20
-118.884928
 10
516.855297
 20
-122.170052
 10
520.855297
 20
-125.374285
 10
524.855297
 20
-128.418729
 10
528.855297
 20
-131.228418
 10
532.855297
 20
-133.734171
 10
536.855297
 20
-135.874285
 10
540.855297
 20
-137.596065
 10
544.855297
 20
-138.857115
 10
548.855297
 20
-139.626383
 10
552.855297
 20
-139.884928
 10
556.855297
 20
-139.626383
 10
560.855297
 20
-138.857115
 10
564.855297
 20
-137.596065
 10
568.855297
 20
-135.874285
 10
572.855297
 20
-133.734171
 10
576.855297
 20
-131.228418
 10
580.855297
 20
-128.418729
 10
584.855297
 20
-125.374285
 10
588.855297
 20
-122.170052
 10
592.855297
 20
-118.884928
 10
596.855297
 20
-115.599804
 10
600.855297
 20
-112.395571
 10
604.855297
 20
-109.351128
 10
608.855297
 20
-106.541438
 10
612.855297
 20
-104.035686
 10
616.855297
 20
-101.895571
 10
620.855297
 20
-100.173791
 10
624.855297
 20
-98.912741
 10
628.855297
 20
-98.143473
 10
632.855297
 20
-97.884928
 10
636.855297
 20
-98.143473
 10
640.855297
 20
-98.912741
 10
644.855297
 20
-100.173791
 10
648.855297
 20
-101.895571
 10
652.855297
 20
-104.035686
 10
656.855297
 20
-106.541438
 10
660.855297
 20
-109.351128
 10
664.855297
 20
-112.395571
 10
668.855297
 20
-115.599804
 10
672.855297
 20
-118.884928
 10
676.855297
 20
-122.170052
 10
680.855297
 20
-125.374285
 10
684.855297
 20
-128.418729
 10
688.855297
 20
-131.228418
 10
692.855297
 20
-133.734171
 10
696.855297
 20
-135.874285
 10
700.855297
 20
-137.596065
 10
704.855297
 20
-138.857115
 10
708.855297
 20
-139.626383
 10
712.855297
 20
-139.884928
 10
716.855297
 20
-139.626383
 10
720.855297
 20
-138.857115
 10
724.855297
 20
-137.596065
 10
728.855297
 20
-135.874285
 10
732.855297
 20
-133.734171
 10
736.855297
 20
-131.228418
 10
740.855297
 20
-128.418729
 10
744.855297
 20
-125.374285
 10
748.855297
 20
-122.170052
 10
752.855297
 20
-118.884928
 10
756.855297
 20
-115.599804
 10
760.855297
 20
-112.395571
 10
764.855297
 20
-109.351128
 10
768.855297
 20
-106.541438
 10
772.855297
 20
-104.035686
 10
776.855297
 20
-101.895571
 10
780.855297
 20
-100.173791
 10
784.855297
 20
-98.912741
 10
788.855297
 20
-98.143473
 10
792.855297
 20
-97.884928
 10
796.855297
 20
-98.143473
 10
800.855297
 20
-98.912741
 10
804.855297
 20
-100.173791
 10
808.855297
 20
-101.895571
 10
812.855297
 20
-104.035686
 10
816.855297
 20
-106.541438
 10
820.855297
 20
-109.351128
 10
824.855297
 20
-112.395571
 10
828.855297
 20
-115.599804
 10
832.855297
 20
-118.884928
 10
836.855297
 20
-122.170052
 10
840.855297
 20
-125.374285
 10
844.855297
 20
-128.418729
 10
848.855297
 20
-131.228418
 10
852.855297
 20
-133.734171
 10
856.855297
 20
-135.874285
 10
860.855297
 20
-137.596065
 10
864.855297
 20
-138.857115
 10
868.855297
 20
-139.626383
 10
872.855297
 20
-139.884928
 10
876.855297
 20
-139.626383
 10
880.855297
 20
-138.857115
 10
884.855297
 20
-137.596065
 10
888.855297
 20
-135.874285
 10
892.855297
 20
-133.734171
 10
896.855297
 20
-131.228418
 10
900.855297
 20
-128.418729
 10
904.855297
 20
-125.374285
 10
908.855297
 20
-122.170052
 10
912.855297
 20
-118.884928
 10
916.855297
 20
-115.599804
 10
920.855297
 20
-112.395571
 10
924.855297
 20
-109.351128
 10
928.855297
 20
-106.541438
 10
932.855297
 20
-104.035686
 10
936.855297
 20
-101.895571
 10
940.855297
 20
-100.173791
 10
944.855297
 20
-98.912741
 10
948.855297
 20
-98.143473
 10
952.855297
 20
-97.884928
 10
956.855297
 20
-98.143473
 10
960.855297
 20
-98.912741
 10
964.855297
 20
-100.173791
 10
968.855297
 20
-101.895571
 10
972.855297
 20
-104.035686
 10
976.855297
 20
-106.541438
 10
980.855297
 20
-109.351128
 10
984.855297
 20
-112.395571
 10
988.855297
 20
-115.599804
 10
992.855297
 20
-118.884928
 10
996.855297
 20
-122.170052
 10
1000.855297
 20
-125.374285
 10
1004.855297
 20
-128.418729
 10
1008.855297
 20
-131.228418
 10
1012.855297
 20
-133.734171
 10
1016.855297
 20
-135.874285
 10
1020.855297
 20
-137.596065
 10
1024.855297
 20
-138.857115
 10
1028.855297
 20
-139.626383
 10
1032.855297
 20
-139.884928
 10
1036.855297
 20
-139.626383
 10
1040.855297
 20
-138.857115
 10
1044.855297
 20
-137.596065
 10
1048.855297
 20
-135.874285
 10
1052.855297
 20
-133.734171
 10
1056.855297
 20
-131.228418
 10
1060.855297
 20
-128.418729
 10
1064.855297
 20
-125.374285
 10
1068.855297
 20
-122.170052
 10
1072.855297
 20
-118.884928
 10
1076.855297
 20
-115.599804
 10
1080.855297
 20
-112.395571
 10
1084.855297
 20
-109.351128
 10
1088.855297
 20
-106.541438
 10
1092.855297
 20
-104.035686
 10
1096.855297
 20
-101.895571
 10
1100.855297
 20
-100.173791
 10
1104.855297
 20
-98.912741
 10
1108.855297
 20
-98.143473
 10
1112.855297
 20
-97.884928
 10
1116.855297
 20
-98.143473
 10
1120.855297
 20
-98.912741
 10
1124.855297
 20
-100.173791
 10
1128.855297
 20
-101.895571
 10
1132.855297
 20
-104.035686
 10
1136.855297
 20
-106.541438
 10
1140.855297
 20
-109.351128
 10
1144.855297
 20
-112.395571
 10
1148.855297
 20
-115.599804
 10
1152.855297
 20
-118.884928
 10
1156.855297
 20
-122.170052
 10
1160.855297
 20
-125.374285
 10
1164.855297
 20
-128.418729
 10
1168.855297
 20
-131.228418
 10
1172.855297
 20
-133.734171
 10
1176.855297
 20
-135.874285
 10
1180.855297
 20
-137.596065
 10
1184.855297
 20
-138.857115
 10
1188.855297
 20
-139.626383
 10
1192.855297
 20
-139.884928
 10
1193.513695
 20
-139.842372
  0
LWPOLYLINE
  5
2E
100
AcDbEntity
  8
RAMEC
100
AcDbPolyline
 90
        4
 70
     1
 43
0.0
 10
0.0
 20
0.0
 10
0.0
 20
-309.001233
 10
1349.672502
 20
-309.001233
 10
1349.672502
 20
0.0
  0
DIMENSION
  5
30
100
AcDbEntity
  8
KOTY-UPLNE
100
AcDbDimension
  2
*D0
 10
312.855297
 20
-199.884928
 30
0.0
 11
232.855297
 21
-184.224928
 31
0.0
 12
2056.67261
 22
-637.342654
 32
0.0
  3
UPLNE
100
AcDbAlignedDimension
 13
152.855297
 23
-97.884928
 33
0.0
 14
312.855297
 24
-97.884928
 34
0.0
100
AcDbRotatedDimension
1001
ACAD
1000
DSTYLE
1002
{
1070
    40
1040
3.0
1070
   147
1040
2.0
1002
}
  0
DIMENSION
  5
3D
100
AcDbEntity
  8
KOTY-UPLNE
100
AcDbDimension
  2
*D2
 10
1276.816728
 20
-139.842372
 30
0.0
 11
1261.156728
 21
-118.86365
 31
0.0
 12
2056.67261
 22
-637.342654
 32
0.0
  3
UPLNE
100
AcDbAlignedDimension
 13
1112.855297
 23
-97.884928
 33
0.0
 14
1193.513695
 24
-139.842372
 34
0.0
 50
90.0
100
AcDbRotatedDimension
1001
ACAD
1000
DSTYLE
1002
{
1070
    40
1040
3.0
1070
   147
1040
2.0
1002
}
  0
MTEXT
  5
4C
100
AcDbEntity
  8
POPIS
100
AcDbMText
 10
661.730741
 20
-42.124031
 30
0.0
 40
40.0
 41
1.0
 71
     5
 72
     1
  1
SP 42
  7
STYLE1
  0
ENDSEC
  0
SECTION
  2
OBJECTS
  0
DICTIONARY
  5
1A
100
AcDbDictionary
  3
ACAD_GROUP
350
18
  3
ACAD_MLINESTYLE
350
19
  0
DICTIONARY
  5
18
102
{ACAD_REACTORS
330
1A
102
}
100
AcDbDictionary
  0
DICTIONARY
  5
19
102
{ACAD_REACTORS
330
1A
102
}
100
AcDbDictionary
  3
STANDARD
350
1C
  0
MLINESTYLE
  5
1C
102
{ACAD_REACTORS
330
19
102
}
100
AcDbMlineStyle
  2
STANDARD
 70
     0
  3

 62
   256
 51
90.0
 52
90.0
 71
     2
 49
0.5
 62
   256
  6
BYLAYER
 49
-0.5
 62
   256
  6
BYLAYER
  0
ENDSEC
  0
EOF
