  0
SECTION
  2
HEADER
  9
$ACADVER
  1
AC1014
  9
$ACADMAINTVER
 70
     0
  9
$DWGCODEPAGE
  3
ANSI_1250
  9
$INSBASE
 10
0.0
 20
0.0
 30
0.0
  9
$EXTMIN
 10
0.0
 20
-322.001233
 30
0.0
  9
$EXTMAX
 10
1349.672502
 20
0.0
 30
0.0
  9
$LIMMIN
 10
-1000.0
 20
-1000.0
  9
$LIMMAX
 10
1000.0
 20
1000.0
  9
$ORTHOMODE
 70
     0
  9
$REGENMODE
 70
     1
  9
$FILLMODE
 70
     1
  9
$QTEXTMODE
 70
     0
  9
$MIRRTEXT
 70
     0
  9
$DRAGMODE
 70
     2
  9
$LTSCALE
 40
3.0
  9
$OSMODE
 70
    32
  9
$ATTMODE
 70
     1
  9
$TEXTSIZE
 40
50.0
  9
$TRACEWID
 40
0.05
  9
$TEXTSTYLE
  7
STANDARD
  9
$CLAYER
  8
KOTY-UPLNE
  9
$CELTYPE
  6
BYLAYER
  9
$CECOLOR
 62
   256
  9
$CELTSCALE
 40
1.0
  9
$DELOBJ
 70
     1
  9
$DISPSILH
 70
     0
  9
$DIMSCALE
 40
3.0
  9
$DIMASZ
 40
5.0
  9
$DIMEXO
 40
1.0
  9
$DIMDLI
 40
0.0
  9
$DIMRND
 40
1.0
  9
$DIMDLE
 40
1.0
  9
$DIMEXE
 40
2.0
  9
$DIMTP
 40
0.0
  9
$DIMTM
 40
0.0
  9
$DIMTXT
 40
6.44
  9
$DIMCEN
 40
1.0
  9
$DIMTSZ
 40
0.0
  9
$DIMTOL
 70
     0
  9
$DIMLIM
 70
     0
  9
$DIMTIH
 70
     0
  9
$DIMTOH
 70
     0
  9
$DIMSE1
 70
     0
  9
$DIMSE2
 70
     0
  9
$DIMTAD
 70
     3
  9
$DIMZIN
 70
     0
  9
$DIMBLK
  1

  9
$DIMASO
 70
     1
  9
$DIMSHO
 70
     0
  9
$DIMPOST
  1

  9
$DIMAPOST
  1

  9
$DIMALT
 70
     0
  9
$DIMALTD
 70
     2
  9
$DIMALTF
 40
25.4
  9
$DIMLFAC
 40
1.0
  9
$DIMTOFL
 70
     1
  9
$DIMTVP
 40
0.0
  9
$DIMTIX
 70
     1
  9
$DIMSOXD
 70
     0
  9
$DIMSAH
 70
     0
  9
$DIMBLK1
  1

  9
$DIMBLK2
  1

  9
$DIMSTYLE
  2
UPLNE
  9
$DIMCLRD
 70
   256
  9
$DIMCLRE
 70
   256
  9
$DIMCLRT
 70
     5
  9
$DIMTFAC
 40
1.0
  9
$DIMGAP
 40
2.0
  9
$DIMJUST
 70
     0
  9
$DIMSD1
 70
     0
  9
$DIMSD2
 70
     0
  9
$DIMTOLJ
 70
     1
  9
$DIMTZIN
 70
     0
  9
$DIMALTZ
 70
     0
  9
$DIMALTTZ
 70
     0
  9
$DIMFIT
 70
     5
  9
$DIMUPT
 70
     0
  9
$DIMUNIT
 70
     2
  9
$DIMDEC
 70
     0
  9
$DIMTDEC
 70
     0
  9
$DIMALTU
 70
     2
  9
$DIMALTTD
 70
     2
  9
$DIMTXSTY
  7
STANDARD
  9
$DIMAUNIT
 70
     0
  9
$LUNITS
 70
     2
  9
$LUPREC
 70
     2
  9
$SKETCHINC
 40
0.1
  9
$FILLETRAD
 40
5.0
  9
$AUNITS
 70
     0
  9
$AUPREC
 70
     2
  9
$MENU
  1
acad
  9
$ELEVATION
 40
0.0
  9
$PELEVATION
 40
0.0
  9
$THICKNESS
 40
0.0
  9
$LIMCHECK
 70
     0
  9
$BLIPMODE
 70
     1
  9
$CHAMFERA
 40
0.0
  9
$CHAMFERB
 40
0.0
  9
$CHAMFERC
 40
0.0
  9
$CHAMFERD
 40
0.0
  9
$SKPOLY
 70
     0
  9
$TDCREATE
 40
2448722.252204629
  9
$TDUPDATE
 40
2452465.884049305
  9
$TDINDWG
 40
2.5464932870
  9
$TDUSRTIMER
 40
2.5464932870
  9
$USRTIMER
 70
     1
  9
$ANGBASE
 50
0.0
  9
$ANGDIR
 70
     0
  9
$PDMODE
 70
     0
  9
$PDSIZE
 40
0.0
  9
$PLINEWID
 40
0.0
  9
$COORDS
 70
     2
  9
$SPLFRAME
 70
     0
  9
$SPLINETYPE
 70
     6
  9
$SPLINESEGS
 70
     8
  9
$ATTDIA
 70
     0
  9
$ATTREQ
 70
     1
  9
$HANDLING
 70
     1
  9
$HANDSEED
  5
51
  9
$SURFTAB1
 70
     6
  9
$SURFTAB2
 70
     6
  9
$SURFTYPE
 70
     6
  9
$SURFU
 70
     6
  9
$SURFV
 70
     6
  9
$UCSNAME
  2

  9
$UCSORG
 10
0.0
 20
0.0
 30
0.0
  9
$UCSXDIR
 10
1.0
 20
0.0
 30
0.0
  9
$UCSYDIR
 10
0.0
 20
1.0
 30
0.0
  9
$PUCSNAME
  2

  9
$PUCSORG
 10
0.0
 20
0.0
 30
0.0
  9
$PUCSXDIR
 10
1.0
 20
0.0
 30
0.0
  9
$PUCSYDIR
 10
0.0
 20
1.0
 30
0.0
  9
$USERI1
 70
     1
  9
$USERI2
 70
     0
  9
$USERI3
 70
     0
  9
$USERI4
 70
     0
  9
$USERI5
 70
     0
  9
$USERR1
 40
0.0
  9
$USERR2
 40
0.0
  9
$USERR3
 40
0.0
  9
$USERR4
 40
0.0
  9
$USERR5
 40
0.0
  9
$WORLDVIEW
 70
     1
  9
$SHADEDGE
 70
     3
  9
$SHADEDIF
 70
    70
  9
$TILEMODE
 70
     1
  9
$MAXACTVP
 70
    16
  9
$PINSBASE
 10
0.0
 20
0.0
 30
0.0
  9
$PLIMCHECK
 70
     0
  9
$PEXTMIN
 10
1.000000E+20
 20
1.000000E+20
 30
1.000000E+20
  9
$PEXTMAX
 10
-1.000000E+20
 20
-1.000000E+20
 30
-1.000000E+20
  9
$PLIMMIN
 10
0.0
 20
0.0
  9
$PLIMMAX
 10
12.0
 20
9.0
  9
$UNITMODE
 70
     0
  9
$VISRETAIN
 70
     0
  9
$PLINEGEN
 70
     0
  9
$PSLTSCALE
 70
     0
  9
$TREEDEPTH
 70
  3020
  9
$PICKSTYLE
 70
     0
  9
$CMLSTYLE
  2
STANDARD
  9
$CMLJUST
 70
     0
  9
$CMLSCALE
 40
1.0
  9
$PROXYGRAPHICS
 70
     1
  9
$MEASUREMENT
 70
     0
  0
ENDSEC
  0
SECTION
  2
CLASSES
  0
CLASS
  1
LWPOLYLINE
  2
AcDbPolyline
  3
"AutoCAD"
 90
        0
280
     0
281
     1
  0
CLASS
  1
DICTIONARYVAR
  2
AcDbDictionaryVar
  3
"AutoCAD"
 90
        0
280
     0
281
     0
  0
ENDSEC
  0
SECTION
  2
TABLES
  0
TABLE
  2
VPORT
  5
12
100
AcDbSymbolTable
 70
     2
  0
VPORT
  5
50
100
AcDbSymbolTableRecord
100
AcDbViewportTableRecord
  2
*ACTIVE
 70
     0
 10
0.0
 20
0.0
 11
1.0
 21
1.0
 12
726.512325
 22
-124.133734
 13
0.0
 23
0.0
 14
1.0
 24
1.0
 15
600.0
 25
600.0
 16
0.0
 26
0.0
 36
1.0
 17
0.0
 27
0.0
 37
0.0
 40
699.911865
 41
2.224444
 42
50.0
 43
0.0
 44
0.0
 50
0.0
 51
0.0
 71
     0
 72
   100
 73
     1
 74
     0
 75
     0
 76
     0
 77
     0
 78
     0
  0
ENDTAB
  0
TABLE
  2
LTYPE
  5
D
100
AcDbSymbolTable
 70
     1
  0
LTYPE
  5
E
100
AcDbSymbolTableRecord
100
AcDbLinetypeTableRecord
  2
BYBLOCK
 70
     0
  3

 72
    65
 73
     0
 40
0.0
  0
LTYPE
  5
F
100
AcDbSymbolTableRecord
100
AcDbLinetypeTableRecord
  2
BYLAYER
 70
     0
  3

 72
    65
 73
     0
 40
0.0
  0
LTYPE
  5
5
100
AcDbSymbolTableRecord
100
AcDbLinetypeTableRecord
  2
CONTINUOUS
 70
     0
  3
Solid line
 72
    65
 73
     0
 40
0.0
  0
ENDTAB
  0
TABLE
  2
LAYER
  5
A
100
AcDbSymbolTable
 70
     6
  0
LAYER
  5
4
100
AcDbSymbolTableRecord
100
AcDbLayerTableRecord
  2
0
 70
     0
 62
     7
  6
CONTINUOUS
  0
LAYER
  5
1B
100
AcDbSymbolTableRecord
100
AcDbLayerTableRecord
  2
KOTY-UPLNE
 70
     0
 62
     7
  6
CONTINUOUS
  0
LAYER
  5
3C
100
AcDbSymbolTableRecord
100
AcDbLayerTableRecord
  2
RAMEC
 70
     0
 62
     5
  6
CONTINUOUS
  0
LAYER
  5
3E
100
AcDbSymbolTableRecord
100
AcDbLayerTableRecord
  2
POPIS
 70
     0
 62
     1
  6
CONTINUOUS
  0
LAYER
  5
27
100
AcDbSymbolTableRecord
100
AcDbLayerTableRecord
  2
DEFPOINTS
 70
     0
 62
     7
  6
CONTINUOUS
  0
LAYER
  5
3A
100
AcDbSymbolTableRecord
100
AcDbLayerTableRecord
  2
TRAPEZ-VELKY
 70
     0
 62
     7
  6
CONTINUOUS
  0
ENDTAB
  0
TABLE
  2
STYLE
  5
B
100
AcDbSymbolTable
 70
     2
  0
STYLE
  5
C
100
AcDbSymbolTableRecord
100
AcDbTextStyleTableRecord
  2
STANDARD
 70
     0
 40
0.0
 41
0.9
 50
0.0
 71
     0
 42
50.0
  3
simplex.shx
  4

  0
STYLE
  5
3F
100
AcDbSymbolTableRecord
100
AcDbTextStyleTableRecord
  2
STYLE1
 70
     0
 40
0.0
 41
0.9
 50
0.0
 71
     0
 42
50.0
  3
simplex.shx
  4

  0
ENDTAB
  0
TABLE
  2
VIEW
  5
10
100
AcDbSymbolTable
 70
     0
  0
ENDTAB
  0
TABLE
  2
UCS
  5
11
100
AcDbSymbolTable
 70
     0
  0
ENDTAB
  0
TABLE
  2
APPID
  5
14
100
AcDbSymbolTable
 70
     1
  0
APPID
  5
15
100
AcDbSymbolTableRecord
100
AcDbRegAppTableRecord
  2
ACAD
 70
     0
  0
ENDTAB
  0
TABLE
  2
DIMSTYLE
  5
16
100
AcDbSymbolTable
 70
     1
  0
DIMSTYLE
105
1D
102
{ACAD_REACTORS
330
2C
330
1E
330
40
102
}
100
AcDbSymbolTableRecord
100
AcDbDimStyleTableRecord
  2
UPLNE
 70
     0
  3

  4

  5

  6

  7

 40
5.0
 41
5.0
 42
1.0
 43
0.0
 44
2.0
 45
1.0
 46
1.0
 47
0.0
 48
0.0
140
6.44
141
1.0
142
0.0
143
25.4
144
1.0
145
0.0
146
1.0
147
1.0
 71
     0
 72
     0
 73
     0
 74
     0
 75
     0
 76
     0
 77
     3
 78
     0
170
     0
171
     2
172
     1
173
     0
174
     1
175
     0
176
   256
177
   256
178
     5
270
     2
271
     0
272
     0
273
     2
274
     2
340
C
275
     0
280
     0
281
     0
282
     0
283
     1
284
     0
285
     0
286
     0
287
     5
288
     0
  0
ENDTAB
  0
TABLE
  2
BLOCK_RECORD
  5
1
100
AcDbSymbolTable
 70
     3
  0
BLOCK_RECORD
  5
2
100
AcDbSymbolTableRecord
100
AcDbBlockTableRecord
  2
*MODEL_SPACE
  0
BLOCK_RECORD
  5
7
100
AcDbSymbolTableRecord
100
AcDbBlockTableRecord
  2
*PAPER_SPACE
  0
BLOCK_RECORD
  5
2D
100
AcDbSymbolTableRecord
100
AcDbBlockTableRecord
  2
*D0
  0
BLOCK_RECORD
  5
1F
100
AcDbSymbolTableRecord
100
AcDbBlockTableRecord
  2
*D1
  0
BLOCK_RECORD
  5
41
100
AcDbSymbolTableRecord
100
AcDbBlockTableRecord
  2
*D2
  0
ENDTAB
  0
ENDSEC
  0
SECTION
  2
BLOCKS
  0
BLOCK
  5
3
100
AcDbEntity
  8
0
100
AcDbBlockBegin
  2
*MODEL_SPACE
 70
     0
 10
0.0
 20
0.0
 30
0.0
  3
*MODEL_SPACE
  1

  0
ENDBLK
  5
6
100
AcDbEntity
  8
0
100
AcDbBlockEnd
  0
BLOCK
  5
8
100
AcDbEntity
 67
     1
  8
0
100
AcDbBlockBegin
  2
*PAPER_SPACE
 70
     0
 10
0.0
 20
0.0
 30
0.0
  3
*PAPER_SPACE
  1

  0
ENDBLK
  5
9
100
AcDbEntity
 67
     1
  8
0
100
AcDbBlockEnd
  0
BLOCK
  5
37
100
AcDbEntity
  8
0
100
AcDbBlockBegin
  2
*D0
 70
     1
 10
0.0
 20
0.0
 30
0.0
  3
*D0
  1

  0
LINE
  5
2E
100
AcDbEntity
  8
0
  6
BYBLOCK
100
AcDbLine
 10
-1903.817313
 20
-63.499718
 30
0.0
 11
-1903.817313
 21
-181.499718
 31
0.0
  0
LINE
  5
2F
100
AcDbEntity
  8
0
  6
BYBLOCK
100
AcDbLine
 10
-1726.817313
 20
-63.499718
 30
0.0
 11
-1726.817313
 21
-181.499718
 31
0.0
  0
LINE
  5
30
100
AcDbEntity
  8
0
  6
BYBLOCK
100
AcDbLine
 10
-1888.817313
 20
-175.499718
 30
0.0
 11
-1741.817313
 21
-175.499718
 31
0.0
  0
SOLID
  5
31
100
AcDbEntity
  8
0
  6
BYBLOCK
100
AcDbTrace
 10
-1888.817313
 20
-172.999718
 30
0.0
 11
-1888.817313
 21
-177.999718
 31
0.0
 12
-1903.817313
 22
-175.499718
 32
0.0
 13
-1903.817313
 23
-175.499718
 33
0.0
  0
SOLID
  5
32
100
AcDbEntity
  8
0
  6
BYBLOCK
100
AcDbTrace
 10
-1741.817313
 20
-172.999718
 30
0.0
 11
-1741.817313
 21
-177.999718
 31
0.0
 12
-1726.817313
 22
-175.499718
 32
0.0
 13
-1726.817313
 23
-175.499718
 33
0.0
  0
MTEXT
  5
33
100
AcDbEntity
  8
0
  6
BYBLOCK
 62
     5
100
AcDbMText
 10
-1815.317313
 20
-159.839718
 30
0.0
 40
19.32
 41
0.0
 71
     5
 72
     1
  1
\A1;177
  0
POINT
  5
34
100
AcDbEntity
  8
DEFPOINTS
  6
BYBLOCK
 62
     0
100
AcDbPoint
 10
-1903.817313
 20
-60.499718
 30
0.0
  0
POINT
  5
35
100
AcDbEntity
  8
DEFPOINTS
  6
BYBLOCK
 62
     0
100
AcDbPoint
 10
-1726.817313
 20
-60.499718
 30
0.0
  0
POINT
  5
36
100
AcDbEntity
  8
DEFPOINTS
  6
BYBLOCK
 62
     0
100
AcDbPoint
 10
-1726.817313
 20
-175.499718
 30
0.0
  0
ENDBLK
  5
38
100
AcDbEntity
  8
0
100
AcDbBlockEnd
  0
BLOCK
  5
2A
100
AcDbEntity
  8
0
100
AcDbBlockBegin
  2
*D1
 70
     1
 10
0.0
 20
0.0
 30
0.0
  3
*D1
  1

  0
LINE
  5
20
100
AcDbEntity
  8
0
  6
BYBLOCK
100
AcDbLine
 10
-1903.817313
 20
-63.499718
 30
0.0
 11
-1903.817313
 21
-241.499718
 31
0.0
  0
LINE
  5
21
100
AcDbEntity
  8
0
  6
BYBLOCK
100
AcDbLine
 10
-1018.817313
 20
-63.499718
 30
0.0
 11
-1018.817313
 21
-241.499718
 31
0.0
  0
LINE
  5
22
100
AcDbEntity
  8
0
  6
BYBLOCK
100
AcDbLine
 10
-1888.817313
 20
-235.499718
 30
0.0
 11
-1033.817313
 21
-235.499718
 31
0.0
  0
SOLID
  5
23
100
AcDbEntity
  8
0
  6
BYBLOCK
100
AcDbTrace
 10
-1888.817313
 20
-232.999718
 30
0.0
 11
-1888.817313
 21
-237.999718
 31
0.0
 12
-1903.817313
 22
-235.499718
 32
0.0
 13
-1903.817313
 23
-235.499718
 33
0.0
  0
SOLID
  5
24
100
AcDbEntity
  8
0
  6
BYBLOCK
100
AcDbTrace
 10
-1033.817313
 20
-232.999718
 30
0.0
 11
-1033.817313
 21
-237.999718
 31
0.0
 12
-1018.817313
 22
-235.499718
 32
0.0
 13
-1018.817313
 23
-235.499718
 33
0.0
  0
MTEXT
  5
25
100
AcDbEntity
  8
0
  6
BYBLOCK
 62
     5
100
AcDbMText
 10
-1461.317313
 20
-219.839718
 30
0.0
 40
19.32
 41
0.0
 71
     5
 72
     1
  1
\A1;885
  0
POINT
  5
26
100
AcDbEntity
  8
DEFPOINTS
  6
BYBLOCK
 62
     0
100
AcDbPoint
 10
-1903.817313
 20
-60.499718
 30
0.0
  0
POINT
  5
28
100
AcDbEntity
  8
DEFPOINTS
  6
BYBLOCK
 62
     0
100
AcDbPoint
 10
-1018.817313
 20
-60.499718
 30
0.0
  0
POINT
  5
29
100
AcDbEntity
  8
DEFPOINTS
  6
BYBLOCK
 62
     0
100
AcDbPoint
 10
-1018.817313
 20
-235.499718
 30
0.0
  0
ENDBLK
  5
2B
100
AcDbEntity
  8
0
100
AcDbBlockEnd
  0
BLOCK
  5
4B
100
AcDbEntity
  8
0
100
AcDbBlockBegin
  2
*D2
 70
     1
 10
0.0
 20
0.0
 30
0.0
  3
*D2
  1

  0
LINE
  5
42
100
AcDbEntity
  8
0
  6
BYBLOCK
100
AcDbLine
 10
-1015.817313
 20
-60.499718
 30
0.0
 11
-816.888171
 21
-60.499718
 31
0.0
  0
LINE
  5
43
100
AcDbEntity
  8
0
  6
BYBLOCK
100
AcDbLine
 10
-927.317313
 20
-115.499718
 30
0.0
 11
-816.888171
 21
-115.499718
 31
0.0
  0
LINE
  5
44
100
AcDbEntity
  8
0
  6
BYBLOCK
100
AcDbLine
 10
-822.888171
 20
-75.499718
 30
0.0
 11
-822.888171
 21
-100.499718
 31
0.0
  0
SOLID
  5
45
100
AcDbEntity
  8
0
  6
BYBLOCK
100
AcDbTrace
 10
-825.388171
 20
-75.499718
 30
0.0
 11
-820.388171
 21
-75.499718
 31
0.0
 12
-822.888171
 22
-60.499718
 32
0.0
 13
-822.888171
 23
-60.499718
 33
0.0
  0
SOLID
  5
46
100
AcDbEntity
  8
0
  6
BYBLOCK
100
AcDbTrace
 10
-825.388171
 20
-100.499718
 30
0.0
 11
-820.388171
 21
-100.499718
 31
0.0
 12
-822.888171
 22
-115.499718
 32
0.0
 13
-822.888171
 23
-115.499718
 33
0.0
  0
MTEXT
  5
47
100
AcDbEntity
  8
0
  6
BYBLOCK
 62
     5
100
AcDbMText
 10
-838.548171
 20
-87.999718
 30
0.0
 40
19.32
 41
0.0
 71
     5
 72
     1
  1
\A1;55
 11
0.0
 21
1.0
 31
0.0
  0
POINT
  5
48
100
AcDbEntity
  8
DEFPOINTS
  6
BYBLOCK
 62
     0
100
AcDbPoint
 10
-1018.817313
 20
-60.499718
 30
0.0
  0
POINT
  5
49
100
AcDbEntity
  8
DEFPOINTS
  6
BYBLOCK
 62
     0
100
AcDbPoint
 10
-930.317313
 20
-115.499718
 30
0.0
  0
POINT
  5
4A
100
AcDbEntity
  8
DEFPOINTS
  6
BYBLOCK
 62
     0
100
AcDbPoint
 10
-822.888171
 20
-115.499718
 30
0.0
  0
ENDBLK
  5
4C
100
AcDbEntity
  8
0
100
AcDbBlockEnd
  0
ENDSEC
  0
SECTION
  2
ENTITIES
  0
DIMENSION
  5
1E
100
AcDbEntity
  8
KOTY-UPLNE
100
AcDbDimension
  2
*D1
 10
1037.855297
 20
-272.842372
 30
0.0
 11
595.355297
 21
-257.182372
 31
0.0
 12
2056.67261
 22
-37.342654
 32
0.0
  3
UPLNE
100
AcDbAlignedDimension
 13
152.855297
 23
-97.842372
 33
0.0
 14
1037.855297
 24
-97.842372
 34
0.0
100
AcDbRotatedDimension
1001
ACAD
1000
DSTYLE
1002
{
1070
    40
1040
3.0
1070
   147
1040
2.0
1002
}
  0
DIMENSION
  5
2C
100
AcDbEntity
  8
KOTY-UPLNE
100
AcDbDimension
  2
*D0
 10
329.855297
 20
-212.842372
 30
0.0
 11
241.355297
 21
-197.182372
 31
0.0
 12
2056.67261
 22
-37.342654
 32
0.0
  3
UPLNE
100
AcDbAlignedDimension
 13
152.855297
 23
-97.842372
 33
0.0
 14
329.855297
 24
-97.842372
 34
0.0
100
AcDbRotatedDimension
1001
ACAD
1000
DSTYLE
1002
{
1070
    40
1040
3.0
1070
   147
1040
2.0
1002
}
  0
LWPOLYLINE
  5
39
100
AcDbEntity
  8
TRAPEZ-VELKY
100
AcDbPolyline
 90
      231
 70
     0
 43
5.0
 10
1126.355297
 20
-152.842372
 10
1121.930297
 20
-152.503801
 10
1117.505297
 20
-151.496426
 10
1113.080297
 20
-149.845051
 10
1108.655297
 20
-147.590339
 10
1104.230297
 20
-144.787808
 10
1099.805297
 20
-141.506466
 10
1095.380297
 20
-137.827111
 10
1090.955297
 20
-133.840339
 10
1086.530297
 20
-129.64432
 10
1082.105297
 20
-125.342372
 10
1077.680297
 20
-121.040424
 10
1073.255297
 20
-116.844404
 10
1068.830297
 20
-112.857633
 10
1064.405297
 20
-109.178277
 10
1059.980297
 20
-105.896935
 10
1055.555297
 20
-103.094404
 10
1051.130297
 20
-100.839692
 10
1046.705297
 20
-99.188318
 10
1042.280297
 20
-98.180942
 10
1037.855297
 20
-97.842372
 10
1033.430297
 20
-98.180942
 10
1029.005297
 20
-99.188318
 10
1024.580297
 20
-100.839692
 10
1020.155297
 20
-103.094404
 10
1015.730297
 20
-105.896935
 10
1011.305297
 20
-109.178277
 10
1006.880297
 20
-112.857633
 10
1002.455297
 20
-116.844404
 10
998.030297
 20
-121.040424
 10
993.605297
 20
-125.342372
 10
989.180297
 20
-129.64432
 10
984.755297
 20
-133.840339
 10
980.330297
 20
-137.827111
 10
975.905297
 20
-141.506466
 10
971.480297
 20
-144.787808
 10
967.055297
 20
-147.590339
 10
962.630297
 20
-149.845051
 10
958.205297
 20
-151.496426
 10
953.780297
 20
-152.503801
 10
949.355297
 20
-152.842372
 10
944.930297
 20
-152.503801
 10
940.505297
 20
-151.496426
 10
936.080297
 20
-149.845051
 10
931.655297
 20
-147.590339
 10
927.230297
 20
-144.787808
 10
922.805297
 20
-141.506466
 10
918.380297
 20
-137.827111
 10
913.955297
 20
-133.840339
 10
909.530297
 20
-129.64432
 10
905.105297
 20
-125.342372
 10
900.680297
 20
-121.040424
 10
896.255297
 20
-116.844404
 10
891.830297
 20
-112.857633
 10
887.405297
 20
-109.178277
 10
882.980297
 20
-105.896935
 10
878.555297
 20
-103.094404
 10
874.130297
 20
-100.839692
 10
869.705297
 20
-99.188318
 10
865.280297
 20
-98.180942
 10
860.855297
 20
-97.842372
 10
856.430297
 20
-98.180942
 10
852.005297
 20
-99.188318
 10
847.580297
 20
-100.839692
 10
843.155297
 20
-103.094404
 10
838.730297
 20
-105.896935
 10
834.305297
 20
-109.178277
 10
829.880297
 20
-112.857633
 10
825.455297
 20
-116.844404
 10
821.030297
 20
-121.040424
 10
816.605297
 20
-125.342372
 10
812.180297
 20
-129.64432
 10
807.755297
 20
-133.840339
 10
803.330297
 20
-137.827111
 10
798.905297
 20
-141.506466
 10
794.480297
 20
-144.787808
 10
790.055297
 20
-147.590339
 10
785.630297
 20
-149.845051
 10
781.205297
 20
-151.496426
 10
776.780297
 20
-152.503801
 10
772.355297
 20
-152.842372
 10
767.930297
 20
-152.503801
 10
763.505297
 20
-151.496426
 10
759.080297
 20
-149.845051
 10
754.655297
 20
-147.590339
 10
750.230297
 20
-144.787808
 10
745.805297
 20
-141.506466
 10
741.380297
 20
-137.827111
 10
736.955297
 20
-133.840339
 10
732.530297
 20
-129.64432
 10
728.105297
 20
-125.342372
 10
723.680297
 20
-121.040424
 10
719.255297
 20
-116.844404
 10
714.830297
 20
-112.857633
 10
710.405297
 20
-109.178277
 10
705.980297
 20
-105.896935
 10
701.555297
 20
-103.094404
 10
697.130297
 20
-100.839692
 10
692.705297
 20
-99.188318
 10
688.280297
 20
-98.180942
 10
683.855297
 20
-97.842372
 10
679.430297
 20
-98.180942
 10
675.005297
 20
-99.188318
 10
670.580297
 20
-100.839692
 10
666.155297
 20
-103.094404
 10
661.730297
 20
-105.896935
 10
657.305297
 20
-109.178277
 10
652.880297
 20
-112.857633
 10
648.455297
 20
-116.844404
 10
644.030297
 20
-121.040424
 10
639.605297
 20
-125.342372
 10
635.180297
 20
-129.64432
 10
630.755297
 20
-133.840339
 10
626.330297
 20
-137.827111
 10
621.905297
 20
-141.506466
 10
617.480297
 20
-144.787808
 10
613.055297
 20
-147.590339
 10
608.630297
 20
-149.845051
 10
604.205297
 20
-151.496426
 10
599.780297
 20
-152.503801
 10
595.355297
 20
-152.842372
 10
590.930297
 20
-152.503801
 10
586.505297
 20
-151.496426
 10
582.080297
 20
-149.845051
 10
577.655297
 20
-147.590339
 10
573.230297
 20
-144.787808
 10
568.805297
 20
-141.506466
 10
564.380297
 20
-137.827111
 10
559.955297
 20
-133.840339
 10
555.530297
 20
-129.64432
 10
551.105297
 20
-125.342372
 10
546.680297
 20
-121.040424
 10
542.255297
 20
-116.844404
 10
537.830297
 20
-112.857633
 10
533.405297
 20
-109.178277
 10
528.980297
 20
-105.896935
 10
524.555297
 20
-103.094404
 10
520.130297
 20
-100.839692
 10
515.705297
 20
-99.188318
 10
511.280297
 20
-98.180942
 10
506.855297
 20
-97.842372
 10
502.430297
 20
-98.180942
 10
498.005297
 20
-99.188318
 10
493.580297
 20
-100.839692
 10
489.155297
 20
-103.094404
 10
484.730297
 20
-105.896935
 10
480.305297
 20
-109.178277
 10
475.880297
 20
-112.857633
 10
471.455297
 20
-116.844404
 10
467.030297
 20
-121.040424
 10
462.605297
 20
-125.342372
 10
458.180297
 20
-129.64432
 10
453.755297
 20
-133.840339
 10
449.330297
 20
-137.827111
 10
444.905297
 20
-141.506466
 10
440.480297
 20
-144.787808
 10
436.055297
 20
-147.590339
 10
431.630297
 20
-149.845051
 10
427.205297
 20
-151.496426
 10
422.780297
 20
-152.503801
 10
418.355297
 20
-152.842372
 10
413.930297
 20
-152.503801
 10
409.505297
 20
-151.496426
 10
405.080297
 20
-149.845051
 10
400.655297
 20
-147.590339
 10
396.230297
 20
-144.787808
 10
391.805297
 20
-141.506466
 10
387.380297
 20
-137.827111
 10
382.955297
 20
-133.840339
 10
378.530297
 20
-129.64432
 10
374.105297
 20
-125.342372
 10
369.680297
 20
-121.040424
 10
365.255297
 20
-116.844404
 10
360.830297
 20
-112.857633
 10
356.405297
 20
-109.178277
 10
351.980297
 20
-105.896935
 10
347.555297
 20
-103.094404
 10
343.130297
 20
-100.839692
 10
338.705297
 20
-99.188318
 10
334.280297
 20
-98.180942
 10
329.855297
 20
-97.842372
 10
325.430297
 20
-98.180942
 10
321.005297
 20
-99.188318
 10
316.580297
 20
-100.839692
 10
312.155297
 20
-103.094404
 10
307.730297
 20
-105.896935
 10
303.305297
 20
-109.178277
 10
298.880297
 20
-112.857633
 10
294.455297
 20
-116.844404
 10
290.030297
 20
-121.040424
 10
285.605297
 20
-125.342372
 10
281.180297
 20
-129.64432
 10
276.755297
 20
-133.840339
 10
272.330297
 20
-137.827111
 10
267.905297
 20
-141.506466
 10
263.480297
 20
-144.787808
 10
259.055297
 20
-147.590339
 10
254.630297
 20
-149.845051
 10
250.205297
 20
-151.496426
 10
245.780297
 20
-152.503801
 10
241.355297
 20
-152.842372
 10
236.930297
 20
-152.503801
 10
232.505297
 20
-151.496426
 10
228.080297
 20
-149.845051
 10
223.655297
 20
-147.590339
 10
219.230297
 20
-144.787808
 10
214.805297
 20
-141.506466
 10
210.380297
 20
-137.827111
 10
205.955297
 20
-133.840339
 10
201.530297
 20
-129.64432
 10
197.105297
 20
-125.342372
 10
192.680297
 20
-121.040424
 10
188.255297
 20
-116.844404
 10
183.830297
 20
-112.857633
 10
179.405297
 20
-109.178277
 10
174.980297
 20
-105.896935
 10
170.555297
 20
-103.094404
 10
166.130297
 20
-100.839692
 10
161.705297
 20
-99.188318
 10
157.280297
 20
-98.180942
 10
152.855297
 20
-97.842372
 10
148.430297
 20
-98.180942
 10
144.005297
 20
-99.188318
 10
139.580297
 20
-100.839692
 10
135.155297
 20
-103.094404
 10
130.730297
 20
-105.896935
 10
126.305297
 20
-109.178277
 10
121.880297
 20
-112.857633
 10
117.455297
 20
-116.844404
 10
113.030297
 20
-121.040424
 10
108.605297
 20
-125.342372
  0
LWPOLYLINE
  5
3B
100
AcDbEntity
  8
RAMEC
100
AcDbPolyline
 90
        4
 70
     1
 43
0.0
 10
0.0
 20
0.0
 10
0.0
 20
-322.001233
 10
1349.672502
 20
-322.001233
 10
1349.672502
 20
0.0
  0
MTEXT
  5
3D
100
AcDbEntity
  8
POPIS
100
AcDbMText
 10
661.730741
 20
-42.124031
 30
0.0
 40
40.0
 41
1.0
 71
     5
 72
     1
  1
SP 55
  7
STYLE1
  0
DIMENSION
  5
40
100
AcDbEntity
  8
KOTY-UPLNE
100
AcDbDimension
  2
*D2
 10
1233.784439
 20
-152.842372
 30
0.0
 11
1218.124439
 21
-125.342372
 31
0.0
 12
2056.67261
 22
-37.342654
 32
0.0
  3
UPLNE
100
AcDbAlignedDimension
 13
1037.855297
 23
-97.842372
 33
0.0
 14
1126.355297
 24
-152.842372
 34
0.0
 50
90.0
100
AcDbRotatedDimension
1001
ACAD
1000
DSTYLE
1002
{
1070
    40
1040
3.0
1070
   147
1040
2.0
1002
}
  0
ENDSEC
  0
SECTION
  2
OBJECTS
  0
DICTIONARY
  5
1A
100
AcDbDictionary
  3
ACAD_GROUP
350
18
  3
ACAD_MLINESTYLE
350
19
  0
DICTIONARY
  5
18
102
{ACAD_REACTORS
330
1A
102
}
100
AcDbDictionary
  0
DICTIONARY
  5
19
102
{ACAD_REACTORS
330
1A
102
}
100
AcDbDictionary
  3
STANDARD
350
1C
  0
MLINESTYLE
  5
1C
102
{ACAD_REACTORS
330
19
102
}
100
AcDbMlineStyle
  2
STANDARD
 70
     0
  3

 62
   256
 51
90.0
 52
90.0
 71
     2
 49
0.5
 62
   256
  6
BYLAYER
 49
-0.5
 62
   256
  6
BYLAYER
  0
ENDSEC
  0
EOF
