  0
SECTION
  2
HEADER
  9
$ACADVER
  1
AC1014
  9
$ACADMAINTVER
 70
     0
  9
$DWGCODEPAGE
  3
ANSI_1250
  9
$INSBASE
 10
0.0
 20
0.0
 30
0.0
  9
$EXTMIN
 10
0.0
 20
-358.301233
 30
0.0
  9
$EXTMAX
 10
1349.672502
 20
0.0
 30
0.0
  9
$LIMMIN
 10
-1000.0
 20
-1000.0
  9
$LIMMAX
 10
1000.0
 20
1000.0
  9
$ORTHOMODE
 70
     0
  9
$REGENMODE
 70
     1
  9
$FILLMODE
 70
     1
  9
$QTEXTMODE
 70
     0
  9
$MIRRTEXT
 70
     0
  9
$DRAGMODE
 70
     2
  9
$LTSCALE
 40
3.0
  9
$OSMODE
 70
    32
  9
$ATTMODE
 70
     1
  9
$TEXTSIZE
 40
50.0
  9
$TRACEWID
 40
0.05
  9
$TEXTSTYLE
  7
STANDARD
  9
$CLAYER
  8
KOTY-UPLNE
  9
$CELTYPE
  6
BYLAYER
  9
$CECOLOR
 62
   256
  9
$CELTSCALE
 40
1.0
  9
$DELOBJ
 70
     1
  9
$DISPSILH
 70
     0
  9
$DIMSCALE
 40
3.0
  9
$DIMASZ
 40
5.0
  9
$DIMEXO
 40
1.0
  9
$DIMDLI
 40
0.0
  9
$DIMRND
 40
1.0
  9
$DIMDLE
 40
1.0
  9
$DIMEXE
 40
2.0
  9
$DIMTP
 40
0.0
  9
$DIMTM
 40
0.0
  9
$DIMTXT
 40
6.44
  9
$DIMCEN
 40
1.0
  9
$DIMTSZ
 40
0.0
  9
$DIMTOL
 70
     0
  9
$DIMLIM
 70
     0
  9
$DIMTIH
 70
     0
  9
$DIMTOH
 70
     0
  9
$DIMSE1
 70
     0
  9
$DIMSE2
 70
     0
  9
$DIMTAD
 70
     3
  9
$DIMZIN
 70
     0
  9
$DIMBLK
  1

  9
$DIMASO
 70
     1
  9
$DIMSHO
 70
     0
  9
$DIMPOST
  1

  9
$DIMAPOST
  1

  9
$DIMALT
 70
     0
  9
$DIMALTD
 70
     2
  9
$DIMALTF
 40
25.4
  9
$DIMLFAC
 40
1.0
  9
$DIMTOFL
 70
     1
  9
$DIMTVP
 40
0.0
  9
$DIMTIX
 70
     1
  9
$DIMSOXD
 70
     0
  9
$DIMSAH
 70
     0
  9
$DIMBLK1
  1

  9
$DIMBLK2
  1

  9
$DIMSTYLE
  2
UPLNE
  9
$DIMCLRD
 70
   256
  9
$DIMCLRE
 70
   256
  9
$DIMCLRT
 70
     5
  9
$DIMTFAC
 40
1.0
  9
$DIMGAP
 40
2.0
  9
$DIMJUST
 70
     0
  9
$DIMSD1
 70
     0
  9
$DIMSD2
 70
     0
  9
$DIMTOLJ
 70
     1
  9
$DIMTZIN
 70
     0
  9
$DIMALTZ
 70
     0
  9
$DIMALTTZ
 70
     0
  9
$DIMFIT
 70
     5
  9
$DIMUPT
 70
     0
  9
$DIMUNIT
 70
     2
  9
$DIMDEC
 70
     0
  9
$DIMTDEC
 70
     0
  9
$DIMALTU
 70
     2
  9
$DIMALTTD
 70
     2
  9
$DIMTXSTY
  7
STANDARD
  9
$DIMAUNIT
 70
     0
  9
$LUNITS
 70
     2
  9
$LUPREC
 70
     2
  9
$SKETCHINC
 40
0.1
  9
$FILLETRAD
 40
5.0
  9
$AUNITS
 70
     0
  9
$AUPREC
 70
     2
  9
$MENU
  1
acad
  9
$ELEVATION
 40
0.0
  9
$PELEVATION
 40
0.0
  9
$THICKNESS
 40
0.0
  9
$LIMCHECK
 70
     0
  9
$BLIPMODE
 70
     1
  9
$CHAMFERA
 40
0.0
  9
$CHAMFERB
 40
0.0
  9
$CHAMFERC
 40
0.0
  9
$CHAMFERD
 40
0.0
  9
$SKPOLY
 70
     0
  9
$TDCREATE
 40
2448722.252204629
  9
$TDUPDATE
 40
2452465.887158564
  9
$TDINDWG
 40
2.5237589120
  9
$TDUSRTIMER
 40
2.5237589120
  9
$USRTIMER
 70
     1
  9
$ANGBASE
 50
0.0
  9
$ANGDIR
 70
     0
  9
$PDMODE
 70
     0
  9
$PDSIZE
 40
0.0
  9
$PLINEWID
 40
0.0
  9
$COORDS
 70
     2
  9
$SPLFRAME
 70
     0
  9
$SPLINETYPE
 70
     6
  9
$SPLINESEGS
 70
     8
  9
$ATTDIA
 70
     0
  9
$ATTREQ
 70
     1
  9
$HANDLING
 70
     1
  9
$HANDSEED
  5
126
  9
$SURFTAB1
 70
     6
  9
$SURFTAB2
 70
     6
  9
$SURFTYPE
 70
     6
  9
$SURFU
 70
     6
  9
$SURFV
 70
     6
  9
$UCSNAME
  2

  9
$UCSORG
 10
0.0
 20
0.0
 30
0.0
  9
$UCSXDIR
 10
1.0
 20
0.0
 30
0.0
  9
$UCSYDIR
 10
0.0
 20
1.0
 30
0.0
  9
$PUCSNAME
  2

  9
$PUCSORG
 10
0.0
 20
0.0
 30
0.0
  9
$PUCSXDIR
 10
1.0
 20
0.0
 30
0.0
  9
$PUCSYDIR
 10
0.0
 20
1.0
 30
0.0
  9
$USERI1
 70
     1
  9
$USERI2
 70
     0
  9
$USERI3
 70
     0
  9
$USERI4
 70
     0
  9
$USERI5
 70
     0
  9
$USERR1
 40
0.0
  9
$USERR2
 40
0.0
  9
$USERR3
 40
0.0
  9
$USERR4
 40
0.0
  9
$USERR5
 40
0.0
  9
$WORLDVIEW
 70
     1
  9
$SHADEDGE
 70
     3
  9
$SHADEDIF
 70
    70
  9
$TILEMODE
 70
     1
  9
$MAXACTVP
 70
    16
  9
$PINSBASE
 10
0.0
 20
0.0
 30
0.0
  9
$PLIMCHECK
 70
     0
  9
$PEXTMIN
 10
1.000000E+20
 20
1.000000E+20
 30
1.000000E+20
  9
$PEXTMAX
 10
-1.000000E+20
 20
-1.000000E+20
 30
-1.000000E+20
  9
$PLIMMIN
 10
0.0
 20
0.0
  9
$PLIMMAX
 10
12.0
 20
9.0
  9
$UNITMODE
 70
     0
  9
$VISRETAIN
 70
     0
  9
$PLINEGEN
 70
     0
  9
$PSLTSCALE
 70
     0
  9
$TREEDEPTH
 70
  3020
  9
$PICKSTYLE
 70
     0
  9
$CMLSTYLE
  2
STANDARD
  9
$CMLJUST
 70
     0
  9
$CMLSCALE
 40
1.0
  9
$PROXYGRAPHICS
 70
     1
  9
$MEASUREMENT
 70
     0
  0
ENDSEC
  0
SECTION
  2
CLASSES
  0
CLASS
  1
LWPOLYLINE
  2
AcDbPolyline
  3
"AutoCAD"
 90
        0
280
     0
281
     1
  0
CLASS
  1
DICTIONARYVAR
  2
AcDbDictionaryVar
  3
"AutoCAD"
 90
        0
280
     0
281
     0
  0
ENDSEC
  0
SECTION
  2
TABLES
  0
TABLE
  2
VPORT
  5
12
100
AcDbSymbolTable
 70
     2
  0
VPORT
  5
125
100
AcDbSymbolTableRecord
100
AcDbViewportTableRecord
  2
*ACTIVE
 70
     0
 10
0.0
 20
0.0
 11
1.0
 21
1.0
 12
698.870144
 22
-177.825785
 13
0.0
 23
0.0
 14
1.0
 24
1.0
 15
600.0
 25
600.0
 16
0.0
 26
0.0
 36
1.0
 17
0.0
 27
0.0
 37
0.0
 40
720.105634
 41
2.224444
 42
50.0
 43
0.0
 44
0.0
 50
0.0
 51
0.0
 71
     0
 72
   100
 73
     1
 74
     0
 75
     0
 76
     0
 77
     0
 78
     0
  0
ENDTAB
  0
TABLE
  2
LTYPE
  5
D
100
AcDbSymbolTable
 70
     1
  0
LTYPE
  5
E
100
AcDbSymbolTableRecord
100
AcDbLinetypeTableRecord
  2
BYBLOCK
 70
     0
  3

 72
    65
 73
     0
 40
0.0
  0
LTYPE
  5
F
100
AcDbSymbolTableRecord
100
AcDbLinetypeTableRecord
  2
BYLAYER
 70
     0
  3

 72
    65
 73
     0
 40
0.0
  0
LTYPE
  5
5
100
AcDbSymbolTableRecord
100
AcDbLinetypeTableRecord
  2
CONTINUOUS
 70
     0
  3
Solid line
 72
    65
 73
     0
 40
0.0
  0
ENDTAB
  0
TABLE
  2
LAYER
  5
A
100
AcDbSymbolTable
 70
     7
  0
LAYER
  5
4
100
AcDbSymbolTableRecord
100
AcDbLayerTableRecord
  2
0
 70
     0
 62
     7
  6
CONTINUOUS
  0
LAYER
  5
1B
100
AcDbSymbolTableRecord
100
AcDbLayerTableRecord
  2
KOTY-UPLNE
 70
     0
 62
     7
  6
CONTINUOUS
  0
LAYER
  5
42
100
AcDbSymbolTableRecord
100
AcDbLayerTableRecord
  2
RAMEC
 70
     0
 62
     5
  6
CONTINUOUS
  0
LAYER
  5
CC
100
AcDbSymbolTableRecord
100
AcDbLayerTableRecord
  2
POZICE
 70
     0
 62
     1
  6
CONTINUOUS
  0
LAYER
  5
3F
100
AcDbSymbolTableRecord
100
AcDbLayerTableRecord
  2
POPIS
 70
     0
 62
     1
  6
CONTINUOUS
  0
LAYER
  5
28
100
AcDbSymbolTableRecord
100
AcDbLayerTableRecord
  2
DEFPOINTS
 70
     0
 62
     7
  6
CONTINUOUS
  0
LAYER
  5
3D
100
AcDbSymbolTableRecord
100
AcDbLayerTableRecord
  2
TRAPEZ-VELKY
 70
     0
 62
     7
  6
CONTINUOUS
  0
ENDTAB
  0
TABLE
  2
STYLE
  5
B
100
AcDbSymbolTable
 70
     2
  0
STYLE
  5
C
100
AcDbSymbolTableRecord
100
AcDbTextStyleTableRecord
  2
STANDARD
 70
     0
 40
0.0
 41
0.9
 50
0.0
 71
     0
 42
50.0
  3
simplex.shx
  4

  0
STYLE
  5
40
100
AcDbSymbolTableRecord
100
AcDbTextStyleTableRecord
  2
STYLE1
 70
     0
 40
0.0
 41
0.9
 50
0.0
 71
     0
 42
50.0
  3
simplex.shx
  4

  0
ENDTAB
  0
TABLE
  2
VIEW
  5
10
100
AcDbSymbolTable
 70
     0
  0
ENDTAB
  0
TABLE
  2
UCS
  5
11
100
AcDbSymbolTable
 70
     0
  0
ENDTAB
  0
TABLE
  2
APPID
  5
14
100
AcDbSymbolTable
 70
     1
  0
APPID
  5
15
100
AcDbSymbolTableRecord
100
AcDbRegAppTableRecord
  2
ACAD
 70
     0
  0
ENDTAB
  0
TABLE
  2
DIMSTYLE
  5
16
100
AcDbSymbolTable
 70
     1
  0
DIMSTYLE
105
1D
102
{ACAD_REACTORS
330
7F
330
6F
330
8E
330
BC
330
2D
330
5F
330
43
330
1F
330
CE
330
50
330
AD
330
9E
330
10F
330
FF
330
EF
330
DF
102
}
100
AcDbSymbolTableRecord
100
AcDbDimStyleTableRecord
  2
UPLNE
 70
     0
  3

  4

  5

  6

  7

 40
5.0
 41
5.0
 42
1.0
 43
0.0
 44
2.0
 45
1.0
 46
1.0
 47
0.0
 48
0.0
140
6.44
141
1.0
142
0.0
143
25.4
144
1.0
145
0.0
146
1.0
147
1.0
 71
     0
 72
     0
 73
     0
 74
     0
 75
     0
 76
     0
 77
     3
 78
     0
170
     0
171
     2
172
     1
173
     0
174
     1
175
     0
176
   256
177
   256
178
     5
270
     2
271
     0
272
     0
273
     2
274
     2
340
C
275
     0
280
     0
281
     0
282
     0
283
     1
284
     0
285
     0
286
     0
287
     5
288
     0
  0
ENDTAB
  0
TABLE
  2
BLOCK_RECORD
  5
1
100
AcDbSymbolTable
 70
    16
  0
BLOCK_RECORD
  5
2
100
AcDbSymbolTableRecord
100
AcDbBlockTableRecord
  2
*MODEL_SPACE
  0
BLOCK_RECORD
  5
7
100
AcDbSymbolTableRecord
100
AcDbBlockTableRecord
  2
*PAPER_SPACE
  0
BLOCK_RECORD
  5
80
100
AcDbSymbolTableRecord
100
AcDbBlockTableRecord
  2
*D0
  0
BLOCK_RECORD
  5
70
100
AcDbSymbolTableRecord
100
AcDbBlockTableRecord
  2
*D1
  0
BLOCK_RECORD
  5
8F
100
AcDbSymbolTableRecord
100
AcDbBlockTableRecord
  2
*D2
  0
BLOCK_RECORD
  5
BD
100
AcDbSymbolTableRecord
100
AcDbBlockTableRecord
  2
*D3
  0
BLOCK_RECORD
  5
2E
100
AcDbSymbolTableRecord
100
AcDbBlockTableRecord
  2
*D4
  0
BLOCK_RECORD
  5
60
100
AcDbSymbolTableRecord
100
AcDbBlockTableRecord
  2
*D5
  0
BLOCK_RECORD
  5
44
100
AcDbSymbolTableRecord
100
AcDbBlockTableRecord
  2
*D6
  0
BLOCK_RECORD
  5
20
100
AcDbSymbolTableRecord
100
AcDbBlockTableRecord
  2
*D7
  0
BLOCK_RECORD
  5
CF
100
AcDbSymbolTableRecord
100
AcDbBlockTableRecord
  2
*D8
  0
BLOCK_RECORD
  5
51
100
AcDbSymbolTableRecord
100
AcDbBlockTableRecord
  2
*D9
  0
BLOCK_RECORD
  5
AE
100
AcDbSymbolTableRecord
100
AcDbBlockTableRecord
  2
*D10
  0
BLOCK_RECORD
  5
9F
100
AcDbSymbolTableRecord
100
AcDbBlockTableRecord
  2
*D11
  0
BLOCK_RECORD
  5
110
100
AcDbSymbolTableRecord
100
AcDbBlockTableRecord
  2
*D12
  0
BLOCK_RECORD
  5
100
100
AcDbSymbolTableRecord
100
AcDbBlockTableRecord
  2
*D13
  0
BLOCK_RECORD
  5
F0
100
AcDbSymbolTableRecord
100
AcDbBlockTableRecord
  2
*D14
  0
BLOCK_RECORD
  5
E0
100
AcDbSymbolTableRecord
100
AcDbBlockTableRecord
  2
*D15
  0
ENDTAB
  0
ENDSEC
  0
SECTION
  2
BLOCKS
  0
BLOCK
  5
3
100
AcDbEntity
  8
0
100
AcDbBlockBegin
  2
*MODEL_SPACE
 70
     0
 10
0.0
 20
0.0
 30
0.0
  3
*MODEL_SPACE
  1

  0
ENDBLK
  5
6
100
AcDbEntity
  8
0
100
AcDbBlockEnd
  0
BLOCK
  5
8
100
AcDbEntity
 67
     1
  8
0
100
AcDbBlockBegin
  2
*PAPER_SPACE
 70
     0
 10
0.0
 20
0.0
 30
0.0
  3
*PAPER_SPACE
  1

  0
ENDBLK
  5
9
100
AcDbEntity
 67
     1
  8
0
100
AcDbBlockEnd
  0
BLOCK
  5
8C
100
AcDbEntity
  8
0
100
AcDbBlockBegin
  2
*D0
 70
     1
 10
0.0
 20
0.0
 30
0.0
  3
*D0
  1

  0
LINE
  5
81
100
AcDbEntity
  8
0
  6
BYBLOCK
100
AcDbLine
 10
1230.854848
 20
1691.390633
 30
0.0
 11
1230.854848
 21
1733.202315
 31
0.0
  0
LINE
  5
82
100
AcDbEntity
  8
0
  6
BYBLOCK
100
AcDbLine
 10
1280.570997
 20
1691.390633
 30
0.0
 11
1280.570997
 21
1733.202315
 31
0.0
  0
LINE
  5
83
100
AcDbEntity
  8
0
  6
BYBLOCK
100
AcDbLine
 10
1215.854848
 20
1727.202315
 30
0.0
 11
1200.854848
 21
1727.202315
 31
0.0
  0
LINE
  5
84
100
AcDbEntity
  8
0
  6
BYBLOCK
100
AcDbLine
 10
1295.570997
 20
1727.202315
 30
0.0
 11
1310.570997
 21
1727.202315
 31
0.0
  0
LINE
  5
85
100
AcDbEntity
  8
0
  6
BYBLOCK
100
AcDbLine
 10
1230.854848
 20
1727.202315
 30
0.0
 11
1280.570997
 21
1727.202315
 31
0.0
  0
SOLID
  5
86
100
AcDbEntity
  8
0
  6
BYBLOCK
100
AcDbTrace
 10
1215.854848
 20
1729.702315
 30
0.0
 11
1215.854848
 21
1724.702315
 31
0.0
 12
1230.854848
 22
1727.202315
 32
0.0
 13
1230.854848
 23
1727.202315
 33
0.0
  0
SOLID
  5
87
100
AcDbEntity
  8
0
  6
BYBLOCK
100
AcDbTrace
 10
1295.570997
 20
1729.702315
 30
0.0
 11
1295.570997
 21
1724.702315
 31
0.0
 12
1280.570997
 22
1727.202315
 32
0.0
 13
1280.570997
 23
1727.202315
 33
0.0
  0
MTEXT
  5
88
100
AcDbEntity
  8
0
  6
BYBLOCK
 62
     5
100
AcDbMText
 10
1255.712923
 20
1744.702315
 30
0.0
 40
19.32
 41
0.0
 71
     5
 72
     1
  1
\A1;49,7
  0
POINT
  5
89
100
AcDbEntity
  8
DEFPOINTS
  6
BYBLOCK
 62
     0
100
AcDbPoint
 10
1230.854848
 20
1688.390633
 30
0.0
  0
POINT
  5
8A
100
AcDbEntity
  8
DEFPOINTS
  6
BYBLOCK
 62
     0
100
AcDbPoint
 10
1280.570997
 20
1688.390633
 30
0.0
  0
POINT
  5
8B
100
AcDbEntity
  8
DEFPOINTS
  6
BYBLOCK
 62
     0
100
AcDbPoint
 10
1280.570997
 20
1727.202315
 30
0.0
  0
ENDBLK
  5
8D
100
AcDbEntity
  8
0
100
AcDbBlockEnd
  0
BLOCK
  5
7D
100
AcDbEntity
  8
0
100
AcDbBlockBegin
  2
*D1
 70
     1
 10
0.0
 20
0.0
 30
0.0
  3
*D1
  1

  0
LINE
  5
71
100
AcDbEntity
  8
0
  6
BYBLOCK
100
AcDbLine
 10
1338.712923
 20
1654.172677
 30
0.0
 11
1416.559818
 21
1654.172677
 31
0.0
  0
LINE
  5
72
100
AcDbEntity
  8
0
  6
BYBLOCK
100
AcDbLine
 10
1363.572923
 20
1650.630633
 30
0.0
 11
1416.559818
 21
1650.630633
 31
0.0
  0
LINE
  5
73
100
AcDbEntity
  8
0
  6
BYBLOCK
100
AcDbLine
 10
1410.559818
 20
1669.172677
 30
0.0
 11
1410.559818
 21
1684.172677
 31
0.0
  0
LINE
  5
74
100
AcDbEntity
  8
0
  6
BYBLOCK
100
AcDbLine
 10
1410.559818
 20
1635.630633
 30
0.0
 11
1410.559818
 21
1620.630633
 31
0.0
  0
MTEXT
  5
75
100
AcDbEntity
  8
0
  6
BYBLOCK
 62
     5
100
AcDbMText
 10
1394.809818
 20
1634.431107
 30
0.0
 40
19.32
 41
0.0
 71
     5
 72
     1
  1
\A1;3
 11
0.0
 21
1.0
 31
0.0
  0
LINE
  5
76
100
AcDbEntity
  8
0
  6
BYBLOCK
100
AcDbLine
 10
1410.559818
 20
1654.172677
 30
0.0
 11
1410.559818
 21
1650.630633
 31
0.0
  0
LINE
  5
77
100
AcDbEntity
  8
0
  6
BYBLOCK
100
AcDbLine
 10
1410.559818
 20
1654.172677
 30
0.0
 11
1410.559818
 21
1650.630633
 31
0.0
  0
SOLID
  5
78
100
AcDbEntity
  8
0
  6
BYBLOCK
100
AcDbTrace
 10
1408.059818
 20
1669.172677
 30
0.0
 11
1413.059818
 21
1669.172677
 31
0.0
 12
1410.559818
 22
1654.172677
 32
0.0
 13
1410.559818
 23
1654.172677
 33
0.0
  0
SOLID
  5
79
100
AcDbEntity
  8
0
  6
BYBLOCK
100
AcDbTrace
 10
1408.059818
 20
1635.630633
 30
0.0
 11
1413.059818
 21
1635.630633
 31
0.0
 12
1410.559818
 22
1650.630633
 32
0.0
 13
1410.559818
 23
1650.630633
 33
0.0
  0
POINT
  5
7A
100
AcDbEntity
  8
DEFPOINTS
  6
BYBLOCK
 62
     0
100
AcDbPoint
 10
1335.712923
 20
1654.172677
 30
0.0
  0
POINT
  5
7B
100
AcDbEntity
  8
DEFPOINTS
  6
BYBLOCK
 62
     0
100
AcDbPoint
 10
1360.572923
 20
1650.630633
 30
0.0
  0
POINT
  5
7C
100
AcDbEntity
  8
DEFPOINTS
  6
BYBLOCK
 62
     0
100
AcDbPoint
 10
1410.559818
 20
1650.630633
 30
0.0
  0
ENDBLK
  5
7E
100
AcDbEntity
  8
0
100
AcDbBlockEnd
  0
BLOCK
  5
9C
100
AcDbEntity
  8
0
100
AcDbBlockBegin
  2
*D2
 70
     1
 10
0.0
 20
0.0
 30
0.0
  3
*D2
  1

  0
LINE
  5
90
100
AcDbEntity
  8
0
  6
BYBLOCK
100
AcDbLine
 10
1418.712923
 20
1684.849701
 30
0.0
 11
1503.683054
 21
1684.849701
 31
0.0
  0
LINE
  5
91
100
AcDbEntity
  8
0
  6
BYBLOCK
100
AcDbLine
 10
1424.845997
 20
1688.390633
 30
0.0
 11
1503.683054
 21
1688.390633
 31
0.0
  0
LINE
  5
92
100
AcDbEntity
  8
0
  6
BYBLOCK
100
AcDbLine
 10
1497.683054
 20
1669.849701
 30
0.0
 11
1497.683054
 21
1654.849701
 31
0.0
  0
LINE
  5
93
100
AcDbEntity
  8
0
  6
BYBLOCK
100
AcDbLine
 10
1497.683054
 20
1703.390633
 30
0.0
 11
1497.683054
 21
1718.390633
 31
0.0
  0
MTEXT
  5
94
100
AcDbEntity
  8
0
  6
BYBLOCK
 62
     5
100
AcDbMText
 10
1481.933054
 20
1706.240102
 30
0.0
 40
19.32
 41
0.0
 71
     5
 72
     1
  1
\A1;3
 11
0.0
 21
1.0
 31
0.0
  0
LINE
  5
95
100
AcDbEntity
  8
0
  6
BYBLOCK
100
AcDbLine
 10
1497.683054
 20
1684.849701
 30
0.0
 11
1497.683054
 21
1688.390633
 31
0.0
  0
LINE
  5
96
100
AcDbEntity
  8
0
  6
BYBLOCK
100
AcDbLine
 10
1497.683054
 20
1684.849701
 30
0.0
 11
1497.683054
 21
1688.390633
 31
0.0
  0
SOLID
  5
97
100
AcDbEntity
  8
0
  6
BYBLOCK
100
AcDbTrace
 10
1495.183054
 20
1669.849701
 30
0.0
 11
1500.183054
 21
1669.849701
 31
0.0
 12
1497.683054
 22
1684.849701
 32
0.0
 13
1497.683054
 23
1684.849701
 33
0.0
  0
SOLID
  5
98
100
AcDbEntity
  8
0
  6
BYBLOCK
100
AcDbTrace
 10
1495.183054
 20
1703.390633
 30
0.0
 11
1500.183054
 21
1703.390633
 31
0.0
 12
1497.683054
 22
1688.390633
 32
0.0
 13
1497.683054
 23
1688.390633
 33
0.0
  0
POINT
  5
99
100
AcDbEntity
  8
DEFPOINTS
  6
BYBLOCK
 62
     0
100
AcDbPoint
 10
1415.712923
 20
1684.849701
 30
0.0
  0
POINT
  5
9A
100
AcDbEntity
  8
DEFPOINTS
  6
BYBLOCK
 62
     0
100
AcDbPoint
 10
1421.845997
 20
1688.390633
 30
0.0
  0
POINT
  5
9B
100
AcDbEntity
  8
DEFPOINTS
  6
BYBLOCK
 62
     0
100
AcDbPoint
 10
1497.683054
 20
1688.390633
 30
0.0
  0
ENDBLK
  5
9D
100
AcDbEntity
  8
0
100
AcDbBlockEnd
  0
BLOCK
  5
C9
100
AcDbEntity
  8
0
100
AcDbBlockBegin
  2
*D3
 70
     1
 10
0.0
 20
0.0
 30
0.0
  3
*D3
  1

  0
LINE
  5
BE
100
AcDbEntity
  8
0
  6
BYBLOCK
100
AcDbLine
 10
1603.570997
 20
1688.390633
 30
0.0
 11
1666.03081
 21
1688.390633
 31
0.0
  0
LINE
  5
BF
100
AcDbEntity
  8
0
  6
BYBLOCK
100
AcDbLine
 10
1584.444073
 20
1689.890633
 30
0.0
 11
1654.752183
 21
1730.483039
 31
0.0
  0
ARC
  5
C0
100
AcDbEntity
  8
0
  6
BYBLOCK
100
AcDbCircle
 10
1581.845997
 20
1688.390633
 30
0.0
 40
78.184813
100
AcDbArc
 50
11.009303
 51
18.990697
  0
SOLID
  5
C1
100
AcDbEntity
  8
0
  6
BYBLOCK
100
AcDbTrace
 10
1661.080382
 20
1703.561275
 30
0.0
 11
1656.10344
 21
1703.081643
 31
0.0
 12
1660.03081
 22
1688.390633
 32
0.0
 13
1660.03081
 23
1688.390633
 33
0.0
  0
SOLID
  5
C2
100
AcDbEntity
  8
0
  6
BYBLOCK
100
AcDbTrace
 10
1653.500334
 20
1712.796567
 30
0.0
 11
1658.050309
 21
1714.869664
 31
0.0
 12
1649.556031
 22
1727.483039
 32
0.0
 13
1649.556031
 23
1727.483039
 33
0.0
  0
MTEXT
  5
C3
100
AcDbEntity
  8
0
  6
BYBLOCK
 62
     5
100
AcDbMText
 10
1672.493125
 20
1712.679458
 30
0.0
 40
19.32
 41
0.0
 71
     5
 72
     1
  1
\A1;30°
 11
0.258819
 21
-0.965926
 31
0.0
  0
POINT
  5
C4
100
AcDbEntity
  8
DEFPOINTS
  6
BYBLOCK
 62
     0
100
AcDbPoint
 10
1658.843007
 20
1701.967283
 30
0.0
  0
POINT
  5
C5
100
AcDbEntity
  8
DEFPOINTS
  6
BYBLOCK
 62
     0
100
AcDbPoint
 10
1581.845997
 20
1688.390633
 30
0.0
  0
POINT
  5
C6
100
AcDbEntity
  8
DEFPOINTS
  6
BYBLOCK
 62
     0
100
AcDbPoint
 10
1600.570997
 20
1688.390633
 30
0.0
  0
POINT
  5
C7
100
AcDbEntity
  8
DEFPOINTS
  6
BYBLOCK
 62
     0
100
AcDbPoint
 10
1581.845997
 20
1688.390633
 30
0.0
  0
POINT
  5
C8
100
AcDbEntity
  8
DEFPOINTS
  6
BYBLOCK
 62
     0
100
AcDbPoint
 10
1575.712923
 20
1684.849701
 30
0.0
  0
ENDBLK
  5
CA
100
AcDbEntity
  8
0
100
AcDbBlockEnd
  0
BLOCK
  5
3A
100
AcDbEntity
  8
0
100
AcDbBlockBegin
  2
*D4
 70
     1
 10
0.0
 20
0.0
 30
0.0
  3
*D4
  1

  0
LINE
  5
2F
100
AcDbEntity
  8
0
  6
BYBLOCK
100
AcDbLine
 10
1504.445999
 20
1649.130633
 30
0.0
 11
1594.699847
 21
1597.022549
 31
0.0
  0
LINE
  5
30
100
AcDbEntity
  8
0
  6
BYBLOCK
100
AcDbLine
 10
1523.572923
 20
1650.630633
 30
0.0
 11
1609.064089
 21
1650.630633
 31
0.0
  0
ARC
  5
31
100
AcDbEntity
  8
0
  6
BYBLOCK
100
AcDbCircle
 10
1501.847923
 20
1650.630633
 30
0.0
 40
101.216167
100
AcDbArc
 50
338.49889
 51
351.50111
  0
SOLID
  5
32
100
AcDbEntity
  8
0
  6
BYBLOCK
100
AcDbTrace
 10
1598.272239
 20
1612.446825
 30
0.0
 11
1593.768769
 21
1614.619095
 31
0.0
 12
1589.503694
 22
1600.022549
 32
0.0
 13
1589.503694
 23
1600.022549
 33
0.0
  0
SOLID
  5
33
100
AcDbEntity
  8
0
  6
BYBLOCK
100
AcDbTrace
 10
1599.45948
 20
1635.857116
 30
0.0
 11
1604.445734
 21
1635.486622
 31
0.0
 12
1603.064089
 22
1650.630633
 32
0.0
 13
1603.064089
 23
1650.630633
 33
0.0
  0
MTEXT
  5
34
100
AcDbEntity
  8
0
  6
BYBLOCK
 62
     5
100
AcDbMText
 10
1584.488834
 20
1628.487067
 30
0.0
 40
19.32
 41
0.0
 71
     5
 72
     1
  1
\A1;30°
 11
0.258819
 21
0.965926
 31
0.0
  0
POINT
  5
35
100
AcDbEntity
  8
DEFPOINTS
  6
BYBLOCK
 62
     0
100
AcDbPoint
 10
1596.960008
 20
1616.012665
 30
0.0
  0
POINT
  5
36
100
AcDbEntity
  8
DEFPOINTS
  6
BYBLOCK
 62
     0
100
AcDbPoint
 10
1501.847923
 20
1650.630633
 30
0.0
  0
POINT
  5
37
100
AcDbEntity
  8
DEFPOINTS
  6
BYBLOCK
 62
     0
100
AcDbPoint
 10
1520.572923
 20
1650.630633
 30
0.0
  0
POINT
  5
38
100
AcDbEntity
  8
DEFPOINTS
  6
BYBLOCK
 62
     0
100
AcDbPoint
 10
1501.847923
 20
1650.630633
 30
0.0
  0
POINT
  5
39
100
AcDbEntity
  8
DEFPOINTS
  6
BYBLOCK
 62
     0
100
AcDbPoint
 10
1495.712923
 20
1654.172677
 30
0.0
  0
ENDBLK
  5
3B
100
AcDbEntity
  8
0
100
AcDbBlockEnd
  0
BLOCK
  5
6D
100
AcDbEntity
  8
0
100
AcDbBlockBegin
  2
*D5
 70
     1
 10
0.0
 20
0.0
 30
0.0
  3
*D5
  1

  0
LINE
  5
61
100
AcDbEntity
  8
0
  6
BYBLOCK
100
AcDbLine
 10
1341.847923
 20
1647.630633
 30
0.0
 11
1341.847923
 21
1578.122934
 31
0.0
  0
LINE
  5
62
100
AcDbEntity
  8
0
  6
BYBLOCK
100
AcDbLine
 10
1329.577923
 20
1647.630633
 30
0.0
 11
1329.577923
 21
1578.122934
 31
0.0
  0
LINE
  5
63
100
AcDbEntity
  8
0
  6
BYBLOCK
100
AcDbLine
 10
1356.847923
 20
1584.122934
 30
0.0
 11
1371.847923
 21
1584.122934
 31
0.0
  0
LINE
  5
64
100
AcDbEntity
  8
0
  6
BYBLOCK
100
AcDbLine
 10
1314.577923
 20
1584.122934
 30
0.0
 11
1299.577923
 21
1584.122934
 31
0.0
  0
MTEXT
  5
65
100
AcDbEntity
  8
0
  6
BYBLOCK
 62
     5
100
AcDbMText
 10
1373.209028
 20
1601.444362
 30
0.0
 40
19.32
 41
0.0
 71
     5
 72
     1
  1
\A1;12,3
  0
LINE
  5
66
100
AcDbEntity
  8
0
  6
BYBLOCK
100
AcDbLine
 10
1341.847923
 20
1584.122934
 30
0.0
 11
1329.577923
 21
1584.122934
 31
0.0
  0
LINE
  5
67
100
AcDbEntity
  8
0
  6
BYBLOCK
100
AcDbLine
 10
1341.847923
 20
1584.122934
 30
0.0
 11
1329.577923
 21
1584.122934
 31
0.0
  0
SOLID
  5
68
100
AcDbEntity
  8
0
  6
BYBLOCK
100
AcDbTrace
 10
1356.847923
 20
1586.622934
 30
0.0
 11
1356.847923
 21
1581.622934
 31
0.0
 12
1341.847923
 22
1584.122934
 32
0.0
 13
1341.847923
 23
1584.122934
 33
0.0
  0
SOLID
  5
69
100
AcDbEntity
  8
0
  6
BYBLOCK
100
AcDbTrace
 10
1314.577923
 20
1586.622934
 30
0.0
 11
1314.577923
 21
1581.622934
 31
0.0
 12
1329.577923
 22
1584.122934
 32
0.0
 13
1329.577923
 23
1584.122934
 33
0.0
  0
POINT
  5
6A
100
AcDbEntity
  8
DEFPOINTS
  6
BYBLOCK
 62
     0
100
AcDbPoint
 10
1341.847923
 20
1650.630633
 30
0.0
  0
POINT
  5
6B
100
AcDbEntity
  8
DEFPOINTS
  6
BYBLOCK
 62
     0
100
AcDbPoint
 10
1329.577923
 20
1650.630633
 30
0.0
  0
POINT
  5
6C
100
AcDbEntity
  8
DEFPOINTS
  6
BYBLOCK
 62
     0
100
AcDbPoint
 10
1329.577923
 20
1584.122934
 30
0.0
  0
ENDBLK
  5
6E
100
AcDbEntity
  8
0
100
AcDbBlockEnd
  0
BLOCK
  5
4E
100
AcDbEntity
  8
0
100
AcDbBlockBegin
  2
*D6
 70
     1
 10
0.0
 20
0.0
 30
0.0
  3
*D6
  1

  0
LINE
  5
45
100
AcDbEntity
  8
0
  6
BYBLOCK
100
AcDbLine
 10
1095.710997
 20
1681.848589
 30
0.0
 11
1095.710997
 21
1578.122934
 31
0.0
  0
LINE
  5
46
100
AcDbEntity
  8
0
  6
BYBLOCK
100
AcDbLine
 10
1255.712923
 20
1681.849701
 30
0.0
 11
1255.712923
 21
1578.122934
 31
0.0
  0
LINE
  5
47
100
AcDbEntity
  8
0
  6
BYBLOCK
100
AcDbLine
 10
1110.710997
 20
1584.122934
 30
0.0
 11
1240.712923
 21
1584.122934
 31
0.0
  0
SOLID
  5
48
100
AcDbEntity
  8
0
  6
BYBLOCK
100
AcDbTrace
 10
1110.710997
 20
1586.622934
 30
0.0
 11
1110.710997
 21
1581.622934
 31
0.0
 12
1095.710997
 22
1584.122934
 32
0.0
 13
1095.710997
 23
1584.122934
 33
0.0
  0
SOLID
  5
49
100
AcDbEntity
  8
0
  6
BYBLOCK
100
AcDbTrace
 10
1240.712923
 20
1586.622934
 30
0.0
 11
1240.712923
 21
1581.622934
 31
0.0
 12
1255.712923
 22
1584.122934
 32
0.0
 13
1255.712923
 23
1584.122934
 33
0.0
  0
MTEXT
  5
4A
100
AcDbEntity
  8
0
  6
BYBLOCK
 62
     5
100
AcDbMText
 10
1175.71196
 20
1599.782934
 30
0.0
 40
19.32
 41
0.0
 71
     5
 72
     1
  1
\A1;160
  0
POINT
  5
4B
100
AcDbEntity
  8
DEFPOINTS
  6
BYBLOCK
 62
     0
100
AcDbPoint
 10
1095.710997
 20
1684.848589
 30
0.0
  0
POINT
  5
4C
100
AcDbEntity
  8
DEFPOINTS
  6
BYBLOCK
 62
     0
100
AcDbPoint
 10
1255.712923
 20
1684.849701
 30
0.0
  0
POINT
  5
4D
100
AcDbEntity
  8
DEFPOINTS
  6
BYBLOCK
 62
     0
100
AcDbPoint
 10
1255.712923
 20
1584.122934
 30
0.0
  0
ENDBLK
  5
4F
100
AcDbEntity
  8
0
100
AcDbBlockEnd
  0
BLOCK
  5
2B
100
AcDbEntity
  8
0
100
AcDbBlockBegin
  2
*D7
 70
     1
 10
0.0
 20
0.0
 30
0.0
  3
*D7
  1

  0
LINE
  5
21
100
AcDbEntity
  8
0
  6
BYBLOCK
100
AcDbLine
 10
1095.710997
 20
1678.848589
 30
0.0
 11
1095.710997
 21
1522.157726
 31
0.0
  0
LINE
  5
22
100
AcDbEntity
  8
0
  6
BYBLOCK
100
AcDbLine
 10
2055.714848
 20
1681.848589
 30
0.0
 11
2055.714848
 21
1522.157726
 31
0.0
  0
LINE
  5
23
100
AcDbEntity
  8
0
  6
BYBLOCK
100
AcDbLine
 10
1110.710997
 20
1528.157726
 30
0.0
 11
2040.714848
 21
1528.157726
 31
0.0
  0
SOLID
  5
24
100
AcDbEntity
  8
0
  6
BYBLOCK
100
AcDbTrace
 10
1110.710997
 20
1530.657726
 30
0.0
 11
1110.710997
 21
1525.657726
 31
0.0
 12
1095.710997
 22
1528.157726
 32
0.0
 13
1095.710997
 23
1528.157726
 33
0.0
  0
SOLID
  5
25
100
AcDbEntity
  8
0
  6
BYBLOCK
100
AcDbTrace
 10
2040.714848
 20
1530.657726
 30
0.0
 11
2040.714848
 21
1525.657726
 31
0.0
 12
2055.714848
 22
1528.157726
 32
0.0
 13
2055.714848
 23
1528.157726
 33
0.0
  0
MTEXT
  5
26
100
AcDbEntity
  8
0
  6
BYBLOCK
 62
     5
100
AcDbMText
 10
1575.712923
 20
1543.817726
 30
0.0
 40
19.32
 41
0.0
 71
     5
 72
     1
  1
\A1;960
  0
POINT
  5
27
100
AcDbEntity
  8
DEFPOINTS
  6
BYBLOCK
 62
     0
100
AcDbPoint
 10
1095.710997
 20
1681.848589
 30
0.0
  0
POINT
  5
29
100
AcDbEntity
  8
DEFPOINTS
  6
BYBLOCK
 62
     0
100
AcDbPoint
 10
2055.714848
 20
1684.848589
 30
0.0
  0
POINT
  5
2A
100
AcDbEntity
  8
DEFPOINTS
  6
BYBLOCK
 62
     0
100
AcDbPoint
 10
2055.714848
 20
1528.157726
 30
0.0
  0
ENDBLK
  5
2C
100
AcDbEntity
  8
0
100
AcDbBlockEnd
  0
BLOCK
  5
DC
100
AcDbEntity
  8
0
100
AcDbBlockBegin
  2
*D8
 70
     1
 10
0.0
 20
0.0
 30
0.0
  3
*D8
  1

  0
LINE
  5
D0
100
AcDbEntity
  8
0
  6
BYBLOCK
100
AcDbLine
 10
2003.572923
 20
1650.630633
 30
0.0
 11
2163.942953
 21
1650.630633
 31
0.0
  0
LINE
  5
D1
100
AcDbEntity
  8
0
  6
BYBLOCK
100
AcDbLine
 10
2083.574848
 20
1688.390633
 30
0.0
 11
2163.942953
 21
1688.390633
 31
0.0
  0
LINE
  5
D2
100
AcDbEntity
  8
0
  6
BYBLOCK
100
AcDbLine
 10
2157.942953
 20
1635.630633
 30
0.0
 11
2157.942953
 21
1620.630633
 31
0.0
  0
LINE
  5
D3
100
AcDbEntity
  8
0
  6
BYBLOCK
100
AcDbLine
 10
2157.942953
 20
1703.390633
 30
0.0
 11
2157.942953
 21
1718.390633
 31
0.0
  0
MTEXT
  5
D4
100
AcDbEntity
  8
0
  6
BYBLOCK
 62
     5
100
AcDbMText
 10
2140.621524
 20
1606.270715
 30
0.0
 40
19.32
 41
0.0
 71
     5
 72
     1
  1
\A1;37,8
 11
0.0
 21
1.0
 31
0.0
  0
LINE
  5
D5
100
AcDbEntity
  8
0
  6
BYBLOCK
100
AcDbLine
 10
2157.942953
 20
1650.630633
 30
0.0
 11
2157.942953
 21
1688.390633
 31
0.0
  0
LINE
  5
D6
100
AcDbEntity
  8
0
  6
BYBLOCK
100
AcDbLine
 10
2157.942953
 20
1650.630633
 30
0.0
 11
2157.942953
 21
1688.390633
 31
0.0
  0
SOLID
  5
D7
100
AcDbEntity
  8
0
  6
BYBLOCK
100
AcDbTrace
 10
2155.442953
 20
1635.630633
 30
0.0
 11
2160.442953
 21
1635.630633
 31
0.0
 12
2157.942953
 22
1650.630633
 32
0.0
 13
2157.942953
 23
1650.630633
 33
0.0
  0
SOLID
  5
D8
100
AcDbEntity
  8
0
  6
BYBLOCK
100
AcDbTrace
 10
2155.442953
 20
1703.390633
 30
0.0
 11
2160.442953
 21
1703.390633
 31
0.0
 12
2157.942953
 22
1688.390633
 32
0.0
 13
2157.942953
 23
1688.390633
 33
0.0
  0
POINT
  5
D9
100
AcDbEntity
  8
DEFPOINTS
  6
BYBLOCK
 62
     0
100
AcDbPoint
 10
2000.572923
 20
1650.630633
 30
0.0
  0
POINT
  5
DA
100
AcDbEntity
  8
DEFPOINTS
  6
BYBLOCK
 62
     0
100
AcDbPoint
 10
2080.574848
 20
1688.390633
 30
0.0
  0
POINT
  5
DB
100
AcDbEntity
  8
DEFPOINTS
  6
BYBLOCK
 62
     0
100
AcDbPoint
 10
2157.942953
 20
1688.390633
 30
0.0
  0
ENDBLK
  5
DD
100
AcDbEntity
  8
0
100
AcDbBlockEnd
  0
BLOCK
  5
5D
100
AcDbEntity
  8
0
100
AcDbBlockBegin
  2
*D9
 70
     1
 10
0.0
 20
0.0
 30
0.0
  3
*D9
  1

  0
LINE
  5
52
100
AcDbEntity
  8
0
  6
BYBLOCK
100
AcDbLine
 10
1520.572923
 20
1647.630633
 30
0.0
 11
1520.572923
 21
1578.04464
 31
0.0
  0
LINE
  5
53
100
AcDbEntity
  8
0
  6
BYBLOCK
100
AcDbLine
 10
1470.852923
 20
1647.630633
 30
0.0
 11
1470.852923
 21
1578.04464
 31
0.0
  0
LINE
  5
54
100
AcDbEntity
  8
0
  6
BYBLOCK
100
AcDbLine
 10
1535.572923
 20
1584.04464
 30
0.0
 11
1550.572923
 21
1584.04464
 31
0.0
  0
LINE
  5
55
100
AcDbEntity
  8
0
  6
BYBLOCK
100
AcDbLine
 10
1455.852923
 20
1584.04464
 30
0.0
 11
1440.852923
 21
1584.04464
 31
0.0
  0
LINE
  5
56
100
AcDbEntity
  8
0
  6
BYBLOCK
100
AcDbLine
 10
1520.572923
 20
1584.04464
 30
0.0
 11
1470.852923
 21
1584.04464
 31
0.0
  0
SOLID
  5
57
100
AcDbEntity
  8
0
  6
BYBLOCK
100
AcDbTrace
 10
1535.572923
 20
1586.54464
 30
0.0
 11
1535.572923
 21
1581.54464
 31
0.0
 12
1520.572923
 22
1584.04464
 32
0.0
 13
1520.572923
 23
1584.04464
 33
0.0
  0
SOLID
  5
58
100
AcDbEntity
  8
0
  6
BYBLOCK
100
AcDbTrace
 10
1455.852923
 20
1586.54464
 30
0.0
 11
1455.852923
 21
1581.54464
 31
0.0
 12
1470.852923
 22
1584.04464
 32
0.0
 13
1470.852923
 23
1584.04464
 33
0.0
  0
MTEXT
  5
59
100
AcDbEntity
  8
0
  6
BYBLOCK
 62
     5
100
AcDbMText
 10
1495.712923
 20
1599.70464
 30
0.0
 40
19.32
 41
0.0
 71
     5
 72
     1
  1
\A1;49.7
  0
POINT
  5
5A
100
AcDbEntity
  8
DEFPOINTS
  6
BYBLOCK
 62
     0
100
AcDbPoint
 10
1520.572923
 20
1650.630633
 30
0.0
  0
POINT
  5
5B
100
AcDbEntity
  8
DEFPOINTS
  6
BYBLOCK
 62
     0
100
AcDbPoint
 10
1470.852923
 20
1650.630633
 30
0.0
  0
POINT
  5
5C
100
AcDbEntity
  8
DEFPOINTS
  6
BYBLOCK
 62
     0
100
AcDbPoint
 10
1470.852923
 20
1584.04464
 30
0.0
  0
ENDBLK
  5
5E
100
AcDbEntity
  8
0
100
AcDbBlockEnd
  0
BLOCK
  5
BA
100
AcDbEntity
  8
0
100
AcDbBlockBegin
  2
*D10
 70
     1
 10
0.0
 20
0.0
 30
0.0
  3
*D10
  1

  0
LINE
  5
AF
100
AcDbEntity
  8
0
  6
BYBLOCK
100
AcDbLine
 10
1683.572923
 20
1650.630633
 30
0.0
 11
1804.740448
 21
1650.630633
 31
0.0
  0
LINE
  5
B0
100
AcDbEntity
  8
0
  6
BYBLOCK
100
AcDbLine
 10
1695.411442
 20
1670.786556
 30
0.0
 11
1754.186487
 21
1750.62372
 31
0.0
  0
ARC
  5
B1
100
AcDbEntity
  8
0
  6
BYBLOCK
100
AcDbCircle
 10
1680.572923
 20
1650.630633
 30
0.0
 40
118.167525
100
AcDbArc
 50
7.277928
 51
46.362072
  0
SOLID
  5
B2
100
AcDbEntity
  8
0
  6
BYBLOCK
100
AcDbTrace
 10
1800.283369
 20
1665.759063
 30
0.0
 11
1795.29345
 21
1665.441717
 31
0.0
 12
1798.740448
 22
1650.630633
 32
0.0
 13
1798.740448
 23
1650.630633
 33
0.0
  0
SOLID
  5
B3
100
AcDbEntity
  8
0
  6
BYBLOCK
100
AcDbTrace
 10
1760.513252
 20
1734.235126
 30
0.0
 11
1763.727121
 21
1738.065406
 31
0.0
 12
1750.629346
 22
1745.791872
 32
0.0
 13
1750.629346
 23
1745.791872
 33
0.0
  0
MTEXT
  5
B4
100
AcDbEntity
  8
0
  6
BYBLOCK
 62
     5
100
AcDbMText
 10
1801.646472
 20
1711.842339
 30
0.0
 40
19.32
 41
0.0
 71
     5
 72
     1
  1
\A1;53,64°
 11
0.451189
 21
-0.892428
 31
0.0
  0
POINT
  5
B5
100
AcDbEntity
  8
DEFPOINTS
  6
BYBLOCK
 62
     0
100
AcDbPoint
 10
1793.033149
 20
1686.91095
 30
0.0
  0
POINT
  5
B6
100
AcDbEntity
  8
DEFPOINTS
  6
BYBLOCK
 62
     0
100
AcDbPoint
 10
1693.632872
 20
1668.370633
 30
0.0
  0
POINT
  5
B7
100
AcDbEntity
  8
DEFPOINTS
  6
BYBLOCK
 62
     0
100
AcDbPoint
 10
1680.572923
 20
1650.630633
 30
0.0
  0
POINT
  5
B8
100
AcDbEntity
  8
DEFPOINTS
  6
BYBLOCK
 62
     0
100
AcDbPoint
 10
1661.847923
 20
1650.630633
 30
0.0
  0
POINT
  5
B9
100
AcDbEntity
  8
DEFPOINTS
  6
BYBLOCK
 62
     0
100
AcDbPoint
 10
1680.572923
 20
1650.630633
 30
0.0
  0
ENDBLK
  5
BB
100
AcDbEntity
  8
0
100
AcDbBlockEnd
  0
BLOCK
  5
AB
100
AcDbEntity
  8
0
100
AcDbBlockBegin
  2
*D11
 70
     1
 10
0.0
 20
0.0
 30
0.0
  3
*D11
  1

  0
LINE
  5
A0
100
AcDbEntity
  8
0
  6
BYBLOCK
100
AcDbLine
 10
1907.881655
 20
1668.370633
 30
0.0
 11
1987.437395
 21
1668.370633
 31
0.0
  0
LINE
  5
A1
100
AcDbEntity
  8
0
  6
BYBLOCK
100
AcDbLine
 10
1860.420206
 20
1672.079054
 30
0.0
 11
1971.05387
 21
1732.526377
 31
0.0
  0
ARC
  5
A2
100
AcDbEntity
  8
0
  6
BYBLOCK
100
AcDbCircle
 10
1853.632872
 20
1668.370633
 30
0.0
 40
127.804523
100
AcDbArc
 50
6.728484
 51
21.922547
  0
SOLID
  5
A3
100
AcDbEntity
  8
0
  6
BYBLOCK
100
AcDbTrace
 10
1983.052836
 20
1683.491491
 30
0.0
 11
1978.061452
 21
1683.198074
 31
0.0
 12
1981.437395
 22
1668.370633
 32
0.0
 13
1981.437395
 23
1668.370633
 33
0.0
  0
SOLID
  5
A4
100
AcDbEntity
  8
0
  6
BYBLOCK
100
AcDbTrace
 10
1969.935321
 20
1715.018946
 30
0.0
 11
1974.456226
 21
1717.154693
 31
0.0
 12
1965.788532
 22
1729.649535
 32
0.0
 13
1965.788532
 23
1729.649535
 33
0.0
  0
MTEXT
  5
A5
100
AcDbEntity
  8
0
  6
BYBLOCK
 62
     5
100
AcDbMText
 10
1994.419243
 20
1704.323407
 30
0.0
 40
19.32
 41
0.0
 71
     5
 72
     1
  1
\A1;28,64°
 11
0.247431
 21
-0.968906
 31
0.0
  0
POINT
  5
A6
100
AcDbEntity
  8
DEFPOINTS
  6
BYBLOCK
 62
     0
100
AcDbPoint
 10
1979.666049
 20
1689.575213
 30
0.0
  0
POINT
  5
A7
100
AcDbEntity
  8
DEFPOINTS
  6
BYBLOCK
 62
     0
100
AcDbPoint
 10
1857.787537
 20
1670.640633
 30
0.0
  0
POINT
  5
A8
100
AcDbEntity
  8
DEFPOINTS
  6
BYBLOCK
 62
     0
100
AcDbPoint
 10
1853.632872
 20
1668.370633
 30
0.0
  0
POINT
  5
A9
100
AcDbEntity
  8
DEFPOINTS
  6
BYBLOCK
 62
     0
100
AcDbPoint
 10
1904.881655
 20
1668.370633
 30
0.0
  0
POINT
  5
AA
100
AcDbEntity
  8
DEFPOINTS
  6
BYBLOCK
 62
     0
100
AcDbPoint
 10
1853.632872
 20
1668.370633
 30
0.0
  0
ENDBLK
  5
AC
100
AcDbEntity
  8
0
100
AcDbBlockEnd
  0
BLOCK
  5
11C
100
AcDbEntity
  8
0
100
AcDbBlockBegin
  2
*D12
 70
     1
 10
0.0
 20
0.0
 30
0.0
  3
*D12
  1

  0
LINE
  5
111
100
AcDbEntity
  8
0
  6
BYBLOCK
100
AcDbLine
 10
2015.411442
 20
1670.786556
 30
0.0
 11
2057.068763
 21
1727.371836
 31
0.0
  0
LINE
  5
112
100
AcDbEntity
  8
0
  6
BYBLOCK
100
AcDbLine
 10
2017.022058
 20
1669.600843
 30
0.0
 11
2058.679379
 21
1726.186123
 31
0.0
  0
LINE
  5
113
100
AcDbEntity
  8
0
  6
BYBLOCK
100
AcDbLine
 10
2041.432004
 20
1731.432841
 30
0.0
 11
2029.352386
 21
1740.325694
 31
0.0
  0
LINE
  5
114
100
AcDbEntity
  8
0
  6
BYBLOCK
100
AcDbLine
 10
2067.201856
 20
1712.461423
 30
0.0
 11
2079.281475
 21
1703.568571
 31
0.0
  0
LINE
  5
115
100
AcDbEntity
  8
0
  6
BYBLOCK
100
AcDbLine
 10
2053.511622
 20
1722.539989
 30
0.0
 11
2055.122238
 21
1721.354275
 31
0.0
  0
SOLID
  5
116
100
AcDbEntity
  8
0
  6
BYBLOCK
100
AcDbTrace
 10
2042.914146
 20
1733.446111
 30
0.0
 11
2039.949862
 21
1729.419572
 31
0.0
 12
2053.511622
 22
1722.539989
 32
0.0
 13
2053.511622
 23
1722.539989
 33
0.0
  0
SOLID
  5
117
100
AcDbEntity
  8
0
  6
BYBLOCK
100
AcDbTrace
 10
2068.683998
 20
1714.474693
 30
0.0
 11
2065.719714
 21
1710.448153
 31
0.0
 12
2055.122238
 22
1721.354275
 32
0.0
 13
2055.122238
 23
1721.354275
 33
0.0
  0
MTEXT
  5
118
100
AcDbEntity
  8
0
  6
BYBLOCK
 62
     5
100
AcDbMText
 10
2063.601068
 20
1734.558254
 30
0.0
 40
19.32
 41
0.0
 71
     5
 72
     1
  1
\A1;2
 11
0.805308
 21
-0.592857
 31
0.0
  0
POINT
  5
119
100
AcDbEntity
  8
DEFPOINTS
  6
BYBLOCK
 62
     0
100
AcDbPoint
 10
2013.632872
 20
1668.370633
 30
0.0
  0
POINT
  5
11A
100
AcDbEntity
  8
DEFPOINTS
  6
BYBLOCK
 62
     0
100
AcDbPoint
 10
2015.243487
 20
1667.184919
 30
0.0
  0
POINT
  5
11B
100
AcDbEntity
  8
DEFPOINTS
  6
BYBLOCK
 62
     0
100
AcDbPoint
 10
2055.122238
 20
1721.354275
 30
0.0
  0
ENDBLK
  5
11D
100
AcDbEntity
  8
0
100
AcDbBlockEnd
  0
BLOCK
  5
10D
100
AcDbEntity
  8
0
100
AcDbBlockBegin
  2
*D13
 70
     1
 10
0.0
 20
0.0
 30
0.0
  3
*D13
  1

  0
LINE
  5
101
100
AcDbEntity
  8
0
  6
BYBLOCK
100
AcDbLine
 10
2003.572923
 20
1650.630633
 30
0.0
 11
2118.781853
 21
1650.630633
 31
0.0
  0
LINE
  5
102
100
AcDbEntity
  8
0
  6
BYBLOCK
100
AcDbLine
 10
2016.632872
 20
1668.370633
 30
0.0
 11
2118.781853
 21
1668.370633
 31
0.0
  0
LINE
  5
103
100
AcDbEntity
  8
0
  6
BYBLOCK
100
AcDbLine
 10
2112.781853
 20
1635.630633
 30
0.0
 11
2112.781853
 21
1620.630633
 31
0.0
  0
LINE
  5
104
100
AcDbEntity
  8
0
  6
BYBLOCK
100
AcDbLine
 10
2112.781853
 20
1683.370633
 30
0.0
 11
2112.781853
 21
1698.370633
 31
0.0
  0
MTEXT
  5
105
100
AcDbEntity
  8
0
  6
BYBLOCK
 62
     5
100
AcDbMText
 10
2095.323349
 20
1622.515772
 30
0.0
 40
19.32
 41
0.0
 71
     5
 72
     1
  1
\A1;17,7
 11
0.0
 21
1.0
 31
0.0
  0
LINE
  5
106
100
AcDbEntity
  8
0
  6
BYBLOCK
100
AcDbLine
 10
2112.781853
 20
1650.630633
 30
0.0
 11
2112.781853
 21
1668.370633
 31
0.0
  0
LINE
  5
107
100
AcDbEntity
  8
0
  6
BYBLOCK
100
AcDbLine
 10
2112.781853
 20
1650.630633
 30
0.0
 11
2112.781853
 21
1668.370633
 31
0.0
  0
SOLID
  5
108
100
AcDbEntity
  8
0
  6
BYBLOCK
100
AcDbTrace
 10
2110.281853
 20
1635.630633
 30
0.0
 11
2115.281853
 21
1635.630633
 31
0.0
 12
2112.781853
 22
1650.630633
 32
0.0
 13
2112.781853
 23
1650.630633
 33
0.0
  0
SOLID
  5
109
100
AcDbEntity
  8
0
  6
BYBLOCK
100
AcDbTrace
 10
2110.281853
 20
1683.370633
 30
0.0
 11
2115.281853
 21
1683.370633
 31
0.0
 12
2112.781853
 22
1668.370633
 32
0.0
 13
2112.781853
 23
1668.370633
 33
0.0
  0
POINT
  5
10A
100
AcDbEntity
  8
DEFPOINTS
  6
BYBLOCK
 62
     0
100
AcDbPoint
 10
2000.572923
 20
1650.630633
 30
0.0
  0
POINT
  5
10B
100
AcDbEntity
  8
DEFPOINTS
  6
BYBLOCK
 62
     0
100
AcDbPoint
 10
2013.632872
 20
1668.370633
 30
0.0
  0
POINT
  5
10C
100
AcDbEntity
  8
DEFPOINTS
  6
BYBLOCK
 62
     0
100
AcDbPoint
 10
2112.781853
 20
1668.370633
 30
0.0
  0
ENDBLK
  5
10E
100
AcDbEntity
  8
0
100
AcDbBlockEnd
  0
BLOCK
  5
FD
100
AcDbEntity
  8
0
100
AcDbBlockBegin
  2
*D14
 70
     1
 10
0.0
 20
0.0
 30
0.0
  3
*D14
  1

  0
LINE
  5
F1
100
AcDbEntity
  8
0
  6
BYBLOCK
100
AcDbLine
 10
2016.632872
 20
1668.370633
 30
0.0
 11
2118.781853
 21
1668.370633
 31
0.0
  0
LINE
  5
F2
100
AcDbEntity
  8
0
  6
BYBLOCK
100
AcDbLine
 10
2020.787537
 20
1670.640633
 30
0.0
 11
2118.781853
 21
1670.640633
 31
0.0
  0
LINE
  5
F3
100
AcDbEntity
  8
0
  6
BYBLOCK
100
AcDbLine
 10
2112.781853
 20
1653.370633
 30
0.0
 11
2112.781853
 21
1638.370633
 31
0.0
  0
LINE
  5
F4
100
AcDbEntity
  8
0
  6
BYBLOCK
100
AcDbLine
 10
2112.781853
 20
1685.640633
 30
0.0
 11
2112.781853
 21
1700.640633
 31
0.0
  0
MTEXT
  5
F5
100
AcDbEntity
  8
0
  6
BYBLOCK
 62
     5
100
AcDbMText
 10
2128.596293
 20
1670.309857
 30
0.0
 40
19.32
 41
0.0
 71
     5
 72
     1
  1
\A1;2,3
 11
0.0
 21
1.0
 31
0.0
  0
LINE
  5
F6
100
AcDbEntity
  8
0
  6
BYBLOCK
100
AcDbLine
 10
2112.781853
 20
1668.370633
 30
0.0
 11
2112.781853
 21
1670.640633
 31
0.0
  0
LINE
  5
F7
100
AcDbEntity
  8
0
  6
BYBLOCK
100
AcDbLine
 10
2112.781853
 20
1668.370633
 30
0.0
 11
2112.781853
 21
1670.640633
 31
0.0
  0
SOLID
  5
F8
100
AcDbEntity
  8
0
  6
BYBLOCK
100
AcDbTrace
 10
2110.281853
 20
1653.370633
 30
0.0
 11
2115.281853
 21
1653.370633
 31
0.0
 12
2112.781853
 22
1668.370633
 32
0.0
 13
2112.781853
 23
1668.370633
 33
0.0
  0
SOLID
  5
F9
100
AcDbEntity
  8
0
  6
BYBLOCK
100
AcDbTrace
 10
2110.281853
 20
1685.640633
 30
0.0
 11
2115.281853
 21
1685.640633
 31
0.0
 12
2112.781853
 22
1670.640633
 32
0.0
 13
2112.781853
 23
1670.640633
 33
0.0
  0
POINT
  5
FA
100
AcDbEntity
  8
DEFPOINTS
  6
BYBLOCK
 62
     0
100
AcDbPoint
 10
2013.632872
 20
1668.370633
 30
0.0
  0
POINT
  5
FB
100
AcDbEntity
  8
DEFPOINTS
  6
BYBLOCK
 62
     0
100
AcDbPoint
 10
2017.787537
 20
1670.640633
 30
0.0
  0
POINT
  5
FC
100
AcDbEntity
  8
DEFPOINTS
  6
BYBLOCK
 62
     0
100
AcDbPoint
 10
2112.781853
 20
1670.640633
 30
0.0
  0
ENDBLK
  5
FE
100
AcDbEntity
  8
0
100
AcDbBlockEnd
  0
BLOCK
  5
ED
100
AcDbEntity
  8
0
100
AcDbBlockBegin
  2
*D15
 70
     1
 10
0.0
 20
0.0
 30
0.0
  3
*D15
  1

  0
LINE
  5
E1
100
AcDbEntity
  8
0
  6
BYBLOCK
100
AcDbLine
 10
2020.787537
 20
1670.640633
 30
0.0
 11
2118.781853
 21
1670.640633
 31
0.0
  0
LINE
  5
E2
100
AcDbEntity
  8
0
  6
BYBLOCK
100
AcDbLine
 10
2083.574848
 20
1688.390633
 30
0.0
 11
2118.781853
 21
1688.390633
 31
0.0
  0
LINE
  5
E3
100
AcDbEntity
  8
0
  6
BYBLOCK
100
AcDbLine
 10
2112.781853
 20
1655.640633
 30
0.0
 11
2112.781853
 21
1640.640633
 31
0.0
  0
LINE
  5
E4
100
AcDbEntity
  8
0
  6
BYBLOCK
100
AcDbLine
 10
2112.781853
 20
1703.390633
 30
0.0
 11
2112.781853
 21
1718.390633
 31
0.0
  0
MTEXT
  5
E5
100
AcDbEntity
  8
0
  6
BYBLOCK
 62
     5
100
AcDbMText
 10
2095.460424
 20
1718.477334
 30
0.0
 40
19.32
 41
0.0
 71
     5
 72
     1
  1
\A1;17,7
 11
0.0
 21
1.0
 31
0.0
  0
LINE
  5
E6
100
AcDbEntity
  8
0
  6
BYBLOCK
100
AcDbLine
 10
2112.781853
 20
1670.640633
 30
0.0
 11
2112.781853
 21
1688.390633
 31
0.0
  0
LINE
  5
E7
100
AcDbEntity
  8
0
  6
BYBLOCK
100
AcDbLine
 10
2112.781853
 20
1670.640633
 30
0.0
 11
2112.781853
 21
1688.390633
 31
0.0
  0
SOLID
  5
E8
100
AcDbEntity
  8
0
  6
BYBLOCK
100
AcDbTrace
 10
2110.281853
 20
1655.640633
 30
0.0
 11
2115.281853
 21
1655.640633
 31
0.0
 12
2112.781853
 22
1670.640633
 32
0.0
 13
2112.781853
 23
1670.640633
 33
0.0
  0
SOLID
  5
E9
100
AcDbEntity
  8
0
  6
BYBLOCK
100
AcDbTrace
 10
2110.281853
 20
1703.390633
 30
0.0
 11
2115.281853
 21
1703.390633
 31
0.0
 12
2112.781853
 22
1688.390633
 32
0.0
 13
2112.781853
 23
1688.390633
 33
0.0
  0
POINT
  5
EA
100
AcDbEntity
  8
DEFPOINTS
  6
BYBLOCK
 62
     0
100
AcDbPoint
 10
2017.787537
 20
1670.640633
 30
0.0
  0
POINT
  5
EB
100
AcDbEntity
  8
DEFPOINTS
  6
BYBLOCK
 62
     0
100
AcDbPoint
 10
2080.574848
 20
1688.390633
 30
0.0
  0
POINT
  5
EC
100
AcDbEntity
  8
DEFPOINTS
  6
BYBLOCK
 62
     0
100
AcDbPoint
 10
2112.781853
 20
1688.390633
 30
0.0
  0
ENDBLK
  5
EE
100
AcDbEntity
  8
0
100
AcDbBlockEnd
  0
ENDSEC
  0
SECTION
  2
ENTITIES
  0
MTEXT
  5
1E
100
AcDbEntity
  8
KOTY-UPLNE
  6
BYBLOCK
 62
     5
100
AcDbMText
 10
616.160715
 20
-85.198963
 30
0.0
 40
16.5
 41
0.0
 71
     5
 72
     1
  1
všechna zaoblení R=3,5
  0
DIMENSION
  5
1F
100
AcDbEntity
  8
KOTY-UPLNE
100
AcDbDimension
  2
*D7
 10
1112.387458
 20
-309.184928
 30
0.0
 11
632.385532
 21
-293.524928
 31
0.0
 12
-943.32739
 22
-1837.342654
 32
0.0
  3
UPLNE
100
AcDbAlignedDimension
 13
152.383607
 23
-155.494065
 33
0.0
 14
1112.387458
 24
-152.494065
 34
0.0
100
AcDbRotatedDimension
1001
ACAD
1000
DSTYLE
1002
{
1070
    40
1040
3.0
1070
   147
1040
2.0
1002
}
  0
DIMENSION
  5
2D
100
AcDbEntity
  8
KOTY-UPLNE
100
AcDbDimension
  2
*D4
 10
552.385532
 20
-183.169977
 30
0.0
 11
641.161444
 21
-208.855587
 31
0.0
 12
-943.32739
 22
-1837.342654
 32
0.0
 70
     2
  3
UPLNE
100
AcDb2LineAngularDimension
 13
577.245532
 23
-186.712021
 33
0.0
 14
558.520532
 24
-186.712021
 34
0.0
 15
558.520532
 25
-186.712021
 35
0.0
 16
653.632618
 26
-221.329989
 36
0.0
1001
ACAD
1000
DSTYLE
1002
{
1070
    40
1040
3.0
1070
   147
1040
2.0
1002
}
  0
LWPOLYLINE
  5
3C
100
AcDbEntity
  8
TRAPEZ-VELKY
100
AcDbPolyline
 90
      180
 70
     0
 43
5.0
 10
1139.822581
 20
-152.742128
 10
1139.217815
 20
-151.920644
 42
0.238418
 10
1135.191276
 20
-149.884928
 10
1120.333894
 20
-149.884928
 42
0.131652
 10
1117.833894
 20
-150.554801
 10
1115.359148
 20
-151.983596
 42
-0.267949
 10
1110.359148
 20
-151.983596
 10
1107.884403
 20
-150.554801
 42
0.131652
 10
1105.384403
 20
-149.884928
 10
1090.527021
 20
-149.884928
 42
0.238418
 10
1086.500482
 20
-151.920644
 10
1075.588704
 20
-166.742673
 42
-0.109469
 10
1073.959533
 20
-168.16617
 10
1071.749476
 20
-169.373687
 42
0.109469
 10
1070.120305
 20
-170.797184
 10
1059.215889
 20
-185.609212
 42
-0.238418
 10
1055.18935
 20
-187.644928
 10
1040.331969
 20
-187.644928
 42
-0.131652
 10
1037.831969
 20
-186.975055
 10
1035.357223
 20
-185.54626
 42
0.267949
 10
1030.357223
 20
-185.54626
 10
1027.882477
 20
-186.975055
 42
-0.131652
 10
1025.382477
 20
-187.644928
 10
1010.525096
 20
-187.644928
 42
-0.238418
 10
1006.498556
 20
-185.609212
 10
995.59414
 20
-170.797184
 42
0.109469
 10
993.964969
 20
-169.373687
 10
991.754913
 20
-168.16617
 42
-0.109469
 10
990.125742
 20
-166.742673
 10
979.213964
 20
-151.920644
 42
0.238418
 10
975.187424
 20
-149.884928
 10
960.330043
 20
-149.884928
 42
0.131652
 10
957.830043
 20
-150.554801
 10
955.357223
 20
-151.982485
 42
-0.267949
 10
950.357223
 20
-151.982485
 10
947.884403
 20
-150.554801
 42
0.131652
 10
945.384403
 20
-149.884928
 10
930.527021
 20
-149.884928
 42
0.238418
 10
926.500482
 20
-151.920644
 10
915.588704
 20
-166.742673
 42
-0.109469
 10
913.959533
 20
-168.16617
 10
911.749476
 20
-169.373687
 42
0.109469
 10
910.120305
 20
-170.797184
 10
899.215889
 20
-185.609212
 42
-0.238418
 10
895.18935
 20
-187.644928
 10
880.331969
 20
-187.644928
 42
-0.131652
 10
877.831969
 20
-186.975055
 10
875.357223
 20
-185.54626
 42
0.267949
 10
870.357223
 20
-185.54626
 10
867.882477
 20
-186.975055
 42
-0.131652
 10
865.382477
 20
-187.644928
 10
850.525096
 20
-187.644928
 42
-0.238418
 10
846.498556
 20
-185.609212
 10
835.59414
 20
-170.797184
 42
0.109469
 10
833.964969
 20
-169.373687
 10
831.754913
 20
-168.16617
 42
-0.109469
 10
830.125742
 20
-166.742673
 10
819.213964
 20
-151.920644
 42
0.238418
 10
815.187424
 20
-149.884928
 10
800.330043
 20
-149.884928
 42
0.131652
 10
797.830043
 20
-150.554801
 10
795.357223
 20
-151.982485
 42
-0.267949
 10
790.357223
 20
-151.982485
 10
787.884403
 20
-150.554801
 42
0.131652
 10
785.384403
 20
-149.884928
 10
770.527021
 20
-149.884928
 42
0.238418
 10
766.500482
 20
-151.920644
 10
755.588704
 20
-166.742673
 42
-0.109469
 10
753.959533
 20
-168.16617
 10
751.749476
 20
-169.373687
 42
0.109469
 10
750.120305
 20
-170.797184
 10
739.215889
 20
-185.609212
 42
-0.238418
 10
735.18935
 20
-187.644928
 10
720.331969
 20
-187.644928
 42
-0.131652
 10
717.831969
 20
-186.975055
 10
715.357223
 20
-185.54626
 42
0.267949
 10
710.357223
 20
-185.54626
 10
707.882477
 20
-186.975055
 42
-0.131652
 10
705.382477
 20
-187.644928
 10
690.525096
 20
-187.644928
 42
-0.238418
 10
686.498556
 20
-185.609212
 10
675.59414
 20
-170.797184
 42
0.109469
 10
673.964969
 20
-169.373687
 10
671.754913
 20
-168.16617
 42
-0.109469
 10
670.125742
 20
-166.742673
 10
659.213964
 20
-151.920644
 42
0.238418
 10
655.187424
 20
-149.884928
 10
640.330043
 20
-149.884928
 42
0.131652
 10
637.830043
 20
-150.554801
 10
635.357223
 20
-151.982485
 42
-0.267949
 10
630.357223
 20
-151.982485
 10
627.884403
 20
-150.554801
 42
0.131652
 10
625.384402
 20
-149.884928
 10
610.527021
 20
-149.884928
 42
0.238418
 10
606.500482
 20
-151.920644
 10
595.588704
 20
-166.742673
 42
-0.109469
 10
593.959533
 20
-168.16617
 10
591.749476
 20
-169.373687
 42
0.109469
 10
590.120305
 20
-170.797184
 10
579.215889
 20
-185.609212
 42
-0.238418
 10
575.18935
 20
-187.644928
 10
560.331969
 20
-187.644928
 42
-0.131652
 10
557.831969
 20
-186.975055
 10
555.357223
 20
-185.54626
 42
0.267949
 10
550.357223
 20
-185.54626
 10
547.882477
 20
-186.975055
 42
-0.131652
 10
545.382477
 20
-187.644928
 10
530.525096
 20
-187.644928
 42
-0.238418
 10
526.498556
 20
-185.609212
 10
515.59414
 20
-170.797184
 42
0.109469
 10
513.964969
 20
-169.373687
 10
511.754913
 20
-168.16617
 42
-0.109469
 10
510.125742
 20
-166.742673
 10
499.213964
 20
-151.920644
 42
0.238418
 10
495.187424
 20
-149.884928
 10
480.330043
 20
-149.884928
 42
0.131652
 10
477.830043
 20
-150.554801
 10
475.357223
 20
-151.982485
 42
-0.267949
 10
470.357223
 20
-151.982485
 10
467.884403
 20
-150.554801
 42
0.131652
 10
465.384403
 20
-149.884928
 10
450.527021
 20
-149.884928
 42
0.238418
 10
446.500482
 20
-151.920644
 10
435.588704
 20
-166.742673
 42
-0.109469
 10
433.959533
 20
-168.16617
 10
431.749476
 20
-169.373687
 42
0.109469
 10
430.120305
 20
-170.797184
 10
419.215889
 20
-185.609212
 42
-0.238418
 10
415.18935
 20
-187.644928
 10
400.331969
 20
-187.644928
 42
-0.131652
 10
397.831969
 20
-186.975055
 10
395.357223
 20
-185.54626
 42
0.267949
 10
390.357223
 20
-185.54626
 10
387.882477
 20
-186.975055
 42
-0.131652
 10
385.382477
 20
-187.644928
 10
370.525096
 20
-187.644928
 42
-0.238418
 10
366.498556
 20
-185.609212
 10
355.59414
 20
-170.797184
 42
0.109469
 10
353.964969
 20
-169.373687
 10
351.754913
 20
-168.16617
 42
-0.109469
 10
350.125742
 20
-166.742673
 10
339.213964
 20
-151.920644
 42
0.238418
 10
335.187424
 20
-149.884928
 10
320.330043
 20
-149.884928
 42
0.131652
 10
317.830043
 20
-150.554801
 10
315.357223
 20
-151.982485
 42
-0.267949
 10
310.357223
 20
-151.982485
 10
307.884403
 20
-150.554801
 42
0.131652
 10
305.384403
 20
-149.884928
 10
290.527021
 20
-149.884928
 42
0.238418
 10
286.500482
 20
-151.920644
 10
275.588704
 20
-166.742673
 42
-0.109469
 10
273.959533
 20
-168.16617
 10
271.749476
 20
-169.373687
 42
0.109469
 10
270.120305
 20
-170.797184
 10
259.215889
 20
-185.609212
 42
-0.238418
 10
255.18935
 20
-187.644928
 10
240.331969
 20
-187.644928
 42
-0.131652
 10
237.831969
 20
-186.975055
 10
235.357223
 20
-185.54626
 42
0.267949
 10
230.357223
 20
-185.54626
 10
227.882477
 20
-186.975055
 42
-0.131652
 10
225.382477
 20
-187.644928
 10
210.525096
 20
-187.644928
 42
-0.238418
 10
206.498556
 20
-185.609212
 10
195.59414
 20
-170.797184
 42
0.109469
 10
193.964969
 20
-169.373687
 10
191.754913
 20
-168.16617
 42
-0.109469
 10
190.125742
 20
-166.742673
 10
179.213964
 20
-151.920644
 42
0.238418
 10
175.187424
 20
-149.884928
 10
160.330043
 20
-149.884928
 42
0.131652
 10
157.830043
 20
-150.554801
 10
155.355297
 20
-151.983596
 42
-0.267949
 10
150.355297
 20
-151.983596
 10
147.880551
 20
-150.554801
 42
0.131652
 10
145.380551
 20
-149.884928
 10
130.52317
 20
-149.884928
 42
0.238418
 10
126.496631
 20
-151.920644
 10
125.891865
 20
-152.742128
  0
MTEXT
  5
3E
100
AcDbEntity
  8
POPIS
100
AcDbMText
 10
661.730741
 20
-42.124031
 30
0.0
 40
40.0
 41
1.0
 71
     5
 72
     1
  1
TR 40/160
  7
STYLE1
  0
LWPOLYLINE
  5
41
100
AcDbEntity
  8
RAMEC
100
AcDbPolyline
 90
        4
 70
     1
 43
0.0
 10
0.0
 20
0.0
 10
0.0
 20
-358.301233
 10
1349.672502
 20
-358.301233
 10
1349.672502
 20
0.0
  0
DIMENSION
  5
43
100
AcDbEntity
  8
KOTY-UPLNE
100
AcDbDimension
  2
*D6
 10
312.385532
 20
-253.21972
 30
0.0
 11
232.38457
 21
-237.55972
 31
0.0
 12
-943.32739
 22
-1837.342654
 32
0.0
  3
UPLNE
100
AcDbAlignedDimension
 13
152.383607
 23
-152.494065
 33
0.0
 14
312.385532
 24
-152.492953
 34
0.0
100
AcDbRotatedDimension
1001
ACAD
1000
DSTYLE
1002
{
1070
    40
1040
3.0
1070
   147
1040
2.0
1002
}
  0
DIMENSION
  5
50
100
AcDbEntity
  8
KOTY-UPLNE
100
AcDbDimension
  2
*D9
 10
527.525532
 20
-253.298014
 30
0.0
 11
552.385532
 21
-237.638014
 31
0.0
 12
-943.32739
 22
-1837.342654
 32
0.0
  1
49.7
  3
UPLNE
100
AcDbAlignedDimension
 13
577.245532
 23
-186.712021
 33
0.0
 14
527.525532
 24
-186.712021
 34
0.0
100
AcDbRotatedDimension
1001
ACAD
1000
DSTYLE
1002
{
1070
    40
1040
3.0
1070
   147
1040
2.0
1002
}
  0
DIMENSION
  5
5F
100
AcDbEntity
  8
KOTY-UPLNE
100
AcDbDimension
  2
*D5
 10
386.250532
 20
-253.21972
 30
0.0
 11
429.881637
 21
-235.898291
 31
0.0
 12
-943.32739
 22
-1837.342654
 32
0.0
 70
   128
  1
12,3
  3
UPLNE
100
AcDbAlignedDimension
 13
398.520532
 23
-186.712021
 33
0.0
 14
386.250532
 24
-186.712021
 34
0.0
100
AcDbRotatedDimension
1001
ACAD
1000
DSTYLE
1002
{
1070
    40
1040
3.0
1070
   147
1040
2.0
1002
}
  0
DIMENSION
  5
6F
100
AcDbEntity
  8
KOTY-UPLNE
100
AcDbDimension
  2
*D1
 10
467.232427
 20
-186.712021
 30
0.0
 11
451.482427
 21
-202.911547
 31
0.0
 12
-943.32739
 22
-1837.342654
 32
0.0
 70
   128
  1
3
  3
UPLNE
100
AcDbAlignedDimension
 13
392.385532
 23
-183.169977
 33
0.0
 14
417.245532
 24
-186.712021
 34
0.0
 50
90.0
100
AcDbRotatedDimension
1001
ACAD
1000
DSTYLE
1002
{
1070
    40
1040
3.0
1070
   147
1040
2.0
1002
}
  0
DIMENSION
  5
7F
100
AcDbEntity
  8
KOTY-UPLNE
100
AcDbDimension
  2
*D0
 10
337.243607
 20
-110.140339
 30
0.0
 11
312.385532
 21
-92.640339
 31
0.0
 12
-943.32739
 22
-1837.342654
 32
0.0
  1
49,7
  3
UPLNE
100
AcDbAlignedDimension
 13
287.527458
 23
-148.952021
 33
0.0
 14
337.243607
 24
-148.952021
 34
0.0
100
AcDbRotatedDimension
1001
ACAD
1000
DSTYLE
1002
{
1070
    40
1040
3.0
1070
   147
1040
2.0
1002
}
  0
DIMENSION
  5
8E
100
AcDbEntity
  8
KOTY-UPLNE
100
AcDbDimension
  2
*D2
 10
554.355664
 20
-148.952021
 30
0.0
 11
538.605664
 21
-131.102552
 31
0.0
 12
-943.32739
 22
-1837.342654
 32
0.0
 70
   128
  1
3
  3
UPLNE
100
AcDbAlignedDimension
 13
472.385532
 23
-152.492953
 33
0.0
 14
478.518607
 24
-148.952021
 34
0.0
 50
90.0
100
AcDbRotatedDimension
1001
ACAD
1000
DSTYLE
1002
{
1070
    40
1040
3.0
1070
   147
1040
2.0
1002
}
  0
DIMENSION
  5
9E
100
AcDbEntity
  8
KOTY-UPLNE
100
AcDbDimension
  2
*D11
 10
910.305481
 20
-168.972021
 30
0.0
 11
1051.091853
 21
-133.019247
 31
0.0
 12
-943.32739
 22
-1837.342654
 32
0.0
 70
     2
  1
28,64%%d
  3
UPLNE
100
AcDb2LineAngularDimension
 13
910.305481
 23
-168.972021
 33
0.0
 14
961.554264
 24
-168.972021
 34
0.0
 15
914.460147
 25
-166.702021
 35
0.0
 16
1036.338659
 26
-147.767441
 36
0.0
1001
ACAD
1000
DSTYLE
1002
{
1070
    40
1040
3.0
1070
   147
1040
2.0
1002
}
  0
DIMENSION
  5
AD
100
AcDbEntity
  8
KOTY-UPLNE
100
AcDbDimension
  2
*D10
 10
737.245532
 20
-186.712021
 30
0.0
 11
858.319082
 21
-125.500315
 31
0.0
 12
-943.32739
 22
-1837.342654
 32
0.0
 70
     2
  1
53,64%%d
  3
UPLNE
100
AcDb2LineAngularDimension
 13
737.245532
 23
-186.712021
 33
0.0
 14
718.520532
 24
-186.712021
 34
0.0
 15
750.305481
 25
-168.972021
 35
0.0
 16
849.705759
 26
-150.431704
 36
0.0
1001
ACAD
1000
DSTYLE
1002
{
1070
    40
1040
3.0
1070
   147
1040
2.0
1002
}
  0
DIMENSION
  5
BC
100
AcDbEntity
  8
KOTY-UPLNE
100
AcDbDimension
  2
*D3
 10
632.385532
 20
-152.492953
 30
0.0
 11
729.165735
 21
-124.663196
 31
0.0
 12
-943.32739
 22
-1837.342654
 32
0.0
 70
     2
  3
UPLNE
100
AcDb2LineAngularDimension
 13
657.243607
 23
-148.952021
 33
0.0
 14
638.518607
 24
-148.952021
 34
0.0
 15
638.518607
 25
-148.952021
 35
0.0
 16
715.515616
 26
-135.375371
 36
0.0
1001
ACAD
1000
DSTYLE
1002
{
1070
    40
1040
3.0
1070
   147
1040
2.0
1002
}
  0
MTEXT
  5
CB
100
AcDbEntity
  8
POZICE
100
AcDbMText
 10
962.24318
 20
-101.558911
 30
0.0
 40
41.73
 41
1.0
 71
     5
 72
     1
  1
A
  7
STYLE1
  0
LINE
  5
CD
100
AcDbEntity
  8
KOTY-UPLNE
100
AcDbLine
 10
910.305481
 20
-168.972021
 30
0.0
 11
961.554264
 21
-168.972021
 31
0.0
  0
DIMENSION
  5
CE
100
AcDbEntity
  8
KOTY-UPLNE
100
AcDbDimension
  2
*D8
 10
1214.615563
 20
-148.952021
 30
0.0
 11
1197.294134
 21
-231.071939
 31
0.0
 12
-943.32739
 22
-1837.342654
 32
0.0
 70
   128
  1
37,8
  3
UPLNE
100
AcDbAlignedDimension
 13
1057.245532
 23
-186.712021
 33
0.0
 14
1137.247458
 24
-148.952021
 34
0.0
 50
90.0
100
AcDbRotatedDimension
1001
ACAD
1000
DSTYLE
1002
{
1070
    40
1040
3.0
1070
   147
1040
2.0
1002
}
  0
MTEXT
  5
DE
100
AcDbEntity
  8
POZICE
100
AcDbMText
 10
1032.22848
 20
-234.894172
 30
0.0
 40
41.73
 41
1.0
 71
     5
 72
     1
  1
B
  7
STYLE1
  0
DIMENSION
  5
DF
100
AcDbEntity
  8
KOTY-UPLNE
100
AcDbDimension
  2
*D15
 10
1169.454463
 20
-148.952021
 30
0.0
 11
1152.133034
 21
-118.86532
 31
0.0
 12
-943.32739
 22
-1837.342654
 32
0.0
 70
   128
  1
17,7
  3
UPLNE
100
AcDbAlignedDimension
 13
1074.460147
 23
-166.702021
 33
0.0
 14
1137.247458
 24
-148.952021
 34
0.0
 50
90.0
100
AcDbRotatedDimension
1001
ACAD
1000
DSTYLE
1002
{
1070
    40
1040
3.0
1070
   147
1040
2.0
1002
}
  0
DIMENSION
  5
EF
100
AcDbEntity
  8
KOTY-UPLNE
100
AcDbDimension
  2
*D14
 10
1169.454463
 20
-166.702021
 30
0.0
 11
1185.268903
 21
-167.032797
 31
0.0
 12
-943.32739
 22
-1837.342654
 32
0.0
 70
   128
  1
2,3
  3
UPLNE
100
AcDbAlignedDimension
 13
1070.305481
 23
-168.972021
 33
0.0
 14
1074.460147
 24
-166.702021
 34
0.0
 50
90.0
100
AcDbRotatedDimension
1001
ACAD
1000
DSTYLE
1002
{
1070
    40
1040
3.0
1070
   147
1040
2.0
1002
}
  0
DIMENSION
  5
FF
100
AcDbEntity
  8
KOTY-UPLNE
100
AcDbDimension
  2
*D13
 10
1169.454463
 20
-168.972021
 30
0.0
 11
1151.995958
 21
-214.826882
 31
0.0
 12
-943.32739
 22
-1837.342654
 32
0.0
 70
   128
  1
17,7
  3
UPLNE
100
AcDbAlignedDimension
 13
1057.245532
 23
-186.712021
 33
0.0
 14
1070.305481
 24
-168.972021
 34
0.0
 50
90.0
100
AcDbRotatedDimension
1001
ACAD
1000
DSTYLE
1002
{
1070
    40
1040
3.0
1070
   147
1040
2.0
1002
}
  0
DIMENSION
  5
10F
100
AcDbEntity
  8
KOTY-UPLNE
100
AcDbDimension
  2
*D12
 10
1111.794848
 20
-115.988378
 30
0.0
 11
1120.273678
 21
-102.7844
 31
0.0
 12
-943.32739
 22
-1837.342654
 32
0.0
 70
     1
  3
UPLNE
100
AcDbAlignedDimension
 13
1070.305481
 23
-168.972021
 33
0.0
 14
1071.916097
 24
-170.157735
 34
0.0
1001
ACAD
1000
DSTYLE
1002
{
1070
    40
1040
3.0
1070
   147
1040
2.0
1002
}
  0
ENDSEC
  0
SECTION
  2
OBJECTS
  0
DICTIONARY
  5
1A
100
AcDbDictionary
  3
ACAD_GROUP
350
18
  3
ACAD_MLINESTYLE
350
19
  0
DICTIONARY
  5
18
102
{ACAD_REACTORS
330
1A
102
}
100
AcDbDictionary
  0
DICTIONARY
  5
19
102
{ACAD_REACTORS
330
1A
102
}
100
AcDbDictionary
  3
STANDARD
350
1C
  0
MLINESTYLE
  5
1C
102
{ACAD_REACTORS
330
19
102
}
100
AcDbMlineStyle
  2
STANDARD
 70
     0
  3

 62
   256
 51
90.0
 52
90.0
 71
     2
 49
0.5
 62
   256
  6
BYLAYER
 49
-0.5
 62
   256
  6
BYLAYER
  0
ENDSEC
  0
EOF
