  0
SECTION
  2
HEADER
  9
$ACADVER
  1
AC1014
  9
$ACADMAINTVER
 70
     0
  9
$DWGCODEPAGE
  3
ANSI_1250
  9
$INSBASE
 10
0.0
 20
0.0
 30
0.0
  9
$EXTMIN
 10
0.0
 20
-389.481233
 30
0.0
  9
$EXTMAX
 10
1349.672502
 20
0.0
 30
0.0
  9
$LIMMIN
 10
-1000.0
 20
-1000.0
  9
$LIMMAX
 10
1000.0
 20
1000.0
  9
$ORTHOMODE
 70
     0
  9
$REGENMODE
 70
     1
  9
$FILLMODE
 70
     1
  9
$QTEXTMODE
 70
     0
  9
$MIRRTEXT
 70
     0
  9
$DRAGMODE
 70
     2
  9
$LTSCALE
 40
3.0
  9
$OSMODE
 70
    32
  9
$ATTMODE
 70
     1
  9
$TEXTSIZE
 40
50.0
  9
$TRACEWID
 40
0.05
  9
$TEXTSTYLE
  7
STANDARD
  9
$CLAYER
  8
KOTY-UPLNE
  9
$CELTYPE
  6
BYLAYER
  9
$CECOLOR
 62
   256
  9
$CELTSCALE
 40
1.0
  9
$DELOBJ
 70
     1
  9
$DISPSILH
 70
     0
  9
$DIMSCALE
 40
3.0
  9
$DIMASZ
 40
5.0
  9
$DIMEXO
 40
1.0
  9
$DIMDLI
 40
0.0
  9
$DIMRND
 40
1.0
  9
$DIMDLE
 40
1.0
  9
$DIMEXE
 40
2.0
  9
$DIMTP
 40
0.0
  9
$DIMTM
 40
0.0
  9
$DIMTXT
 40
6.44
  9
$DIMCEN
 40
1.0
  9
$DIMTSZ
 40
0.0
  9
$DIMTOL
 70
     0
  9
$DIMLIM
 70
     0
  9
$DIMTIH
 70
     0
  9
$DIMTOH
 70
     0
  9
$DIMSE1
 70
     0
  9
$DIMSE2
 70
     0
  9
$DIMTAD
 70
     3
  9
$DIMZIN
 70
     0
  9
$DIMBLK
  1

  9
$DIMASO
 70
     1
  9
$DIMSHO
 70
     0
  9
$DIMPOST
  1

  9
$DIMAPOST
  1

  9
$DIMALT
 70
     0
  9
$DIMALTD
 70
     2
  9
$DIMALTF
 40
25.4
  9
$DIMLFAC
 40
1.0
  9
$DIMTOFL
 70
     1
  9
$DIMTVP
 40
0.0
  9
$DIMTIX
 70
     1
  9
$DIMSOXD
 70
     0
  9
$DIMSAH
 70
     0
  9
$DIMBLK1
  1

  9
$DIMBLK2
  1

  9
$DIMSTYLE
  2
UPLNE
  9
$DIMCLRD
 70
   256
  9
$DIMCLRE
 70
   256
  9
$DIMCLRT
 70
     5
  9
$DIMTFAC
 40
1.0
  9
$DIMGAP
 40
2.0
  9
$DIMJUST
 70
     0
  9
$DIMSD1
 70
     0
  9
$DIMSD2
 70
     0
  9
$DIMTOLJ
 70
     1
  9
$DIMTZIN
 70
     0
  9
$DIMALTZ
 70
     0
  9
$DIMALTTZ
 70
     0
  9
$DIMFIT
 70
     5
  9
$DIMUPT
 70
     0
  9
$DIMUNIT
 70
     2
  9
$DIMDEC
 70
     0
  9
$DIMTDEC
 70
     0
  9
$DIMALTU
 70
     2
  9
$DIMALTTD
 70
     2
  9
$DIMTXSTY
  7
STANDARD
  9
$DIMAUNIT
 70
     0
  9
$LUNITS
 70
     2
  9
$LUPREC
 70
     2
  9
$SKETCHINC
 40
0.1
  9
$FILLETRAD
 40
5.0
  9
$AUNITS
 70
     0
  9
$AUPREC
 70
     2
  9
$MENU
  1
acad
  9
$ELEVATION
 40
0.0
  9
$PELEVATION
 40
0.0
  9
$THICKNESS
 40
0.0
  9
$LIMCHECK
 70
     0
  9
$BLIPMODE
 70
     1
  9
$CHAMFERA
 40
0.0
  9
$CHAMFERB
 40
0.0
  9
$CHAMFERC
 40
0.0
  9
$CHAMFERD
 40
0.0
  9
$SKPOLY
 70
     0
  9
$TDCREATE
 40
2448722.252204629
  9
$TDUPDATE
 40
2452465.892275347
  9
$TDINDWG
 40
2.5235738426
  9
$TDUSRTIMER
 40
2.5235738426
  9
$USRTIMER
 70
     1
  9
$ANGBASE
 50
0.0
  9
$ANGDIR
 70
     0
  9
$PDMODE
 70
     0
  9
$PDSIZE
 40
0.0
  9
$PLINEWID
 40
0.0
  9
$COORDS
 70
     2
  9
$SPLFRAME
 70
     0
  9
$SPLINETYPE
 70
     6
  9
$SPLINESEGS
 70
     8
  9
$ATTDIA
 70
     0
  9
$ATTREQ
 70
     1
  9
$HANDLING
 70
     1
  9
$HANDSEED
  5
14C
  9
$SURFTAB1
 70
     6
  9
$SURFTAB2
 70
     6
  9
$SURFTYPE
 70
     6
  9
$SURFU
 70
     6
  9
$SURFV
 70
     6
  9
$UCSNAME
  2

  9
$UCSORG
 10
0.0
 20
0.0
 30
0.0
  9
$UCSXDIR
 10
1.0
 20
0.0
 30
0.0
  9
$UCSYDIR
 10
0.0
 20
1.0
 30
0.0
  9
$PUCSNAME
  2

  9
$PUCSORG
 10
0.0
 20
0.0
 30
0.0
  9
$PUCSXDIR
 10
1.0
 20
0.0
 30
0.0
  9
$PUCSYDIR
 10
0.0
 20
1.0
 30
0.0
  9
$USERI1
 70
     1
  9
$USERI2
 70
     0
  9
$USERI3
 70
     0
  9
$USERI4
 70
     0
  9
$USERI5
 70
     0
  9
$USERR1
 40
0.0
  9
$USERR2
 40
0.0
  9
$USERR3
 40
0.0
  9
$USERR4
 40
0.0
  9
$USERR5
 40
0.0
  9
$WORLDVIEW
 70
     1
  9
$SHADEDGE
 70
     3
  9
$SHADEDIF
 70
    70
  9
$TILEMODE
 70
     1
  9
$MAXACTVP
 70
    16
  9
$PINSBASE
 10
0.0
 20
0.0
 30
0.0
  9
$PLIMCHECK
 70
     0
  9
$PEXTMIN
 10
1.000000E+20
 20
1.000000E+20
 30
1.000000E+20
  9
$PEXTMAX
 10
-1.000000E+20
 20
-1.000000E+20
 30
-1.000000E+20
  9
$PLIMMIN
 10
0.0
 20
0.0
  9
$PLIMMAX
 10
12.0
 20
9.0
  9
$UNITMODE
 70
     0
  9
$VISRETAIN
 70
     0
  9
$PLINEGEN
 70
     0
  9
$PSLTSCALE
 70
     0
  9
$TREEDEPTH
 70
  3020
  9
$PICKSTYLE
 70
     0
  9
$CMLSTYLE
  2
STANDARD
  9
$CMLJUST
 70
     0
  9
$CMLSCALE
 40
1.0
  9
$PROXYGRAPHICS
 70
     1
  9
$MEASUREMENT
 70
     0
  0
ENDSEC
  0
SECTION
  2
CLASSES
  0
CLASS
  1
LWPOLYLINE
  2
AcDbPolyline
  3
"AutoCAD"
 90
        0
280
     0
281
     1
  0
CLASS
  1
DICTIONARYVAR
  2
AcDbDictionaryVar
  3
"AutoCAD"
 90
        0
280
     0
281
     0
  0
ENDSEC
  0
SECTION
  2
TABLES
  0
TABLE
  2
VPORT
  5
12
100
AcDbSymbolTable
 70
     2
  0
VPORT
  5
14B
100
AcDbSymbolTableRecord
100
AcDbViewportTableRecord
  2
*ACTIVE
 70
     0
 10
0.0
 20
0.0
 11
1.0
 21
1.0
 12
730.907412
 22
-160.11894
 13
0.0
 23
0.0
 14
1.0
 24
1.0
 15
600.0
 25
600.0
 16
0.0
 26
0.0
 36
1.0
 17
0.0
 27
0.0
 37
0.0
 40
735.058839
 41
2.224444
 42
50.0
 43
0.0
 44
0.0
 50
0.0
 51
0.0
 71
     0
 72
   100
 73
     1
 74
     0
 75
     0
 76
     0
 77
     0
 78
     0
  0
ENDTAB
  0
TABLE
  2
LTYPE
  5
D
100
AcDbSymbolTable
 70
     1
  0
LTYPE
  5
E
100
AcDbSymbolTableRecord
100
AcDbLinetypeTableRecord
  2
BYBLOCK
 70
     0
  3

 72
    65
 73
     0
 40
0.0
  0
LTYPE
  5
F
100
AcDbSymbolTableRecord
100
AcDbLinetypeTableRecord
  2
BYLAYER
 70
     0
  3

 72
    65
 73
     0
 40
0.0
  0
LTYPE
  5
5
100
AcDbSymbolTableRecord
100
AcDbLinetypeTableRecord
  2
CONTINUOUS
 70
     0
  3
Solid line
 72
    65
 73
     0
 40
0.0
  0
ENDTAB
  0
TABLE
  2
LAYER
  5
A
100
AcDbSymbolTable
 70
     7
  0
LAYER
  5
4
100
AcDbSymbolTableRecord
100
AcDbLayerTableRecord
  2
0
 70
     0
 62
     7
  6
CONTINUOUS
  0
LAYER
  5
1B
100
AcDbSymbolTableRecord
100
AcDbLayerTableRecord
  2
KOTY-UPLNE
 70
     0
 62
     7
  6
CONTINUOUS
  0
LAYER
  5
35
100
AcDbSymbolTableRecord
100
AcDbLayerTableRecord
  2
RAMEC
 70
     0
 62
     5
  6
CONTINUOUS
  0
LAYER
  5
30
100
AcDbSymbolTableRecord
100
AcDbLayerTableRecord
  2
POZICE
 70
     0
 62
     1
  6
CONTINUOUS
  0
LAYER
  5
33
100
AcDbSymbolTableRecord
100
AcDbLayerTableRecord
  2
POPIS
 70
     0
 62
     1
  6
CONTINUOUS
  0
LAYER
  5
28
100
AcDbSymbolTableRecord
100
AcDbLayerTableRecord
  2
DEFPOINTS
 70
     0
 62
     7
  6
CONTINUOUS
  0
LAYER
  5
2E
100
AcDbSymbolTableRecord
100
AcDbLayerTableRecord
  2
TRAPEZ-VELKY
 70
     0
 62
     7
  6
CONTINUOUS
  0
ENDTAB
  0
TABLE
  2
STYLE
  5
B
100
AcDbSymbolTable
 70
     2
  0
STYLE
  5
C
100
AcDbSymbolTableRecord
100
AcDbTextStyleTableRecord
  2
STANDARD
 70
     0
 40
0.0
 41
0.9
 50
0.0
 71
     0
 42
50.0
  3
simplex.shx
  4

  0
STYLE
  5
31
100
AcDbSymbolTableRecord
100
AcDbTextStyleTableRecord
  2
STYLE1
 70
     0
 40
0.0
 41
0.9
 50
0.0
 71
     0
 42
50.0
  3
simplex.shx
  4

  0
ENDTAB
  0
TABLE
  2
VIEW
  5
10
100
AcDbSymbolTable
 70
     0
  0
ENDTAB
  0
TABLE
  2
UCS
  5
11
100
AcDbSymbolTable
 70
     0
  0
ENDTAB
  0
TABLE
  2
APPID
  5
14
100
AcDbSymbolTable
 70
     1
  0
APPID
  5
15
100
AcDbSymbolTableRecord
100
AcDbRegAppTableRecord
  2
ACAD
 70
     0
  0
ENDTAB
  0
TABLE
  2
DIMSTYLE
  5
16
100
AcDbSymbolTable
 70
     1
  0
DIMSTYLE
105
1D
102
{ACAD_REACTORS
330
AC
330
36
330
1F
330
63
330
8F
330
43
330
7F
330
53
330
108
330
F8
330
128
330
118
330
9C
330
138
330
E8
330
D8
330
C8
330
B9
330
70
102
}
100
AcDbSymbolTableRecord
100
AcDbDimStyleTableRecord
  2
UPLNE
 70
     0
  3

  4

  5

  6

  7

 40
5.0
 41
5.0
 42
1.0
 43
0.0
 44
2.0
 45
1.0
 46
1.0
 47
0.0
 48
0.0
140
6.44
141
1.0
142
0.0
143
25.4
144
1.0
145
0.0
146
1.0
147
1.0
 71
     0
 72
     0
 73
     0
 74
     0
 75
     0
 76
     0
 77
     3
 78
     0
170
     0
171
     2
172
     1
173
     0
174
     1
175
     0
176
   256
177
   256
178
     5
270
     2
271
     0
272
     0
273
     2
274
     2
340
C
275
     0
280
     0
281
     0
282
     0
283
     1
284
     0
285
     0
286
     0
287
     5
288
     0
  0
ENDTAB
  0
TABLE
  2
BLOCK_RECORD
  5
1
100
AcDbSymbolTable
 70
    19
  0
BLOCK_RECORD
  5
2
100
AcDbSymbolTableRecord
100
AcDbBlockTableRecord
  2
*MODEL_SPACE
  0
BLOCK_RECORD
  5
7
100
AcDbSymbolTableRecord
100
AcDbBlockTableRecord
  2
*PAPER_SPACE
  0
BLOCK_RECORD
  5
AD
100
AcDbSymbolTableRecord
100
AcDbBlockTableRecord
  2
*D0
  0
BLOCK_RECORD
  5
37
100
AcDbSymbolTableRecord
100
AcDbBlockTableRecord
  2
*D1
  0
BLOCK_RECORD
  5
20
100
AcDbSymbolTableRecord
100
AcDbBlockTableRecord
  2
*D2
  0
BLOCK_RECORD
  5
64
100
AcDbSymbolTableRecord
100
AcDbBlockTableRecord
  2
*D3
  0
BLOCK_RECORD
  5
90
100
AcDbSymbolTableRecord
100
AcDbBlockTableRecord
  2
*D4
  0
BLOCK_RECORD
  5
44
100
AcDbSymbolTableRecord
100
AcDbBlockTableRecord
  2
*D5
  0
BLOCK_RECORD
  5
80
100
AcDbSymbolTableRecord
100
AcDbBlockTableRecord
  2
*D6
  0
BLOCK_RECORD
  5
54
100
AcDbSymbolTableRecord
100
AcDbBlockTableRecord
  2
*D7
  0
BLOCK_RECORD
  5
109
100
AcDbSymbolTableRecord
100
AcDbBlockTableRecord
  2
*D8
  0
BLOCK_RECORD
  5
F9
100
AcDbSymbolTableRecord
100
AcDbBlockTableRecord
  2
*D9
  0
BLOCK_RECORD
  5
129
100
AcDbSymbolTableRecord
100
AcDbBlockTableRecord
  2
*D10
  0
BLOCK_RECORD
  5
119
100
AcDbSymbolTableRecord
100
AcDbBlockTableRecord
  2
*D11
  0
BLOCK_RECORD
  5
9D
100
AcDbSymbolTableRecord
100
AcDbBlockTableRecord
  2
*D12
  0
BLOCK_RECORD
  5
139
100
AcDbSymbolTableRecord
100
AcDbBlockTableRecord
  2
*D13
  0
BLOCK_RECORD
  5
E9
100
AcDbSymbolTableRecord
100
AcDbBlockTableRecord
  2
*D14
  0
BLOCK_RECORD
  5
D9
100
AcDbSymbolTableRecord
100
AcDbBlockTableRecord
  2
*D15
  0
BLOCK_RECORD
  5
C9
100
AcDbSymbolTableRecord
100
AcDbBlockTableRecord
  2
*D16
  0
BLOCK_RECORD
  5
BA
100
AcDbSymbolTableRecord
100
AcDbBlockTableRecord
  2
*D17
  0
BLOCK_RECORD
  5
71
100
AcDbSymbolTableRecord
100
AcDbBlockTableRecord
  2
*D18
  0
ENDTAB
  0
ENDSEC
  0
SECTION
  2
BLOCKS
  0
BLOCK
  5
3
100
AcDbEntity
  8
0
100
AcDbBlockBegin
  2
*MODEL_SPACE
 70
     0
 10
0.0
 20
0.0
 30
0.0
  3
*MODEL_SPACE
  1

  0
ENDBLK
  5
6
100
AcDbEntity
  8
0
100
AcDbBlockEnd
  0
BLOCK
  5
8
100
AcDbEntity
 67
     1
  8
0
100
AcDbBlockBegin
  2
*PAPER_SPACE
 70
     0
 10
0.0
 20
0.0
 30
0.0
  3
*PAPER_SPACE
  1

  0
ENDBLK
  5
9
100
AcDbEntity
 67
     1
  8
0
100
AcDbBlockEnd
  0
BLOCK
  5
B7
100
AcDbEntity
  8
0
100
AcDbBlockBegin
  2
*D0
 70
     1
 10
0.0
 20
0.0
 30
0.0
  3
*D0
  1

  0
LINE
  5
AE
100
AcDbEntity
  8
0
  6
BYBLOCK
100
AcDbLine
 10
1783.149346
 20
-4382.079082
 30
0.0
 11
2064.328771
 21
-4382.079082
 31
0.0
  0
LINE
  5
AF
100
AcDbEntity
  8
0
  6
BYBLOCK
100
AcDbLine
 10
1881.930297
 20
-4309.409082
 30
0.0
 11
2064.328771
 21
-4309.409082
 31
0.0
  0
LINE
  5
B0
100
AcDbEntity
  8
0
  6
BYBLOCK
100
AcDbLine
 10
2058.328771
 20
-4367.079082
 30
0.0
 11
2058.328771
 21
-4324.409082
 31
0.0
  0
SOLID
  5
B1
100
AcDbEntity
  8
0
  6
BYBLOCK
100
AcDbTrace
 10
2055.828771
 20
-4367.079082
 30
0.0
 11
2060.828771
 21
-4367.079082
 31
0.0
 12
2058.328771
 22
-4382.079082
 32
0.0
 13
2058.328771
 23
-4382.079082
 33
0.0
  0
SOLID
  5
B2
100
AcDbEntity
  8
0
  6
BYBLOCK
100
AcDbTrace
 10
2055.828771
 20
-4324.409082
 30
0.0
 11
2060.828771
 21
-4324.409082
 31
0.0
 12
2058.328771
 22
-4309.409082
 32
0.0
 13
2058.328771
 23
-4309.409082
 33
0.0
  0
MTEXT
  5
B3
100
AcDbEntity
  8
0
  6
BYBLOCK
 62
     5
100
AcDbMText
 10
2040.828771
 20
-4345.744082
 30
0.0
 40
19.32
 41
0.0
 71
     5
 72
     1
  1
\A1;72,7
 11
0.0
 21
1.0
 31
0.0
  0
POINT
  5
B4
100
AcDbEntity
  8
DEFPOINTS
  6
BYBLOCK
 62
     0
100
AcDbPoint
 10
1780.149346
 20
-4382.079082
 30
0.0
  0
POINT
  5
B5
100
AcDbEntity
  8
DEFPOINTS
  6
BYBLOCK
 62
     0
100
AcDbPoint
 10
1878.930297
 20
-4309.409082
 30
0.0
  0
POINT
  5
B6
100
AcDbEntity
  8
DEFPOINTS
  6
BYBLOCK
 62
     0
100
AcDbPoint
 10
2058.328771
 20
-4309.409082
 30
0.0
  0
ENDBLK
  5
B8
100
AcDbEntity
  8
0
100
AcDbBlockEnd
  0
BLOCK
  5
41
100
AcDbEntity
  8
0
100
AcDbBlockBegin
  2
*D1
 70
     1
 10
0.0
 20
0.0
 30
0.0
  3
*D1
  1

  0
LINE
  5
38
100
AcDbEntity
  8
0
  6
BYBLOCK
100
AcDbLine
 10
1096.182687
 20
-4317.409082
 30
0.0
 11
1096.182687
 21
-4449.022274
 31
0.0
  0
LINE
  5
39
100
AcDbEntity
  8
0
  6
BYBLOCK
100
AcDbLine
 10
1283.74459
 20
-4317.409082
 30
0.0
 11
1283.74459
 21
-4449.022274
 31
0.0
  0
LINE
  5
3A
100
AcDbEntity
  8
0
  6
BYBLOCK
100
AcDbLine
 10
1111.182687
 20
-4443.022274
 30
0.0
 11
1268.74459
 21
-4443.022274
 31
0.0
  0
SOLID
  5
3B
100
AcDbEntity
  8
0
  6
BYBLOCK
100
AcDbTrace
 10
1111.182687
 20
-4440.522274
 30
0.0
 11
1111.182687
 21
-4445.522274
 31
0.0
 12
1096.182687
 22
-4443.022274
 32
0.0
 13
1096.182687
 23
-4443.022274
 33
0.0
  0
SOLID
  5
3C
100
AcDbEntity
  8
0
  6
BYBLOCK
100
AcDbTrace
 10
1268.74459
 20
-4440.522274
 30
0.0
 11
1268.74459
 21
-4445.522274
 31
0.0
 12
1283.74459
 22
-4443.022274
 32
0.0
 13
1283.74459
 23
-4443.022274
 33
0.0
  0
MTEXT
  5
3D
100
AcDbEntity
  8
0
  6
BYBLOCK
 62
     5
100
AcDbMText
 10
1189.963639
 20
-4425.522274
 30
0.0
 40
19.32
 41
0.0
 71
     5
 72
     1
  1
\A1;187,5
  0
POINT
  5
3E
100
AcDbEntity
  8
DEFPOINTS
  6
BYBLOCK
 62
     0
100
AcDbPoint
 10
1096.182687
 20
-4314.409082
 30
0.0
  0
POINT
  5
3F
100
AcDbEntity
  8
DEFPOINTS
  6
BYBLOCK
 62
     0
100
AcDbPoint
 10
1283.74459
 20
-4314.409082
 30
0.0
  0
POINT
  5
40
100
AcDbEntity
  8
DEFPOINTS
  6
BYBLOCK
 62
     0
100
AcDbPoint
 10
1283.74459
 20
-4443.022274
 30
0.0
  0
ENDBLK
  5
42
100
AcDbEntity
  8
0
100
AcDbBlockEnd
  0
BLOCK
  5
2B
100
AcDbEntity
  8
0
100
AcDbBlockBegin
  2
*D2
 70
     1
 10
0.0
 20
0.0
 30
0.0
  3
*D2
  1

  0
LINE
  5
21
100
AcDbEntity
  8
0
  6
BYBLOCK
100
AcDbLine
 10
1096.182687
 20
-4317.409082
 30
0.0
 11
1096.182687
 21
-4509.022274
 31
0.0
  0
LINE
  5
22
100
AcDbEntity
  8
0
  6
BYBLOCK
100
AcDbLine
 10
1846.430297
 20
-4317.409082
 30
0.0
 11
1846.430297
 21
-4509.022274
 31
0.0
  0
LINE
  5
23
100
AcDbEntity
  8
0
  6
BYBLOCK
100
AcDbLine
 10
1111.182687
 20
-4503.022274
 30
0.0
 11
1831.430297
 21
-4503.022274
 31
0.0
  0
SOLID
  5
24
100
AcDbEntity
  8
0
  6
BYBLOCK
100
AcDbTrace
 10
1111.182687
 20
-4500.522274
 30
0.0
 11
1111.182687
 21
-4505.522274
 31
0.0
 12
1096.182687
 22
-4503.022274
 32
0.0
 13
1096.182687
 23
-4503.022274
 33
0.0
  0
SOLID
  5
25
100
AcDbEntity
  8
0
  6
BYBLOCK
100
AcDbTrace
 10
1831.430297
 20
-4500.522274
 30
0.0
 11
1831.430297
 21
-4505.522274
 31
0.0
 12
1846.430297
 22
-4503.022274
 32
0.0
 13
1846.430297
 23
-4503.022274
 33
0.0
  0
MTEXT
  5
26
100
AcDbEntity
  8
0
  6
BYBLOCK
 62
     5
100
AcDbMText
 10
1471.306492
 20
-4487.362274
 30
0.0
 40
19.32
 41
0.0
 71
     5
 72
     1
  1
\A1;750
  0
POINT
  5
27
100
AcDbEntity
  8
DEFPOINTS
  6
BYBLOCK
 62
     0
100
AcDbPoint
 10
1096.182687
 20
-4314.409082
 30
0.0
  0
POINT
  5
29
100
AcDbEntity
  8
DEFPOINTS
  6
BYBLOCK
 62
     0
100
AcDbPoint
 10
1846.430297
 20
-4314.409082
 30
0.0
  0
POINT
  5
2A
100
AcDbEntity
  8
DEFPOINTS
  6
BYBLOCK
 62
     0
100
AcDbPoint
 10
1846.430297
 20
-4503.022274
 30
0.0
  0
ENDBLK
  5
2C
100
AcDbEntity
  8
0
100
AcDbBlockEnd
  0
BLOCK
  5
6E
100
AcDbEntity
  8
0
100
AcDbBlockBegin
  2
*D3
 70
     1
 10
0.0
 20
0.0
 30
0.0
  3
*D3
  1

  0
LINE
  5
65
100
AcDbEntity
  8
0
  6
BYBLOCK
100
AcDbLine
 10
1251.24459
 20
-4306.409082
 30
0.0
 11
1251.24459
 21
-4266.797685
 31
0.0
  0
LINE
  5
66
100
AcDbEntity
  8
0
  6
BYBLOCK
100
AcDbLine
 10
1316.24459
 20
-4306.409082
 30
0.0
 11
1316.24459
 21
-4266.797685
 31
0.0
  0
LINE
  5
67
100
AcDbEntity
  8
0
  6
BYBLOCK
100
AcDbLine
 10
1266.24459
 20
-4272.797685
 30
0.0
 11
1301.24459
 21
-4272.797685
 31
0.0
  0
SOLID
  5
68
100
AcDbEntity
  8
0
  6
BYBLOCK
100
AcDbTrace
 10
1266.24459
 20
-4270.297685
 30
0.0
 11
1266.24459
 21
-4275.297685
 31
0.0
 12
1251.24459
 22
-4272.797685
 32
0.0
 13
1251.24459
 23
-4272.797685
 33
0.0
  0
SOLID
  5
69
100
AcDbEntity
  8
0
  6
BYBLOCK
100
AcDbTrace
 10
1301.24459
 20
-4270.297685
 30
0.0
 11
1301.24459
 21
-4275.297685
 31
0.0
 12
1316.24459
 22
-4272.797685
 32
0.0
 13
1316.24459
 23
-4272.797685
 33
0.0
  0
MTEXT
  5
6A
100
AcDbEntity
  8
0
  6
BYBLOCK
 62
     5
100
AcDbMText
 10
1283.74459
 20
-4257.137685
 30
0.0
 40
19.32
 41
0.0
 71
     5
 72
     1
  1
\A1;65
  0
POINT
  5
6B
100
AcDbEntity
  8
DEFPOINTS
  6
BYBLOCK
 62
     0
100
AcDbPoint
 10
1251.24459
 20
-4309.409082
 30
0.0
  0
POINT
  5
6C
100
AcDbEntity
  8
DEFPOINTS
  6
BYBLOCK
 62
     0
100
AcDbPoint
 10
1316.24459
 20
-4309.409082
 30
0.0
  0
POINT
  5
6D
100
AcDbEntity
  8
DEFPOINTS
  6
BYBLOCK
 62
     0
100
AcDbPoint
 10
1316.24459
 20
-4272.797685
 30
0.0
  0
ENDBLK
  5
6F
100
AcDbEntity
  8
0
100
AcDbBlockEnd
  0
BLOCK
  5
9A
100
AcDbEntity
  8
0
100
AcDbBlockBegin
  2
*D4
 70
     1
 10
0.0
 20
0.0
 30
0.0
  3
*D4
  1

  0
LINE
  5
91
100
AcDbEntity
  8
0
  6
BYBLOCK
100
AcDbLine
 10
1350.025541
 20
-4385.079082
 30
0.0
 11
1350.025541
 21
-4449.022274
 31
0.0
  0
LINE
  5
92
100
AcDbEntity
  8
0
  6
BYBLOCK
100
AcDbLine
 10
1405.025541
 20
-4385.079082
 30
0.0
 11
1405.025541
 21
-4449.022274
 31
0.0
  0
LINE
  5
93
100
AcDbEntity
  8
0
  6
BYBLOCK
100
AcDbLine
 10
1365.025541
 20
-4443.022274
 30
0.0
 11
1390.025541
 21
-4443.022274
 31
0.0
  0
SOLID
  5
94
100
AcDbEntity
  8
0
  6
BYBLOCK
100
AcDbTrace
 10
1365.025541
 20
-4440.522274
 30
0.0
 11
1365.025541
 21
-4445.522274
 31
0.0
 12
1350.025541
 22
-4443.022274
 32
0.0
 13
1350.025541
 23
-4443.022274
 33
0.0
  0
SOLID
  5
95
100
AcDbEntity
  8
0
  6
BYBLOCK
100
AcDbTrace
 10
1390.025541
 20
-4440.522274
 30
0.0
 11
1390.025541
 21
-4445.522274
 31
0.0
 12
1405.025541
 22
-4443.022274
 32
0.0
 13
1405.025541
 23
-4443.022274
 33
0.0
  0
MTEXT
  5
96
100
AcDbEntity
  8
0
  6
BYBLOCK
 62
     5
100
AcDbMText
 10
1377.525541
 20
-4427.362274
 30
0.0
 40
19.32
 41
0.0
 71
     5
 72
     1
  1
\A1;55
  0
POINT
  5
97
100
AcDbEntity
  8
DEFPOINTS
  6
BYBLOCK
 62
     0
100
AcDbPoint
 10
1350.025541
 20
-4382.079082
 30
0.0
  0
POINT
  5
98
100
AcDbEntity
  8
DEFPOINTS
  6
BYBLOCK
 62
     0
100
AcDbPoint
 10
1405.025541
 20
-4382.079082
 30
0.0
  0
POINT
  5
99
100
AcDbEntity
  8
DEFPOINTS
  6
BYBLOCK
 62
     0
100
AcDbPoint
 10
1405.025541
 20
-4443.022274
 30
0.0
  0
ENDBLK
  5
9B
100
AcDbEntity
  8
0
100
AcDbBlockEnd
  0
BLOCK
  5
51
100
AcDbEntity
  8
0
100
AcDbBlockBegin
  2
*D5
 70
     1
 10
0.0
 20
0.0
 30
0.0
  3
*D5
  1

  0
LINE
  5
45
100
AcDbEntity
  8
0
  6
BYBLOCK
100
AcDbLine
 10
1286.74459
 20
-4314.409082
 30
0.0
 11
1360.822927
 21
-4314.409082
 31
0.0
  0
LINE
  5
46
100
AcDbEntity
  8
0
  6
BYBLOCK
100
AcDbLine
 10
1319.24459
 20
-4309.409082
 30
0.0
 11
1360.822927
 21
-4309.409082
 31
0.0
  0
LINE
  5
47
100
AcDbEntity
  8
0
  6
BYBLOCK
100
AcDbLine
 10
1354.822927
 20
-4329.409082
 30
0.0
 11
1354.822927
 21
-4344.409082
 31
0.0
  0
LINE
  5
48
100
AcDbEntity
  8
0
  6
BYBLOCK
100
AcDbLine
 10
1354.822927
 20
-4294.409082
 30
0.0
 11
1354.822927
 21
-4279.409082
 31
0.0
  0
MTEXT
  5
49
100
AcDbEntity
  8
0
  6
BYBLOCK
 62
     5
100
AcDbMText
 10
1339.072927
 20
-4292.976768
 30
0.0
 40
19.32
 41
0.0
 71
     5
 72
     1
  1
\A1;5
 11
0.0
 21
1.0
 31
0.0
  0
LINE
  5
4A
100
AcDbEntity
  8
0
  6
BYBLOCK
100
AcDbLine
 10
1354.822927
 20
-4314.409082
 30
0.0
 11
1354.822927
 21
-4309.409082
 31
0.0
  0
LINE
  5
4B
100
AcDbEntity
  8
0
  6
BYBLOCK
100
AcDbLine
 10
1354.822927
 20
-4314.409082
 30
0.0
 11
1354.822927
 21
-4309.409082
 31
0.0
  0
SOLID
  5
4C
100
AcDbEntity
  8
0
  6
BYBLOCK
100
AcDbTrace
 10
1352.322927
 20
-4329.409082
 30
0.0
 11
1357.322927
 21
-4329.409082
 31
0.0
 12
1354.822927
 22
-4314.409082
 32
0.0
 13
1354.822927
 23
-4314.409082
 33
0.0
  0
SOLID
  5
4D
100
AcDbEntity
  8
0
  6
BYBLOCK
100
AcDbTrace
 10
1352.322927
 20
-4294.409082
 30
0.0
 11
1357.322927
 21
-4294.409082
 31
0.0
 12
1354.822927
 22
-4309.409082
 32
0.0
 13
1354.822927
 23
-4309.409082
 33
0.0
  0
POINT
  5
4E
100
AcDbEntity
  8
DEFPOINTS
  6
BYBLOCK
 62
     0
100
AcDbPoint
 10
1283.74459
 20
-4314.409082
 30
0.0
  0
POINT
  5
4F
100
AcDbEntity
  8
DEFPOINTS
  6
BYBLOCK
 62
     0
100
AcDbPoint
 10
1316.24459
 20
-4309.409082
 30
0.0
  0
POINT
  5
50
100
AcDbEntity
  8
DEFPOINTS
  6
BYBLOCK
 62
     0
100
AcDbPoint
 10
1354.822927
 20
-4309.409082
 30
0.0
  0
ENDBLK
  5
52
100
AcDbEntity
  8
0
100
AcDbBlockEnd
  0
BLOCK
  5
8D
100
AcDbEntity
  8
0
100
AcDbBlockBegin
  2
*D6
 70
     1
 10
0.0
 20
0.0
 30
0.0
  3
*D6
  1

  0
LINE
  5
81
100
AcDbEntity
  8
0
  6
BYBLOCK
100
AcDbLine
 10
1380.525541
 20
-4375.079082
 30
0.0
 11
1460.347082
 21
-4375.079082
 31
0.0
  0
LINE
  5
82
100
AcDbEntity
  8
0
  6
BYBLOCK
100
AcDbLine
 10
1408.025541
 20
-4382.079082
 30
0.0
 11
1460.347082
 21
-4382.079082
 31
0.0
  0
LINE
  5
83
100
AcDbEntity
  8
0
  6
BYBLOCK
100
AcDbLine
 10
1454.347082
 20
-4360.079082
 30
0.0
 11
1454.347082
 21
-4345.079082
 31
0.0
  0
LINE
  5
84
100
AcDbEntity
  8
0
  6
BYBLOCK
100
AcDbLine
 10
1454.347082
 20
-4397.079082
 30
0.0
 11
1454.347082
 21
-4412.079082
 31
0.0
  0
MTEXT
  5
85
100
AcDbEntity
  8
0
  6
BYBLOCK
 62
     5
100
AcDbMText
 10
1438.597082
 20
-4398.437193
 30
0.0
 40
19.32
 41
0.0
 71
     5
 72
     1
  1
\A1;7
 11
0.0
 21
1.0
 31
0.0
  0
LINE
  5
86
100
AcDbEntity
  8
0
  6
BYBLOCK
100
AcDbLine
 10
1454.347082
 20
-4375.079082
 30
0.0
 11
1454.347082
 21
-4382.079082
 31
0.0
  0
LINE
  5
87
100
AcDbEntity
  8
0
  6
BYBLOCK
100
AcDbLine
 10
1454.347082
 20
-4375.079082
 30
0.0
 11
1454.347082
 21
-4382.079082
 31
0.0
  0
SOLID
  5
88
100
AcDbEntity
  8
0
  6
BYBLOCK
100
AcDbTrace
 10
1451.847082
 20
-4360.079082
 30
0.0
 11
1456.847082
 21
-4360.079082
 31
0.0
 12
1454.347082
 22
-4375.079082
 32
0.0
 13
1454.347082
 23
-4375.079082
 33
0.0
  0
SOLID
  5
89
100
AcDbEntity
  8
0
  6
BYBLOCK
100
AcDbTrace
 10
1451.847082
 20
-4397.079082
 30
0.0
 11
1456.847082
 21
-4397.079082
 31
0.0
 12
1454.347082
 22
-4382.079082
 32
0.0
 13
1454.347082
 23
-4382.079082
 33
0.0
  0
POINT
  5
8A
100
AcDbEntity
  8
DEFPOINTS
  6
BYBLOCK
 62
     0
100
AcDbPoint
 10
1377.525541
 20
-4375.079082
 30
0.0
  0
POINT
  5
8B
100
AcDbEntity
  8
DEFPOINTS
  6
BYBLOCK
 62
     0
100
AcDbPoint
 10
1405.025541
 20
-4382.079082
 30
0.0
  0
POINT
  5
8C
100
AcDbEntity
  8
DEFPOINTS
  6
BYBLOCK
 62
     0
100
AcDbPoint
 10
1454.347082
 20
-4382.079082
 30
0.0
  0
ENDBLK
  5
8E
100
AcDbEntity
  8
0
100
AcDbBlockEnd
  0
BLOCK
  5
61
100
AcDbEntity
  8
0
100
AcDbBlockBegin
  2
*D7
 70
     1
 10
0.0
 20
0.0
 30
0.0
  3
*D7
  1

  0
LINE
  5
55
100
AcDbEntity
  8
0
  6
BYBLOCK
100
AcDbLine
 10
1217.463639
 20
-4379.079082
 30
0.0
 11
1217.463639
 21
-4266.797685
 31
0.0
  0
LINE
  5
56
100
AcDbEntity
  8
0
  6
BYBLOCK
100
AcDbLine
 10
1251.24459
 20
-4306.409082
 30
0.0
 11
1251.24459
 21
-4266.797685
 31
0.0
  0
LINE
  5
57
100
AcDbEntity
  8
0
  6
BYBLOCK
100
AcDbLine
 10
1202.463639
 20
-4272.797685
 30
0.0
 11
1187.463639
 21
-4272.797685
 31
0.0
  0
LINE
  5
58
100
AcDbEntity
  8
0
  6
BYBLOCK
100
AcDbLine
 10
1266.24459
 20
-4272.797685
 30
0.0
 11
1281.24459
 21
-4272.797685
 31
0.0
  0
MTEXT
  5
59
100
AcDbEntity
  8
0
  6
BYBLOCK
 62
     5
100
AcDbMText
 10
1219.512992
 20
-4258.385754
 30
0.0
 40
19.32
 41
0.0
 71
     5
 72
     1
  1
\A1;33,8
  0
LINE
  5
5A
100
AcDbEntity
  8
0
  6
BYBLOCK
100
AcDbLine
 10
1217.463639
 20
-4272.797685
 30
0.0
 11
1251.24459
 21
-4272.797685
 31
0.0
  0
LINE
  5
5B
100
AcDbEntity
  8
0
  6
BYBLOCK
100
AcDbLine
 10
1217.463639
 20
-4272.797685
 30
0.0
 11
1251.24459
 21
-4272.797685
 31
0.0
  0
SOLID
  5
5C
100
AcDbEntity
  8
0
  6
BYBLOCK
100
AcDbTrace
 10
1202.463639
 20
-4270.297685
 30
0.0
 11
1202.463639
 21
-4275.297685
 31
0.0
 12
1217.463639
 22
-4272.797685
 32
0.0
 13
1217.463639
 23
-4272.797685
 33
0.0
  0
SOLID
  5
5D
100
AcDbEntity
  8
0
  6
BYBLOCK
100
AcDbTrace
 10
1266.24459
 20
-4270.297685
 30
0.0
 11
1266.24459
 21
-4275.297685
 31
0.0
 12
1251.24459
 22
-4272.797685
 32
0.0
 13
1251.24459
 23
-4272.797685
 33
0.0
  0
POINT
  5
5E
100
AcDbEntity
  8
DEFPOINTS
  6
BYBLOCK
 62
     0
100
AcDbPoint
 10
1217.463639
 20
-4382.079082
 30
0.0
  0
POINT
  5
5F
100
AcDbEntity
  8
DEFPOINTS
  6
BYBLOCK
 62
     0
100
AcDbPoint
 10
1251.24459
 20
-4309.409082
 30
0.0
  0
POINT
  5
60
100
AcDbEntity
  8
DEFPOINTS
  6
BYBLOCK
 62
     0
100
AcDbPoint
 10
1251.24459
 20
-4272.797685
 30
0.0
  0
ENDBLK
  5
62
100
AcDbEntity
  8
0
100
AcDbBlockEnd
  0
BLOCK
  5
116
100
AcDbEntity
  8
0
100
AcDbBlockBegin
  2
*D8
 70
     1
 10
0.0
 20
0.0
 30
0.0
  3
*D8
  1

  0
LINE
  5
10A
100
AcDbEntity
  8
0
  6
BYBLOCK
100
AcDbLine
 10
1881.930297
 20
-4309.409082
 30
0.0
 11
1932.952696
 21
-4309.409082
 31
0.0
  0
LINE
  5
10B
100
AcDbEntity
  8
0
  6
BYBLOCK
100
AcDbLine
 10
1812.674283
 20
-4324.579082
 30
0.0
 11
1932.952696
 21
-4324.579082
 31
0.0
  0
LINE
  5
10C
100
AcDbEntity
  8
0
  6
BYBLOCK
100
AcDbLine
 10
1926.952696
 20
-4294.409082
 30
0.0
 11
1926.952696
 21
-4279.409082
 31
0.0
  0
LINE
  5
10D
100
AcDbEntity
  8
0
  6
BYBLOCK
100
AcDbLine
 10
1926.952696
 20
-4339.579082
 30
0.0
 11
1926.952696
 21
-4354.579082
 31
0.0
  0
MTEXT
  5
10E
100
AcDbEntity
  8
0
  6
BYBLOCK
 62
     5
100
AcDbMText
 10
1911.202696
 20
-4279.017669
 30
0.0
 40
19.32
 41
0.0
 71
     5
 72
     1
  1
\A1;15,2
 11
0.0
 21
1.0
 31
0.0
  0
LINE
  5
10F
100
AcDbEntity
  8
0
  6
BYBLOCK
100
AcDbLine
 10
1926.952696
 20
-4309.409082
 30
0.0
 11
1926.952696
 21
-4324.579082
 31
0.0
  0
LINE
  5
110
100
AcDbEntity
  8
0
  6
BYBLOCK
100
AcDbLine
 10
1926.952696
 20
-4309.409082
 30
0.0
 11
1926.952696
 21
-4324.579082
 31
0.0
  0
SOLID
  5
111
100
AcDbEntity
  8
0
  6
BYBLOCK
100
AcDbTrace
 10
1924.452696
 20
-4294.409082
 30
0.0
 11
1929.452696
 21
-4294.409082
 31
0.0
 12
1926.952696
 22
-4309.409082
 32
0.0
 13
1926.952696
 23
-4309.409082
 33
0.0
  0
SOLID
  5
112
100
AcDbEntity
  8
0
  6
BYBLOCK
100
AcDbTrace
 10
1924.452696
 20
-4339.579082
 30
0.0
 11
1929.452696
 21
-4339.579082
 31
0.0
 12
1926.952696
 22
-4324.579082
 32
0.0
 13
1926.952696
 23
-4324.579082
 33
0.0
  0
POINT
  5
113
100
AcDbEntity
  8
DEFPOINTS
  6
BYBLOCK
 62
     0
100
AcDbPoint
 10
1878.930297
 20
-4309.409082
 30
0.0
  0
POINT
  5
114
100
AcDbEntity
  8
DEFPOINTS
  6
BYBLOCK
 62
     0
100
AcDbPoint
 10
1809.674283
 20
-4324.579082
 30
0.0
  0
POINT
  5
115
100
AcDbEntity
  8
DEFPOINTS
  6
BYBLOCK
 62
     0
100
AcDbPoint
 10
1926.952696
 20
-4324.579082
 30
0.0
  0
ENDBLK
  5
117
100
AcDbEntity
  8
0
100
AcDbBlockEnd
  0
BLOCK
  5
106
100
AcDbEntity
  8
0
100
AcDbBlockBegin
  2
*D9
 70
     1
 10
0.0
 20
0.0
 30
0.0
  3
*D9
  1

  0
LINE
  5
FA
100
AcDbEntity
  8
0
  6
BYBLOCK
100
AcDbLine
 10
1812.674283
 20
-4324.579082
 30
0.0
 11
1932.952696
 21
-4324.579082
 31
0.0
  0
LINE
  5
FB
100
AcDbEntity
  8
0
  6
BYBLOCK
100
AcDbLine
 10
1805.900589
 20
-4329.999082
 30
0.0
 11
1932.952696
 21
-4329.999082
 31
0.0
  0
LINE
  5
FC
100
AcDbEntity
  8
0
  6
BYBLOCK
100
AcDbLine
 10
1926.952696
 20
-4309.579082
 30
0.0
 11
1926.952696
 21
-4294.579082
 31
0.0
  0
LINE
  5
FD
100
AcDbEntity
  8
0
  6
BYBLOCK
100
AcDbLine
 10
1926.952696
 20
-4344.999082
 30
0.0
 11
1926.952696
 21
-4359.999082
 31
0.0
  0
MTEXT
  5
FE
100
AcDbEntity
  8
0
  6
BYBLOCK
 62
     5
100
AcDbMText
 10
1948.938474
 20
-4327.289082
 30
0.0
 40
19.32
 41
0.0
 71
     5
 72
     1
  1
\A1;5,4
 11
0.0
 21
1.0
 31
0.0
  0
LINE
  5
FF
100
AcDbEntity
  8
0
  6
BYBLOCK
100
AcDbLine
 10
1926.952696
 20
-4324.579082
 30
0.0
 11
1926.952696
 21
-4329.999082
 31
0.0
  0
LINE
  5
100
100
AcDbEntity
  8
0
  6
BYBLOCK
100
AcDbLine
 10
1926.952696
 20
-4324.579082
 30
0.0
 11
1926.952696
 21
-4329.999082
 31
0.0
  0
SOLID
  5
101
100
AcDbEntity
  8
0
  6
BYBLOCK
100
AcDbTrace
 10
1924.452696
 20
-4309.579082
 30
0.0
 11
1929.452696
 21
-4309.579082
 31
0.0
 12
1926.952696
 22
-4324.579082
 32
0.0
 13
1926.952696
 23
-4324.579082
 33
0.0
  0
SOLID
  5
102
100
AcDbEntity
  8
0
  6
BYBLOCK
100
AcDbTrace
 10
1924.452696
 20
-4344.999082
 30
0.0
 11
1929.452696
 21
-4344.999082
 31
0.0
 12
1926.952696
 22
-4329.999082
 32
0.0
 13
1926.952696
 23
-4329.999082
 33
0.0
  0
POINT
  5
103
100
AcDbEntity
  8
DEFPOINTS
  6
BYBLOCK
 62
     0
100
AcDbPoint
 10
1809.674283
 20
-4324.579082
 30
0.0
  0
POINT
  5
104
100
AcDbEntity
  8
DEFPOINTS
  6
BYBLOCK
 62
     0
100
AcDbPoint
 10
1802.900589
 20
-4329.999082
 30
0.0
  0
POINT
  5
105
100
AcDbEntity
  8
DEFPOINTS
  6
BYBLOCK
 62
     0
100
AcDbPoint
 10
1926.952696
 20
-4329.999082
 30
0.0
  0
ENDBLK
  5
107
100
AcDbEntity
  8
0
100
AcDbBlockEnd
  0
BLOCK
  5
136
100
AcDbEntity
  8
0
100
AcDbBlockBegin
  2
*D10
 70
     1
 10
0.0
 20
0.0
 30
0.0
  3
*D10
  1

  0
LINE
  5
12A
100
AcDbEntity
  8
0
  6
BYBLOCK
100
AcDbLine
 10
1798.69314
 20
-4357.879082
 30
0.0
 11
1932.952696
 21
-4357.879082
 31
0.0
  0
LINE
  5
12B
100
AcDbEntity
  8
0
  6
BYBLOCK
100
AcDbLine
 10
1787.40536
 20
-4366.909082
 30
0.0
 11
1932.952696
 21
-4366.909082
 31
0.0
  0
LINE
  5
12C
100
AcDbEntity
  8
0
  6
BYBLOCK
100
AcDbLine
 10
1926.952696
 20
-4342.879082
 30
0.0
 11
1926.952696
 21
-4327.879082
 31
0.0
  0
LINE
  5
12D
100
AcDbEntity
  8
0
  6
BYBLOCK
100
AcDbLine
 10
1926.952696
 20
-4381.909082
 30
0.0
 11
1926.952696
 21
-4396.909082
 31
0.0
  0
MTEXT
  5
12E
100
AcDbEntity
  8
0
  6
BYBLOCK
 62
     5
100
AcDbMText
 10
1946.366539
 20
-4362.393027
 30
0.0
 40
19.32
 41
0.0
 71
     5
 72
     1
  1
\A1;9
 11
0.0
 21
1.0
 31
0.0
  0
LINE
  5
12F
100
AcDbEntity
  8
0
  6
BYBLOCK
100
AcDbLine
 10
1926.952696
 20
-4357.879082
 30
0.0
 11
1926.952696
 21
-4366.909082
 31
0.0
  0
LINE
  5
130
100
AcDbEntity
  8
0
  6
BYBLOCK
100
AcDbLine
 10
1926.952696
 20
-4357.879082
 30
0.0
 11
1926.952696
 21
-4366.909082
 31
0.0
  0
SOLID
  5
131
100
AcDbEntity
  8
0
  6
BYBLOCK
100
AcDbTrace
 10
1924.452696
 20
-4342.879082
 30
0.0
 11
1929.452696
 21
-4342.879082
 31
0.0
 12
1926.952696
 22
-4357.879082
 32
0.0
 13
1926.952696
 23
-4357.879082
 33
0.0
  0
SOLID
  5
132
100
AcDbEntity
  8
0
  6
BYBLOCK
100
AcDbTrace
 10
1924.452696
 20
-4381.909082
 30
0.0
 11
1929.452696
 21
-4381.909082
 31
0.0
 12
1926.952696
 22
-4366.909082
 32
0.0
 13
1926.952696
 23
-4366.909082
 33
0.0
  0
POINT
  5
133
100
AcDbEntity
  8
DEFPOINTS
  6
BYBLOCK
 62
     0
100
AcDbPoint
 10
1795.69314
 20
-4357.879082
 30
0.0
  0
POINT
  5
134
100
AcDbEntity
  8
DEFPOINTS
  6
BYBLOCK
 62
     0
100
AcDbPoint
 10
1784.40536
 20
-4366.909082
 30
0.0
  0
POINT
  5
135
100
AcDbEntity
  8
DEFPOINTS
  6
BYBLOCK
 62
     0
100
AcDbPoint
 10
1926.952696
 20
-4366.909082
 30
0.0
  0
ENDBLK
  5
137
100
AcDbEntity
  8
0
100
AcDbBlockEnd
  0
BLOCK
  5
126
100
AcDbEntity
  8
0
100
AcDbBlockBegin
  2
*D11
 70
     1
 10
0.0
 20
0.0
 30
0.0
  3
*D11
  1

  0
LINE
  5
11A
100
AcDbEntity
  8
0
  6
BYBLOCK
100
AcDbLine
 10
1787.40536
 20
-4366.909082
 30
0.0
 11
1932.952696
 21
-4366.909082
 31
0.0
  0
LINE
  5
11B
100
AcDbEntity
  8
0
  6
BYBLOCK
100
AcDbLine
 10
1783.149346
 20
-4382.079082
 30
0.0
 11
1932.952696
 21
-4382.079082
 31
0.0
  0
LINE
  5
11C
100
AcDbEntity
  8
0
  6
BYBLOCK
100
AcDbLine
 10
1926.952696
 20
-4351.909082
 30
0.0
 11
1926.952696
 21
-4336.909082
 31
0.0
  0
LINE
  5
11D
100
AcDbEntity
  8
0
  6
BYBLOCK
100
AcDbLine
 10
1926.952696
 20
-4397.079082
 30
0.0
 11
1926.952696
 21
-4412.079082
 31
0.0
  0
MTEXT
  5
11E
100
AcDbEntity
  8
0
  6
BYBLOCK
 62
     5
100
AcDbMText
 10
1911.202696
 20
-4412.166246
 30
0.0
 40
19.32
 41
0.0
 71
     5
 72
     1
  1
\A1;15,2
 11
0.0
 21
1.0
 31
0.0
  0
LINE
  5
11F
100
AcDbEntity
  8
0
  6
BYBLOCK
100
AcDbLine
 10
1926.952696
 20
-4366.909082
 30
0.0
 11
1926.952696
 21
-4382.079082
 31
0.0
  0
LINE
  5
120
100
AcDbEntity
  8
0
  6
BYBLOCK
100
AcDbLine
 10
1926.952696
 20
-4366.909082
 30
0.0
 11
1926.952696
 21
-4382.079082
 31
0.0
  0
SOLID
  5
121
100
AcDbEntity
  8
0
  6
BYBLOCK
100
AcDbTrace
 10
1924.452696
 20
-4351.909082
 30
0.0
 11
1929.452696
 21
-4351.909082
 31
0.0
 12
1926.952696
 22
-4366.909082
 32
0.0
 13
1926.952696
 23
-4366.909082
 33
0.0
  0
SOLID
  5
122
100
AcDbEntity
  8
0
  6
BYBLOCK
100
AcDbTrace
 10
1924.452696
 20
-4397.079082
 30
0.0
 11
1929.452696
 21
-4397.079082
 31
0.0
 12
1926.952696
 22
-4382.079082
 32
0.0
 13
1926.952696
 23
-4382.079082
 33
0.0
  0
POINT
  5
123
100
AcDbEntity
  8
DEFPOINTS
  6
BYBLOCK
 62
     0
100
AcDbPoint
 10
1784.40536
 20
-4366.909082
 30
0.0
  0
POINT
  5
124
100
AcDbEntity
  8
DEFPOINTS
  6
BYBLOCK
 62
     0
100
AcDbPoint
 10
1780.149346
 20
-4382.079082
 30
0.0
  0
POINT
  5
125
100
AcDbEntity
  8
DEFPOINTS
  6
BYBLOCK
 62
     0
100
AcDbPoint
 10
1926.952696
 20
-4382.079082
 30
0.0
  0
ENDBLK
  5
127
100
AcDbEntity
  8
0
100
AcDbBlockEnd
  0
BLOCK
  5
AA
100
AcDbEntity
  8
0
100
AcDbBlockBegin
  2
*D12
 70
     1
 10
0.0
 20
0.0
 30
0.0
  3
*D12
  1

  0
LINE
  5
9E
100
AcDbEntity
  8
0
  6
BYBLOCK
100
AcDbLine
 10
1808.900589
 20
-4329.999082
 30
0.0
 11
1932.952696
 21
-4329.999082
 31
0.0
  0
LINE
  5
9F
100
AcDbEntity
  8
0
  6
BYBLOCK
100
AcDbLine
 10
1798.69314
 20
-4357.879082
 30
0.0
 11
1932.952696
 21
-4357.879082
 31
0.0
  0
LINE
  5
A0
100
AcDbEntity
  8
0
  6
BYBLOCK
100
AcDbLine
 10
1926.952696
 20
-4314.999082
 30
0.0
 11
1926.952696
 21
-4299.999082
 31
0.0
  0
LINE
  5
A1
100
AcDbEntity
  8
0
  6
BYBLOCK
100
AcDbLine
 10
1926.952696
 20
-4372.879082
 30
0.0
 11
1926.952696
 21
-4387.879082
 31
0.0
  0
MTEXT
  5
A2
100
AcDbEntity
  8
0
  6
BYBLOCK
 62
     5
100
AcDbMText
 10
1977.165203
 20
-4343.939082
 30
0.0
 40
19.32
 41
0.0
 71
     5
 72
     1
  1
\A1;27,9
 11
0.0
 21
1.0
 31
0.0
  0
LINE
  5
A3
100
AcDbEntity
  8
0
  6
BYBLOCK
100
AcDbLine
 10
1926.952696
 20
-4329.999082
 30
0.0
 11
1926.952696
 21
-4357.879082
 31
0.0
  0
LINE
  5
A4
100
AcDbEntity
  8
0
  6
BYBLOCK
100
AcDbLine
 10
1926.952696
 20
-4329.999082
 30
0.0
 11
1926.952696
 21
-4357.879082
 31
0.0
  0
SOLID
  5
A5
100
AcDbEntity
  8
0
  6
BYBLOCK
100
AcDbTrace
 10
1924.452696
 20
-4314.999082
 30
0.0
 11
1929.452696
 21
-4314.999082
 31
0.0
 12
1926.952696
 22
-4329.999082
 32
0.0
 13
1926.952696
 23
-4329.999082
 33
0.0
  0
SOLID
  5
A6
100
AcDbEntity
  8
0
  6
BYBLOCK
100
AcDbTrace
 10
1924.452696
 20
-4372.879082
 30
0.0
 11
1929.452696
 21
-4372.879082
 31
0.0
 12
1926.952696
 22
-4357.879082
 32
0.0
 13
1926.952696
 23
-4357.879082
 33
0.0
  0
POINT
  5
A7
100
AcDbEntity
  8
DEFPOINTS
  6
BYBLOCK
 62
     0
100
AcDbPoint
 10
1805.900589
 20
-4329.999082
 30
0.0
  0
POINT
  5
A8
100
AcDbEntity
  8
DEFPOINTS
  6
BYBLOCK
 62
     0
100
AcDbPoint
 10
1795.69314
 20
-4357.879082
 30
0.0
  0
POINT
  5
A9
100
AcDbEntity
  8
DEFPOINTS
  6
BYBLOCK
 62
     0
100
AcDbPoint
 10
1926.952696
 20
-4357.879082
 30
0.0
  0
ENDBLK
  5
AB
100
AcDbEntity
  8
0
100
AcDbBlockEnd
  0
BLOCK
  5
146
100
AcDbEntity
  8
0
100
AcDbBlockBegin
  2
*D13
 70
     1
 10
0.0
 20
0.0
 30
0.0
  3
*D13
  1

  0
LINE
  5
13A
100
AcDbEntity
  8
0
  6
BYBLOCK
100
AcDbLine
 10
1814.681163
 20
-4306.504568
 30
0.0
 11
1824.727809
 21
-4267.641926
 31
0.0
  0
LINE
  5
13B
100
AcDbEntity
  8
0
  6
BYBLOCK
100
AcDbLine
 10
1809.331818
 20
-4305.121672
 30
0.0
 11
1819.378464
 21
-4266.25903
 31
0.0
  0
LINE
  5
13C
100
AcDbEntity
  8
0
  6
BYBLOCK
100
AcDbLine
 10
1837.748647
 20
-4277.205282
 30
0.0
 11
1852.271216
 21
-4280.95961
 31
0.0
  0
LINE
  5
13D
100
AcDbEntity
  8
0
  6
BYBLOCK
100
AcDbLine
 10
1803.354164
 20
-4268.31373
 30
0.0
 11
1788.831594
 21
-4264.559401
 31
0.0
  0
MTEXT
  5
13E
100
AcDbEntity
  8
0
  6
BYBLOCK
 62
     5
100
AcDbMText
 10
1841.945463
 20
-4262.296256
 30
0.0
 40
19.32
 41
0.0
 71
     5
 72
     1
  1
\A1;5
 11
0.968171
 21
-0.250289
 31
0.0
  0
LINE
  5
13F
100
AcDbEntity
  8
0
  6
BYBLOCK
100
AcDbLine
 10
1823.226078
 20
-4273.450954
 30
0.0
 11
1817.876733
 21
-4272.068058
 31
0.0
  0
LINE
  5
140
100
AcDbEntity
  8
0
  6
BYBLOCK
100
AcDbLine
 10
1823.226078
 20
-4273.450954
 30
0.0
 11
1817.876733
 21
-4272.068058
 31
0.0
  0
SOLID
  5
141
100
AcDbEntity
  8
0
  6
BYBLOCK
100
AcDbTrace
 10
1838.374369
 20
-4274.784854
 30
0.0
 11
1837.122926
 21
-4279.62571
 31
0.0
 12
1823.226078
 22
-4273.450954
 32
0.0
 13
1823.226078
 23
-4273.450954
 33
0.0
  0
SOLID
  5
142
100
AcDbEntity
  8
0
  6
BYBLOCK
100
AcDbTrace
 10
1803.979885
 20
-4265.893302
 30
0.0
 11
1802.728442
 21
-4270.734158
 31
0.0
 12
1817.876733
 22
-4272.068058
 32
0.0
 13
1817.876733
 23
-4272.068058
 33
0.0
  0
POINT
  5
143
100
AcDbEntity
  8
DEFPOINTS
  6
BYBLOCK
 62
     0
100
AcDbPoint
 10
1813.930297
 20
-4309.409082
 30
0.0
  0
POINT
  5
144
100
AcDbEntity
  8
DEFPOINTS
  6
BYBLOCK
 62
     0
100
AcDbPoint
 10
1808.580952
 20
-4308.026186
 30
0.0
  0
POINT
  5
145
100
AcDbEntity
  8
DEFPOINTS
  6
BYBLOCK
 62
     0
100
AcDbPoint
 10
1817.876733
 20
-4272.068058
 30
0.0
  0
ENDBLK
  5
147
100
AcDbEntity
  8
0
100
AcDbBlockEnd
  0
BLOCK
  5
F6
100
AcDbEntity
  8
0
100
AcDbBlockBegin
  2
*D14
 70
     1
 10
0.0
 20
0.0
 30
0.0
  3
*D14
  1

  0
LINE
  5
EA
100
AcDbEntity
  8
0
  6
BYBLOCK
100
AcDbLine
 10
1785.156226
 20
-4364.004568
 30
0.0
 11
1810.985969
 21
-4264.089429
 31
0.0
  0
LINE
  5
EB
100
AcDbEntity
  8
0
  6
BYBLOCK
100
AcDbLine
 10
1793.548721
 20
-4366.174169
 30
0.0
 11
1819.378464
 21
-4266.25903
 31
0.0
  0
LINE
  5
EC
100
AcDbEntity
  8
0
  6
BYBLOCK
100
AcDbLine
 10
1794.961668
 20
-4266.144129
 30
0.0
 11
1780.439099
 21
-4262.3898
 31
0.0
  0
LINE
  5
ED
100
AcDbEntity
  8
0
  6
BYBLOCK
100
AcDbLine
 10
1832.399302
 20
-4275.822386
 30
0.0
 11
1846.921871
 21
-4279.576715
 31
0.0
  0
MTEXT
  5
EE
100
AcDbEntity
  8
0
  6
BYBLOCK
 62
     5
100
AcDbMText
 10
1794.476401
 20
-4247.282959
 30
0.0
 40
19.32
 41
0.0
 71
     5
 72
     1
  1
\A1;8,4
 11
0.968171
 21
-0.250289
 31
0.0
  0
LINE
  5
EF
100
AcDbEntity
  8
0
  6
BYBLOCK
100
AcDbLine
 10
1809.484238
 20
-4269.898457
 30
0.0
 11
1817.876733
 21
-4272.068058
 31
0.0
  0
LINE
  5
F0
100
AcDbEntity
  8
0
  6
BYBLOCK
100
AcDbLine
 10
1809.484238
 20
-4269.898457
 30
0.0
 11
1817.876733
 21
-4272.068058
 31
0.0
  0
SOLID
  5
F1
100
AcDbEntity
  8
0
  6
BYBLOCK
100
AcDbTrace
 10
1795.58739
 20
-4263.7237
 30
0.0
 11
1794.335947
 21
-4268.564557
 31
0.0
 12
1809.484238
 22
-4269.898457
 32
0.0
 13
1809.484238
 23
-4269.898457
 33
0.0
  0
SOLID
  5
F2
100
AcDbEntity
  8
0
  6
BYBLOCK
100
AcDbTrace
 10
1833.025023
 20
-4273.401958
 30
0.0
 11
1831.773581
 21
-4278.242815
 31
0.0
 12
1817.876733
 22
-4272.068058
 32
0.0
 13
1817.876733
 23
-4272.068058
 33
0.0
  0
POINT
  5
F3
100
AcDbEntity
  8
DEFPOINTS
  6
BYBLOCK
 62
     0
100
AcDbPoint
 10
1784.40536
 20
-4366.909082
 30
0.0
  0
POINT
  5
F4
100
AcDbEntity
  8
DEFPOINTS
  6
BYBLOCK
 62
     0
100
AcDbPoint
 10
1792.797855
 20
-4369.078683
 30
0.0
  0
POINT
  5
F5
100
AcDbEntity
  8
DEFPOINTS
  6
BYBLOCK
 62
     0
100
AcDbPoint
 10
1817.876733
 20
-4272.068058
 30
0.0
  0
ENDBLK
  5
F7
100
AcDbEntity
  8
0
100
AcDbBlockEnd
  0
BLOCK
  5
E5
100
AcDbEntity
  8
0
100
AcDbBlockBegin
  2
*D15
 70
     1
 10
0.0
 20
0.0
 30
0.0
  3
*D15
  1

  0
LINE
  5
DA
100
AcDbEntity
  8
0
  6
BYBLOCK
100
AcDbLine
 10
1595.587443
 20
-4382.079082
 30
0.0
 11
1637.900635
 21
-4382.079082
 31
0.0
  0
LINE
  5
DB
100
AcDbEntity
  8
0
  6
BYBLOCK
100
AcDbLine
 10
1597.653833
 20
-4364.020606
 30
0.0
 11
1604.827673
 21
-4338.450397
 31
0.0
  0
ARC
  5
DC
100
AcDbEntity
  8
0
  6
BYBLOCK
100
AcDbCircle
 10
1592.587443
 20
-4382.079082
 30
0.0
 40
39.313191
100
AcDbArc
 50
21.996108
 51
52.332181
  0
SOLID
  5
DD
100
AcDbEntity
  8
0
  6
BYBLOCK
100
AcDbTrace
 10
1631.493084
 20
-4366.877637
 30
0.0
 11
1626.584916
 21
-4367.831516
 31
0.0
 12
1631.900635
 22
-4382.079082
 32
0.0
 13
1631.900635
 23
-4382.079082
 33
0.0
  0
SOLID
  5
DE
100
AcDbEntity
  8
0
  6
BYBLOCK
100
AcDbTrace
 10
1615.48893
 20
-4353.194082
 30
0.0
 11
1617.733167
 21
-4348.72604
 31
0.0
 12
1603.206923
 22
-4344.227349
 32
0.0
 13
1603.206923
 23
-4344.227349
 33
0.0
  0
MTEXT
  5
DF
100
AcDbEntity
  8
0
  6
BYBLOCK
 62
     5
100
AcDbMText
 10
1652.80629
 20
-4366.49232
 30
0.0
 40
19.32
 41
0.0
 71
     5
 72
     1
  1
\A1;70,85°
 11
0.250578
 21
-0.968097
 31
0.0
  0
POINT
  5
E0
100
AcDbEntity
  8
DEFPOINTS
  6
BYBLOCK
 62
     0
100
AcDbPoint
 10
1618.092077
 20
-4352.161851
 30
0.0
  0
POINT
  5
E1
100
AcDbEntity
  8
DEFPOINTS
  6
BYBLOCK
 62
     0
100
AcDbPoint
 10
1578.149621
 20
-4382.079082
 30
0.0
  0
POINT
  5
E2
100
AcDbEntity
  8
DEFPOINTS
  6
BYBLOCK
 62
     0
100
AcDbPoint
 10
1592.587443
 20
-4382.079082
 30
0.0
  0
POINT
  5
E3
100
AcDbEntity
  8
DEFPOINTS
  6
BYBLOCK
 62
     0
100
AcDbPoint
 10
1596.843457
 20
-4366.909082
 30
0.0
  0
POINT
  5
E4
100
AcDbEntity
  8
DEFPOINTS
  6
BYBLOCK
 62
     0
100
AcDbPoint
 10
1592.587443
 20
-4382.079082
 30
0.0
  0
ENDBLK
  5
E6
100
AcDbEntity
  8
0
100
AcDbBlockEnd
  0
BLOCK
  5
D5
100
AcDbEntity
  8
0
100
AcDbBlockBegin
  2
*D16
 70
     1
 10
0.0
 20
0.0
 30
0.0
  3
*D16
  1

  0
LINE
  5
CA
100
AcDbEntity
  8
0
  6
BYBLOCK
100
AcDbLine
 10
1687.291556
 20
-4329.999082
 30
0.0
 11
1717.52758
 21
-4329.999082
 31
0.0
  0
LINE
  5
CB
100
AcDbEntity
  8
0
  6
BYBLOCK
100
AcDbLine
 10
1624.454811
 20
-4322.704776
 30
0.0
 11
1695.128803
 21
-4266.154682
 31
0.0
  0
ARC
  5
CC
100
AcDbEntity
  8
0
  6
BYBLOCK
100
AcDbCircle
 10
1615.338687
 20
-4329.999082
 30
0.0
 40
96.188894
100
AcDbArc
 50
8.943963
 51
29.721233
  0
SOLID
  5
CD
100
AcDbEntity
  8
0
  6
BYBLOCK
100
AcDbTrace
 10
1712.850396
 20
-4314.849819
 30
0.0
 11
1707.865618
 21
-4315.239677
 31
0.0
 12
1711.52758
 22
-4329.999082
 32
0.0
 13
1711.52758
 23
-4329.999082
 33
0.0
  0
SOLID
  5
CE
100
AcDbEntity
  8
0
  6
BYBLOCK
100
AcDbTrace
 10
1696.805856
 20
-4283.715464
 30
0.0
 11
1700.941592
 21
-4280.905537
 31
0.0
 12
1690.443943
 22
-4269.903293
 32
0.0
 13
1690.443943
 23
-4269.903293
 33
0.0
  0
MTEXT
  5
CF
100
AcDbEntity
  8
0
  6
BYBLOCK
 62
     5
100
AcDbMText
 10
1725.75999
 20
-4301.298597
 30
0.0
 40
19.32
 41
0.0
 71
     5
 72
     1
  1
\A1;46,97°
 11
0.25156
 21
-0.967842
 31
0.0
  0
POINT
  5
D0
100
AcDbEntity
  8
DEFPOINTS
  6
BYBLOCK
 62
     0
100
AcDbPoint
 10
1701.9563
 20
-4288.169757
 30
0.0
  0
POINT
  5
D1
100
AcDbEntity
  8
DEFPOINTS
  6
BYBLOCK
 62
     0
100
AcDbPoint
 10
1615.338687
 20
-4329.999082
 30
0.0
  0
POINT
  5
D2
100
AcDbEntity
  8
DEFPOINTS
  6
BYBLOCK
 62
     0
100
AcDbPoint
 10
1615.338687
 20
-4329.999082
 30
0.0
  0
POINT
  5
D3
100
AcDbEntity
  8
DEFPOINTS
  6
BYBLOCK
 62
     0
100
AcDbPoint
 10
1684.291556
 20
-4329.999082
 30
0.0
  0
POINT
  5
D4
100
AcDbEntity
  8
DEFPOINTS
  6
BYBLOCK
 62
     0
100
AcDbPoint
 10
1622.112381
 20
-4324.579082
 30
0.0
  0
ENDBLK
  5
D6
100
AcDbEntity
  8
0
100
AcDbBlockEnd
  0
BLOCK
  5
C6
100
AcDbEntity
  8
0
100
AcDbBlockBegin
  2
*D17
 70
     1
 10
0.0
 20
0.0
 30
0.0
  3
*D17
  1

  0
LINE
  5
BB
100
AcDbEntity
  8
0
  6
BYBLOCK
100
AcDbLine
 10
1768.3096
 20
-4383.579082
 30
0.0
 11
1866.722975
 21
-4440.39807
 31
0.0
  0
LINE
  5
BC
100
AcDbEntity
  8
0
  6
BYBLOCK
100
AcDbLine
 10
1783.149346
 20
-4382.079082
 30
0.0
 11
1882.3495
 21
-4382.079082
 31
0.0
  0
ARC
  5
BD
100
AcDbEntity
  8
0
  6
BYBLOCK
100
AcDbCircle
 10
1765.711524
 20
-4382.079082
 30
0.0
 40
110.637977
100
AcDbArc
 50
337.77397
 51
352.22603
  0
SOLID
  5
BE
100
AcDbEntity
  8
0
  6
BYBLOCK
100
AcDbTrace
 10
1870.373788
 20
-4425.029513
 30
0.0
 11
1865.88415
 21
-4422.828798
 31
0.0
 12
1861.526822
 22
-4437.39807
 32
0.0
 13
1861.526822
 23
-4437.39807
 33
0.0
  0
SOLID
  5
BF
100
AcDbEntity
  8
0
  6
BYBLOCK
100
AcDbTrace
 10
1872.838421
 20
-4396.875105
 30
0.0
 11
1877.82692
 21
-4397.214049
 31
0.0
 12
1876.3495
 22
-4382.079082
 32
0.0
 13
1876.3495
 23
-4382.079082
 33
0.0
  0
MTEXT
  5
C0
100
AcDbEntity
  8
0
  6
BYBLOCK
 62
     5
100
AcDbMText
 10
1857.453204
 20
-4406.661191
 30
0.0
 40
19.32
 41
0.0
 71
     5
 72
     1
  1
\A1;30°
 11
0.258819
 21
0.965926
 31
0.0
  0
POINT
  5
C1
100
AcDbEntity
  8
DEFPOINTS
  6
BYBLOCK
 62
     0
100
AcDbPoint
 10
1869.677214
 20
-4419.919498
 30
0.0
  0
POINT
  5
C2
100
AcDbEntity
  8
DEFPOINTS
  6
BYBLOCK
 62
     0
100
AcDbPoint
 10
1765.711524
 20
-4382.079082
 30
0.0
  0
POINT
  5
C3
100
AcDbEntity
  8
DEFPOINTS
  6
BYBLOCK
 62
     0
100
AcDbPoint
 10
1754.399346
 20
-4375.547993
 30
0.0
  0
POINT
  5
C4
100
AcDbEntity
  8
DEFPOINTS
  6
BYBLOCK
 62
     0
100
AcDbPoint
 10
1765.711524
 20
-4382.079082
 30
0.0
  0
POINT
  5
C5
100
AcDbEntity
  8
DEFPOINTS
  6
BYBLOCK
 62
     0
100
AcDbPoint
 10
1780.149346
 20
-4382.079082
 30
0.0
  0
ENDBLK
  5
C7
100
AcDbEntity
  8
0
100
AcDbBlockEnd
  0
BLOCK
  5
7D
100
AcDbEntity
  8
0
100
AcDbBlockBegin
  2
*D18
 70
     1
 10
0.0
 20
0.0
 30
0.0
  3
*D18
  1

  0
LINE
  5
72
100
AcDbEntity
  8
0
  6
BYBLOCK
100
AcDbLine
 10
1459.11034
 20
-4307.909082
 30
0.0
 11
1399.417305
 21
-4273.445291
 31
0.0
  0
LINE
  5
73
100
AcDbEntity
  8
0
  6
BYBLOCK
100
AcDbLine
 10
1435.806492
 20
-4309.409082
 30
0.0
 11
1389.780836
 21
-4309.409082
 31
0.0
  0
ARC
  5
74
100
AcDbEntity
  8
0
  6
BYBLOCK
100
AcDbCircle
 10
1461.708416
 20
-4309.409082
 30
0.0
 40
65.92758
100
AcDbArc
 50
163.064355
 51
166.935645
  0
SOLID
  5
75
100
AcDbEntity
  8
0
  6
BYBLOCK
100
AcDbTrace
 10
1396.346738
 20
-4289.208965
 30
0.0
 11
1400.933157
 21
-4291.200134
 31
0.0
 12
1404.613457
 22
-4276.445291
 32
0.0
 13
1404.613457
 23
-4276.445291
 33
0.0
  0
SOLID
  5
76
100
AcDbEntity
  8
0
  6
BYBLOCK
100
AcDbTrace
 10
1399.971024
 20
-4294.790863
 30
0.0
 11
1395.003484
 21
-4294.222057
 31
0.0
 12
1395.780836
 22
-4309.409082
 32
0.0
 13
1395.780836
 23
-4309.409082
 33
0.0
  0
MTEXT
  5
77
100
AcDbEntity
  8
0
  6
BYBLOCK
 62
     5
100
AcDbMText
 10
1384.029566
 20
-4278.289051
 30
0.0
 40
19.32
 41
0.0
 71
     5
 72
     1
  1
\A1;30°
 11
0.37189
 21
0.928277
 31
0.0
  0
POINT
  5
78
100
AcDbEntity
  8
DEFPOINTS
  6
BYBLOCK
 62
     0
100
AcDbPoint
 10
1396.782424
 20
-4297.960877
 30
0.0
  0
POINT
  5
79
100
AcDbEntity
  8
DEFPOINTS
  6
BYBLOCK
 62
     0
100
AcDbPoint
 10
1461.708416
 20
-4309.409082
 30
0.0
  0
POINT
  5
7A
100
AcDbEntity
  8
DEFPOINTS
  6
BYBLOCK
 62
     0
100
AcDbPoint
 10
1438.806492
 20
-4309.409082
 30
0.0
  0
POINT
  5
7B
100
AcDbEntity
  8
DEFPOINTS
  6
BYBLOCK
 62
     0
100
AcDbPoint
 10
1461.708416
 20
-4309.409082
 30
0.0
  0
POINT
  5
7C
100
AcDbEntity
  8
DEFPOINTS
  6
BYBLOCK
 62
     0
100
AcDbPoint
 10
1469.556492
 20
-4313.94017
 30
0.0
  0
ENDBLK
  5
7E
100
AcDbEntity
  8
0
100
AcDbBlockEnd
  0
ENDSEC
  0
SECTION
  2
ENTITIES
  0
MTEXT
  5
1E
100
AcDbEntity
  8
KOTY-UPLNE
  6
BYBLOCK
 62
     5
100
AcDbMText
 10
616.160715
 20
-85.198963
 30
0.0
 40
16.5
 41
0.0
 71
     5
 72
     1
  1
všechna zaoblení R=3,5
  0
DIMENSION
  5
1F
100
AcDbEntity
  8
KOTY-UPLNE
100
AcDbDimension
  2
*D2
 10
903.102907
 20
-340.364928
 30
0.0
 11
527.979102
 21
-324.704928
 31
0.0
 12
-943.32739
 22
4162.657346
 32
0.0
  3
UPLNE
100
AcDbAlignedDimension
 13
152.855297
 23
-151.751735
 33
0.0
 14
903.102907
 24
-151.751735
 34
0.0
100
AcDbRotatedDimension
1001
ACAD
1000
DSTYLE
1002
{
1070
    40
1040
3.0
1070
   147
1040
2.0
1002
}
  0
LWPOLYLINE
  5
2D
100
AcDbEntity
  8
TRAPEZ-VELKY
100
AcDbPolyline
 90
      156
 70
     0
 43
5.0
 10
115.253001
 20
-161.431735
 10
119.538186
 20
-149.102675
 42
-0.319305
 10
122.84419
 20
-146.751735
 10
142.319399
 20
-146.751735
 42
-0.131652
 10
144.069399
 20
-147.220647
 10
151.105297
 20
-151.282824
 42
0.267949
 10
154.605297
 20
-151.282824
 10
161.641196
 20
-147.220647
 42
-0.131652
 10
163.391196
 20
-146.751735
 10
182.702103
 20
-146.751735
 42
-0.336189
 10
186.071991
 20
-149.306298
 10
189.30719
 20
-160.837736
 42
0.156878
 10
190.490389
 20
-162.625133
 10
195.474847
 20
-166.613468
 42
-0.162145
 10
196.676756
 20
-168.470293
 10
203.300651
 20
-194.092978
 42
0.162172
 10
204.502851
 20
-195.950035
 10
214.000922
 20
-203.548303
 42
-0.156905
 10
215.184411
 20
-205.335933
 10
218.419554
 20
-216.867173
 42
0.336189
 10
221.789442
 20
-219.421735
 10
232.636248
 20
-219.421735
 42
0.131652
 10
234.386248
 20
-218.952824
 10
244.886248
 20
-212.890647
 42
-0.267949
 10
248.386248
 20
-212.890647
 10
258.886248
 20
-218.952824
 42
0.131652
 10
260.636248
 20
-219.421735
 10
271.483054
 20
-219.421735
 42
0.336189
 10
274.852943
 20
-216.867173
 10
278.088086
 20
-205.335933
 42
-0.156905
 10
279.271575
 20
-203.548303
 10
288.769646
 20
-195.950035
 42
0.162172
 10
289.971846
 20
-194.092978
 10
296.59574
 20
-168.470293
 42
-0.162145
 10
297.79765
 20
-166.613468
 10
302.782108
 20
-162.625133
 42
0.156878
 10
303.965307
 20
-160.837736
 10
307.200505
 20
-149.306298
 42
-0.336189
 10
310.570394
 20
-146.751735
 10
329.881301
 20
-146.751735
 42
-0.131652
 10
331.631301
 20
-147.220647
 10
338.6672
 20
-151.282824
 42
0.267949
 10
342.1672
 20
-151.282824
 10
349.203098
 20
-147.220647
 42
-0.131652
 10
350.953098
 20
-146.751735
 10
370.264006
 20
-146.751735
 42
-0.336189
 10
373.633894
 20
-149.306298
 10
376.869092
 20
-160.837736
 42
0.156878
 10
378.052291
 20
-162.625133
 10
383.036749
 20
-166.613468
 42
-0.162145
 10
384.238659
 20
-168.470293
 10
390.862554
 20
-194.092978
 42
0.162172
 10
392.064754
 20
-195.950035
 10
401.562825
 20
-203.548303
 42
-0.156905
 10
402.746313
 20
-205.335933
 10
405.981457
 20
-216.867173
 42
0.336189
 10
409.351345
 20
-219.421735
 10
420.198151
 20
-219.421735
 42
0.131652
 10
421.948151
 20
-218.952824
 10
432.448151
 20
-212.890647
 42
-0.267949
 10
435.948151
 20
-212.890647
 10
446.448151
 20
-218.952824
 42
0.131652
 10
448.198151
 20
-219.421735
 10
459.044957
 20
-219.421735
 42
0.336189
 10
462.414845
 20
-216.867173
 10
465.649988
 20
-205.335933
 42
-0.156905
 10
466.833477
 20
-203.548303
 10
476.331548
 20
-195.950035
 42
0.162172
 10
477.533748
 20
-194.092978
 10
484.157643
 20
-168.470293
 42
-0.162145
 10
485.359553
 20
-166.613468
 10
490.344011
 20
-162.625133
 42
0.156878
 10
491.527209
 20
-160.837736
 10
494.762408
 20
-149.306298
 42
-0.336189
 10
498.132296
 20
-146.751735
 10
517.443204
 20
-146.751735
 42
-0.131652
 10
519.193204
 20
-147.220647
 10
526.229102
 20
-151.282824
 42
0.267949
 10
529.729102
 20
-151.282824
 10
536.765
 20
-147.220647
 42
-0.131652
 10
538.515
 20
-146.751735
 10
557.825908
 20
-146.751735
 42
-0.336189
 10
561.195796
 20
-149.306298
 10
564.430995
 20
-160.837736
 42
0.156878
 10
565.614194
 20
-162.625133
 10
570.598652
 20
-166.613468
 42
-0.162145
 10
571.800561
 20
-168.470293
 10
578.424456
 20
-194.092978
 42
0.162172
 10
579.626656
 20
-195.950035
 10
589.124727
 20
-203.548303
 42
-0.156905
 10
590.308216
 20
-205.335933
 10
593.543359
 20
-216.867173
 42
0.336189
 10
596.913247
 20
-219.421735
 10
607.760053
 20
-219.421735
 42
0.131652
 10
609.510053
 20
-218.952824
 10
620.010053
 20
-212.890647
 42
-0.267949
 10
623.510053
 20
-212.890647
 10
634.010053
 20
-218.952824
 42
0.131652
 10
635.760053
 20
-219.421735
 10
646.606859
 20
-219.421735
 42
0.336189
 10
649.976748
 20
-216.867173
 10
653.211891
 20
-205.335933
 42
-0.156905
 10
654.39538
 20
-203.548303
 10
663.893451
 20
-195.950035
 42
0.162172
 10
665.095651
 20
-194.092978
 10
671.719545
 20
-168.470293
 42
-0.162145
 10
672.921455
 20
-166.613468
 10
677.905913
 20
-162.625133
 42
0.156878
 10
679.089112
 20
-160.837736
 10
682.32431
 20
-149.306298
 42
-0.336189
 10
685.694199
 20
-146.751735
 10
705.005106
 20
-146.751735
 42
-0.131652
 10
706.755106
 20
-147.220647
 10
713.791005
 20
-151.282824
 42
0.267949
 10
717.291005
 20
-151.282824
 10
724.326903
 20
-147.220647
 42
-0.131652
 10
726.076903
 20
-146.751735
 10
745.387811
 20
-146.751735
 42
-0.336189
 10
748.757699
 20
-149.306298
 10
751.992897
 20
-160.837736
 42
0.156878
 10
753.176096
 20
-162.625133
 10
758.160554
 20
-166.613468
 42
-0.162145
 10
759.362464
 20
-168.470293
 10
765.986359
 20
-194.092978
 42
0.162172
 10
767.188559
 20
-195.950035
 10
776.68663
 20
-203.548303
 42
-0.156905
 10
777.870118
 20
-205.335933
 10
781.105262
 20
-216.867173
 42
0.336189
 10
784.47515
 20
-219.421735
 10
795.321956
 20
-219.421735
 42
0.131652
 10
797.071956
 20
-218.952824
 10
807.571956
 20
-212.890647
 42
-0.267949
 10
811.071956
 20
-212.890647
 10
821.571956
 20
-218.952824
 42
0.131652
 10
823.321956
 20
-219.421735
 10
834.168762
 20
-219.421735
 42
0.336189
 10
837.53865
 20
-216.867173
 10
840.773793
 20
-205.335933
 42
-0.156905
 10
841.957282
 20
-203.548303
 10
851.455353
 20
-195.950035
 42
0.162172
 10
852.657553
 20
-194.092978
 10
859.281448
 20
-168.470293
 42
-0.162145
 10
860.483358
 20
-166.613468
 10
865.467816
 20
-162.625133
 42
0.156878
 10
866.651014
 20
-160.837736
 10
869.886213
 20
-149.306298
 42
-0.336189
 10
873.256101
 20
-146.751735
 10
892.567009
 20
-146.751735
 42
-0.131652
 10
894.317009
 20
-147.220647
 10
901.352907
 20
-151.282824
 42
0.267949
 10
904.852907
 20
-151.282824
 10
911.888805
 20
-147.220647
 42
-0.131652
 10
913.638805
 20
-146.751735
 10
933.114014
 20
-146.751735
 42
-0.319305
 10
936.420018
 20
-149.102675
 10
940.705203
 20
-161.431735
  0
MTEXT
  5
2F
100
AcDbEntity
  8
POZICE
100
AcDbMText
 10
618.960425
 20
-143.471687
 30
0.0
 40
41.73
 41
1.0
 71
     5
 72
     1
  1
A
  7
STYLE1
  0
MTEXT
  5
32
100
AcDbEntity
  8
POPIS
100
AcDbMText
 10
661.730741
 20
-42.124031
 30
0.0
 40
40.0
 41
1.0
 71
     5
 72
     1
  1
TR 70/187,5
  7
STYLE1
  0
LWPOLYLINE
  5
34
100
AcDbEntity
  8
RAMEC
100
AcDbPolyline
 90
        4
 70
     1
 43
0.0
 10
0.0
 20
0.0
 10
0.0
 20
-389.481233
 10
1349.672502
 20
-389.481233
 10
1349.672502
 20
0.0
  0
DIMENSION
  5
36
100
AcDbEntity
  8
KOTY-UPLNE
100
AcDbDimension
  2
*D1
 10
340.4172
 20
-280.364928
 30
0.0
 11
246.636248
 21
-262.864928
 31
0.0
 12
-943.32739
 22
4162.657346
 32
0.0
  1
187,5
  3
UPLNE
100
AcDbAlignedDimension
 13
152.855297
 23
-151.751735
 33
0.0
 14
340.4172
 24
-151.751735
 34
0.0
100
AcDbRotatedDimension
1001
ACAD
1000
DSTYLE
1002
{
1070
    40
1040
3.0
1070
   147
1040
2.0
1002
}
  0
DIMENSION
  5
43
100
AcDbEntity
  8
KOTY-UPLNE
100
AcDbDimension
  2
*D5
 10
411.495537
 20
-146.751735
 30
0.0
 11
395.745537
 21
-130.319422
 31
0.0
 12
-943.32739
 22
4162.657346
 32
0.0
 70
   128
  3
UPLNE
100
AcDbAlignedDimension
 13
340.4172
 23
-151.751735
 33
0.0
 14
372.9172
 24
-146.751735
 34
0.0
 50
90.0
100
AcDbRotatedDimension
1001
ACAD
1000
DSTYLE
1002
{
1070
    40
1040
3.0
1070
   147
1040
2.0
1002
}
  0
DIMENSION
  5
53
100
AcDbEntity
  8
KOTY-UPLNE
100
AcDbDimension
  2
*D7
 10
307.9172
 20
-110.140339
 30
0.0
 11
276.185602
 21
-95.728407
 31
0.0
 12
-943.32739
 22
4162.657346
 32
0.0
 70
   128
  1
33,8
  3
UPLNE
100
AcDbAlignedDimension
 13
274.136248
 23
-219.421735
 33
0.0
 14
307.9172
 24
-146.751735
 34
0.0
100
AcDbRotatedDimension
1001
ACAD
1000
DSTYLE
1002
{
1070
    40
1040
3.0
1070
   147
1040
2.0
1002
}
  0
DIMENSION
  5
63
100
AcDbEntity
  8
KOTY-UPLNE
100
AcDbDimension
  2
*D3
 10
372.9172
 20
-110.140339
 30
0.0
 11
340.4172
 21
-94.480339
 31
0.0
 12
-943.32739
 22
4162.657346
 32
0.0
  3
UPLNE
100
AcDbAlignedDimension
 13
307.9172
 23
-146.751735
 33
0.0
 14
372.9172
 24
-146.751735
 34
0.0
100
AcDbRotatedDimension
1001
ACAD
1000
DSTYLE
1002
{
1070
    40
1040
3.0
1070
   147
1040
2.0
1002
}
  0
DIMENSION
  5
70
100
AcDbEntity
  8
KOTY-UPLNE
100
AcDbDimension
  2
*D18
 10
526.229102
 20
-151.282824
 30
0.0
 11
440.702176
 21
-115.631705
 31
0.0
 12
-943.32739
 22
4162.657346
 32
0.0
 70
   130
  3
UPLNE
100
AcDb2LineAngularDimension
 13
495.479102
 23
-146.751735
 33
0.0
 14
518.381026
 24
-146.751735
 34
0.0
 15
518.381026
 25
-146.751735
 35
0.0
 16
453.455034
 26
-135.303531
 36
0.0
1001
ACAD
1000
DSTYLE
1002
{
1070
    40
1040
3.0
1070
   147
1040
2.0
1002
}
  0
DIMENSION
  5
7F
100
AcDbEntity
  8
KOTY-UPLNE
100
AcDbDimension
  2
*D6
 10
511.019691
 20
-219.421735
 30
0.0
 11
495.269691
 21
-235.779847
 31
0.0
 12
-943.32739
 22
4162.657346
 32
0.0
 70
   128
  3
UPLNE
100
AcDbAlignedDimension
 13
434.198151
 23
-212.421735
 33
0.0
 14
461.698151
 24
-219.421735
 34
0.0
 50
90.0
100
AcDbRotatedDimension
1001
ACAD
1000
DSTYLE
1002
{
1070
    40
1040
3.0
1070
   147
1040
2.0
1002
}
  0
DIMENSION
  5
8F
100
AcDbEntity
  8
KOTY-UPLNE
100
AcDbDimension
  2
*D4
 10
461.698151
 20
-280.364928
 30
0.0
 11
434.198151
 21
-264.704928
 31
0.0
 12
-943.32739
 22
4162.657346
 32
0.0
  3
UPLNE
100
AcDbAlignedDimension
 13
406.698151
 23
-219.421735
 33
0.0
 14
461.698151
 24
-219.421735
 34
0.0
100
AcDbRotatedDimension
1001
ACAD
1000
DSTYLE
1002
{
1070
    40
1040
3.0
1070
   147
1040
2.0
1002
}
  0
DIMENSION
  5
9C
100
AcDbEntity
  8
KOTY-UPLNE
100
AcDbDimension
  2
*D12
 10
983.625306
 20
-195.221735
 30
0.0
 11
1033.837813
 21
-181.281735
 31
0.0
 12
-943.32739
 22
4162.657346
 32
0.0
 70
   128
  1
27,9
  3
UPLNE
100
AcDbAlignedDimension
 13
862.573199
 23
-167.341735
 33
0.0
 14
852.36575
 24
-195.221735
 34
0.0
 50
90.0
100
AcDbRotatedDimension
1001
ACAD
1000
DSTYLE
1002
{
1070
    40
1040
3.0
1070
   147
1040
2.0
1002
}
  0
DIMENSION
  5
AC
100
AcDbEntity
  8
KOTY-UPLNE
100
AcDbDimension
  2
*D0
 10
1115.001381
 20
-146.751735
 30
0.0
 11
1097.501381
 21
-183.086735
 31
0.0
 12
-943.32739
 22
4162.657346
 32
0.0
  1
72,7
  3
UPLNE
100
AcDbAlignedDimension
 13
836.821956
 23
-219.421735
 33
0.0
 14
935.602907
 24
-146.751735
 34
0.0
 50
90.0
100
AcDbRotatedDimension
1001
ACAD
1000
DSTYLE
1002
{
1070
    40
1040
3.0
1070
   147
1040
2.0
1002
}
  0
DIMENSION
  5
B9
100
AcDbEntity
  8
KOTY-UPLNE
100
AcDbDimension
  2
*D17
 10
836.821956
 20
-219.421735
 30
0.0
 11
914.125814
 21
-244.003845
 31
0.0
 12
-943.32739
 22
4162.657346
 32
0.0
 70
     2
  3
UPLNE
100
AcDb2LineAngularDimension
 13
811.071956
 23
-212.890647
 33
0.0
 14
822.384134
 24
-219.421735
 34
0.0
 15
822.384134
 25
-219.421735
 35
0.0
 16
926.349824
 26
-257.262152
 36
0.0
1001
ACAD
1000
DSTYLE
1002
{
1070
    40
1040
3.0
1070
   147
1040
2.0
1002
}
  0
DIMENSION
  5
C8
100
AcDbEntity
  8
KOTY-UPLNE
100
AcDbDimension
  2
*D16
 10
678.784991
 20
-161.921735
 30
0.0
 11
782.4326
 21
-138.641251
 31
0.0
 12
-943.32739
 22
4162.657346
 32
0.0
 70
   130
  1
46,97%%D
  3
UPLNE
100
AcDb2LineAngularDimension
 13
672.011297
 23
-167.341735
 33
0.0
 14
740.964166
 24
-167.341735
 34
0.0
 15
672.011297
 25
-167.341735
 35
0.0
 16
758.62891
 26
-125.512411
 36
0.0
1001
ACAD
1000
DSTYLE
1002
{
1070
    40
1040
3.0
1070
   147
1040
2.0
1002
}
  0
LINE
  5
D7
100
AcDbEntity
  8
KOTY-UPLNE
100
AcDbLine
 10
672.011297
 20
-167.341735
 30
0.0
 11
740.964166
 21
-167.341735
 31
0.0
  0
DIMENSION
  5
D8
100
AcDbEntity
  8
KOTY-UPLNE
100
AcDbDimension
  2
*D15
 10
649.260053
 20
-219.421735
 30
0.0
 11
709.4789
 21
-203.834974
 31
0.0
 12
-943.32739
 22
4162.657346
 32
0.0
 70
   130
  1
70,85%%D
  3
UPLNE
100
AcDb2LineAngularDimension
 13
649.260053
 23
-219.421735
 33
0.0
 14
653.516067
 24
-204.251735
 34
0.0
 15
634.822231
 25
-219.421735
 35
0.0
 16
674.764687
 26
-189.504505
 36
0.0
1001
ACAD
1000
DSTYLE
1002
{
1070
    40
1040
3.0
1070
   147
1040
2.0
1002
}
  0
MTEXT
  5
E7
100
AcDbEntity
  8
POZICE
100
AcDbMText
 10
624.108485
 20
-273.171983
 30
0.0
 40
41.73
 41
1.0
 71
     5
 72
     1
  1
B
  7
STYLE1
  0
DIMENSION
  5
E8
100
AcDbEntity
  8
KOTY-UPLNE
100
AcDbDimension
  2
*D14
 10
874.549343
 20
-109.410712
 30
0.0
 11
851.14901
 21
-84.625612
 31
0.0
 12
-943.32739
 22
4162.657346
 32
0.0
 70
   129
  1
8,4
  3
UPLNE
100
AcDbAlignedDimension
 13
841.07797
 23
-204.251735
 33
0.0
 14
849.470465
 24
-206.421337
 34
0.0
1001
ACAD
1000
DSTYLE
1002
{
1070
    40
1040
3.0
1070
   147
1040
2.0
1002
}
  0
DIMENSION
  5
F8
100
AcDbEntity
  8
KOTY-UPLNE
100
AcDbDimension
  2
*D9
 10
983.625306
 20
-167.341735
 30
0.0
 11
1005.611084
 21
-164.631735
 31
0.0
 12
-943.32739
 22
4162.657346
 32
0.0
 70
   128
  1
5,4
  3
UPLNE
100
AcDbAlignedDimension
 13
866.346893
 23
-161.921735
 33
0.0
 14
859.573199
 24
-167.341735
 34
0.0
 50
90.0
100
AcDbRotatedDimension
1001
ACAD
1000
DSTYLE
1002
{
1070
    40
1040
3.0
1070
   147
1040
2.0
1002
}
  0
DIMENSION
  5
108
100
AcDbEntity
  8
KOTY-UPLNE
100
AcDbDimension
  2
*D8
 10
983.625306
 20
-161.921735
 30
0.0
 11
967.875306
 21
-116.360323
 31
0.0
 12
-943.32739
 22
4162.657346
 32
0.0
 70
   128
  1
15,2
  3
UPLNE
100
AcDbAlignedDimension
 13
935.602907
 23
-146.751735
 33
0.0
 14
866.346893
 24
-161.921735
 34
0.0
 50
90.0
100
AcDbRotatedDimension
1001
ACAD
1000
DSTYLE
1002
{
1070
    40
1040
3.0
1070
   147
1040
2.0
1002
}
  0
DIMENSION
  5
118
100
AcDbEntity
  8
KOTY-UPLNE
100
AcDbDimension
  2
*D11
 10
983.625306
 20
-219.421735
 30
0.0
 11
967.875306
 21
-249.5089
 31
0.0
 12
-943.32739
 22
4162.657346
 32
0.0
 70
   128
  1
15,2
  3
UPLNE
100
AcDbAlignedDimension
 13
841.07797
 23
-204.251735
 33
0.0
 14
836.821956
 24
-219.421735
 34
0.0
 50
90.0
100
AcDbRotatedDimension
1001
ACAD
1000
DSTYLE
1002
{
1070
    40
1040
3.0
1070
   147
1040
2.0
1002
}
  0
DIMENSION
  5
128
100
AcDbEntity
  8
KOTY-UPLNE
100
AcDbDimension
  2
*D10
 10
983.625306
 20
-204.251735
 30
0.0
 11
1003.039149
 21
-199.735681
 31
0.0
 12
-943.32739
 22
4162.657346
 32
0.0
 70
   128
  3
UPLNE
100
AcDbAlignedDimension
 13
852.36575
 23
-195.221735
 33
0.0
 14
841.07797
 24
-204.251735
 34
0.0
 50
90.0
100
AcDbRotatedDimension
1001
ACAD
1000
DSTYLE
1002
{
1070
    40
1040
3.0
1070
   147
1040
2.0
1002
}
  0
DIMENSION
  5
138
100
AcDbEntity
  8
KOTY-UPLNE
100
AcDbDimension
  2
*D13
 10
874.549343
 20
-109.410712
 30
0.0
 11
898.618072
 21
-99.63891
 31
0.0
 12
-943.32739
 22
4162.657346
 32
0.0
 70
   129
  1
5
  3
UPLNE
100
AcDbAlignedDimension
 13
870.602907
 23
-146.751735
 33
0.0
 14
865.253562
 24
-145.36884
 34
0.0
1001
ACAD
1000
DSTYLE
1002
{
1070
    40
1040
3.0
1070
   147
1040
2.0
1002
}
  0
ENDSEC
  0
SECTION
  2
OBJECTS
  0
DICTIONARY
  5
1A
100
AcDbDictionary
  3
ACAD_GROUP
350
18
  3
ACAD_MLINESTYLE
350
19
  0
DICTIONARY
  5
18
102
{ACAD_REACTORS
330
1A
102
}
100
AcDbDictionary
  0
DICTIONARY
  5
19
102
{ACAD_REACTORS
330
1A
102
}
100
AcDbDictionary
  3
STANDARD
350
1C
  0
MLINESTYLE
  5
1C
102
{ACAD_REACTORS
330
19
102
}
100
AcDbMlineStyle
  2
STANDARD
 70
     0
  3

 62
   256
 51
90.0
 52
90.0
 71
     2
 49
0.5
 62
   256
  6
BYLAYER
 49
-0.5
 62
   256
  6
BYLAYER
  0
ENDSEC
  0
EOF
