  0
SECTION
  2
HEADER
  9
$ACADVER
  1
AC1014
  9
$ACADMAINTVER
 70
     0
  9
$DWGCODEPAGE
  3
ANSI_1250
  9
$INSBASE
 10
0.0
 20
0.0
 30
0.0
  9
$EXTMIN
 10
2443.32739
 20
-5787.658579
 30
0.0
  9
$EXTMAX
 10
3792.999892
 20
-5362.657346
 30
0.0
  9
$LIMMIN
 10
-1000.0
 20
-1000.0
  9
$LIMMAX
 10
1000.0
 20
1000.0
  9
$ORTHOMODE
 70
     1
  9
$REGENMODE
 70
     1
  9
$FILLMODE
 70
     1
  9
$QTEXTMODE
 70
     0
  9
$MIRRTEXT
 70
     0
  9
$DRAGMODE
 70
     2
  9
$LTSCALE
 40
3.0
  9
$OSMODE
 70
    32
  9
$ATTMODE
 70
     1
  9
$TEXTSIZE
 40
50.0
  9
$TRACEWID
 40
0.05
  9
$TEXTSTYLE
  7
STYLE1
  9
$CLAYER
  8
KOTY-HLAVNI
  9
$CELTYPE
  6
BYLAYER
  9
$CECOLOR
 62
   256
  9
$CELTSCALE
 40
1.0
  9
$DELOBJ
 70
     1
  9
$DISPSILH
 70
     0
  9
$DIMSCALE
 40
3.0
  9
$DIMASZ
 40
5.0
  9
$DIMEXO
 40
1.0
  9
$DIMDLI
 40
0.0
  9
$DIMRND
 40
0.01
  9
$DIMDLE
 40
1.0
  9
$DIMEXE
 40
2.0
  9
$DIMTP
 40
0.0
  9
$DIMTM
 40
0.0
  9
$DIMTXT
 40
6.44
  9
$DIMCEN
 40
1.0
  9
$DIMTSZ
 40
0.0
  9
$DIMTOL
 70
     0
  9
$DIMLIM
 70
     0
  9
$DIMTIH
 70
     0
  9
$DIMTOH
 70
     0
  9
$DIMSE1
 70
     0
  9
$DIMSE2
 70
     0
  9
$DIMTAD
 70
     3
  9
$DIMZIN
 70
     0
  9
$DIMBLK
  1

  9
$DIMASO
 70
     1
  9
$DIMSHO
 70
     0
  9
$DIMPOST
  1

  9
$DIMAPOST
  1

  9
$DIMALT
 70
     0
  9
$DIMALTD
 70
     2
  9
$DIMALTF
 40
25.4
  9
$DIMLFAC
 40
1.0
  9
$DIMTOFL
 70
     1
  9
$DIMTVP
 40
0.0
  9
$DIMTIX
 70
     1
  9
$DIMSOXD
 70
     0
  9
$DIMSAH
 70
     0
  9
$DIMBLK1
  1

  9
$DIMBLK2
  1

  9
$DIMSTYLE
  2
UPLNE
  9
$DIMCLRD
 70
   256
  9
$DIMCLRE
 70
   256
  9
$DIMCLRT
 70
     5
  9
$DIMTFAC
 40
1.0
  9
$DIMGAP
 40
1.0
  9
$DIMJUST
 70
     0
  9
$DIMSD1
 70
     0
  9
$DIMSD2
 70
     0
  9
$DIMTOLJ
 70
     1
  9
$DIMTZIN
 70
     0
  9
$DIMALTZ
 70
     0
  9
$DIMALTTZ
 70
     0
  9
$DIMFIT
 70
     5
  9
$DIMUPT
 70
     0
  9
$DIMUNIT
 70
     2
  9
$DIMDEC
 70
     2
  9
$DIMTDEC
 70
     2
  9
$DIMALTU
 70
     2
  9
$DIMALTTD
 70
     2
  9
$DIMTXSTY
  7
STANDARD
  9
$DIMAUNIT
 70
     0
  9
$LUNITS
 70
     2
  9
$LUPREC
 70
     2
  9
$SKETCHINC
 40
0.1
  9
$FILLETRAD
 40
5.0
  9
$AUNITS
 70
     0
  9
$AUPREC
 70
     2
  9
$MENU
  1
acad
  9
$ELEVATION
 40
0.0
  9
$PELEVATION
 40
0.0
  9
$THICKNESS
 40
0.0
  9
$LIMCHECK
 70
     0
  9
$BLIPMODE
 70
     1
  9
$CHAMFERA
 40
0.0
  9
$CHAMFERB
 40
0.0
  9
$CHAMFERC
 40
0.0
  9
$CHAMFERD
 40
0.0
  9
$SKPOLY
 70
     0
  9
$TDCREATE
 40
2448722.252204629
  9
$TDUPDATE
 40
2452516.454283333
  9
$TDINDWG
 40
2.5767793981
  9
$TDUSRTIMER
 40
2.5767793981
  9
$USRTIMER
 70
     1
  9
$ANGBASE
 50
0.0
  9
$ANGDIR
 70
     0
  9
$PDMODE
 70
     0
  9
$PDSIZE
 40
0.0
  9
$PLINEWID
 40
0.0
  9
$COORDS
 70
     2
  9
$SPLFRAME
 70
     0
  9
$SPLINETYPE
 70
     6
  9
$SPLINESEGS
 70
     8
  9
$ATTDIA
 70
     0
  9
$ATTREQ
 70
     1
  9
$HANDLING
 70
     1
  9
$HANDSEED
  5
20271
  9
$SURFTAB1
 70
     6
  9
$SURFTAB2
 70
     6
  9
$SURFTYPE
 70
     6
  9
$SURFU
 70
     6
  9
$SURFV
 70
     6
  9
$UCSNAME
  2

  9
$UCSORG
 10
0.0
 20
0.0
 30
0.0
  9
$UCSXDIR
 10
1.0
 20
0.0
 30
0.0
  9
$UCSYDIR
 10
0.0
 20
1.0
 30
0.0
  9
$PUCSNAME
  2

  9
$PUCSORG
 10
0.0
 20
0.0
 30
0.0
  9
$PUCSXDIR
 10
1.0
 20
0.0
 30
0.0
  9
$PUCSYDIR
 10
0.0
 20
1.0
 30
0.0
  9
$USERI1
 70
     1
  9
$USERI2
 70
     0
  9
$USERI3
 70
     0
  9
$USERI4
 70
     0
  9
$USERI5
 70
     0
  9
$USERR1
 40
0.0
  9
$USERR2
 40
0.0
  9
$USERR3
 40
0.0
  9
$USERR4
 40
0.0
  9
$USERR5
 40
0.0
  9
$WORLDVIEW
 70
     1
  9
$SHADEDGE
 70
     3
  9
$SHADEDIF
 70
    70
  9
$TILEMODE
 70
     1
  9
$MAXACTVP
 70
    16
  9
$PINSBASE
 10
0.0
 20
0.0
 30
0.0
  9
$PLIMCHECK
 70
     0
  9
$PEXTMIN
 10
1.000000E+20
 20
1.000000E+20
 30
1.000000E+20
  9
$PEXTMAX
 10
-1.000000E+20
 20
-1.000000E+20
 30
-1.000000E+20
  9
$PLIMMIN
 10
0.0
 20
0.0
  9
$PLIMMAX
 10
12.0
 20
9.0
  9
$UNITMODE
 70
     0
  9
$VISRETAIN
 70
     0
  9
$PLINEGEN
 70
     0
  9
$PSLTSCALE
 70
     0
  9
$TREEDEPTH
 70
  3020
  9
$PICKSTYLE
 70
     0
  9
$CMLSTYLE
  2
STANDARD
  9
$CMLJUST
 70
     0
  9
$CMLSCALE
 40
1.0
  9
$PROXYGRAPHICS
 70
     1
  9
$MEASUREMENT
 70
     0
  0
ENDSEC
  0
SECTION
  2
CLASSES
  0
CLASS
  1
LWPOLYLINE
  2
AcDbPolyline
  3
"AutoCAD"
 90
        0
280
     0
281
     1
  0
CLASS
  1
DICTIONARYVAR
  2
AcDbDictionaryVar
  3
"AutoCAD"
 90
        0
280
     0
281
     0
  0
CLASS
  1
XRECORD
  2
AcDbXrecord
  3
"<Built In>"
 90
        0
280
     0
281
     0
  0
ENDSEC
  0
SECTION
  2
TABLES
  0
TABLE
  2
VPORT
  5
8
100
AcDbSymbolTable
 70
     2
  0
VPORT
  5
20270
100
AcDbSymbolTableRecord
100
AcDbViewportTableRecord
  2
*ACTIVE
 70
     0
 10
0.0
 20
0.0
 11
1.0
 21
1.0
 12
3147.329482
 22
-5615.458537
 13
0.0
 23
0.0
 14
1.0
 24
1.0
 15
600.0
 25
600.0
 16
0.0
 26
0.0
 36
1.0
 17
0.0
 27
0.0
 37
0.0
 40
687.977434
 41
2.224444
 42
50.0
 43
0.0
 44
0.0
 50
0.0
 51
0.0
 71
     0
 72
   100
 73
     1
 74
     0
 75
     0
 76
     0
 77
     0
 78
     0
  0
ENDTAB
  0
TABLE
  2
LTYPE
  5
5
100
AcDbSymbolTable
 70
     1
  0
LTYPE
  5
11
100
AcDbSymbolTableRecord
100
AcDbLinetypeTableRecord
  2
BYBLOCK
 70
     0
  3

 72
    65
 73
     0
 40
0.0
  0
LTYPE
  5
12
100
AcDbSymbolTableRecord
100
AcDbLinetypeTableRecord
  2
BYLAYER
 70
     0
  3

 72
    65
 73
     0
 40
0.0
  0
LTYPE
  5
13
100
AcDbSymbolTableRecord
100
AcDbLinetypeTableRecord
  2
CONTINUOUS
 70
     0
  3
Solid line
 72
    65
 73
     0
 40
0.0
  0
ENDTAB
  0
TABLE
  2
LAYER
  5
2
100
AcDbSymbolTable
 70
     8
  0
LAYER
  5
E
100
AcDbSymbolTableRecord
100
AcDbLayerTableRecord
  2
0
 70
     0
 62
     7
  6
CONTINUOUS
  0
LAYER
  5
4B
100
AcDbSymbolTableRecord
100
AcDbLayerTableRecord
  2
KOTY-UPLNE
 70
     0
 62
     7
  6
CONTINUOUS
  0
LAYER
  5
11B
100
AcDbSymbolTableRecord
100
AcDbLayerTableRecord
  2
RAMEC
 70
     0
 62
     5
  6
CONTINUOUS
  0
LAYER
  5
8EC
100
AcDbSymbolTableRecord
100
AcDbLayerTableRecord
  2
POZICE
 70
     0
 62
     1
  6
CONTINUOUS
  0
LAYER
  5
8EF
100
AcDbSymbolTableRecord
100
AcDbLayerTableRecord
  2
POPIS
 70
     0
 62
     1
  6
CONTINUOUS
  0
LAYER
  5
6287
100
AcDbSymbolTableRecord
100
AcDbLayerTableRecord
  2
KOTY-HLAVNI
 70
     0
 62
     7
  6
CONTINUOUS
  0
LAYER
  5
62A2
100
AcDbSymbolTableRecord
100
AcDbLayerTableRecord
  2
DEFPOINTS
 70
     0
 62
     7
  6
CONTINUOUS
  0
LAYER
  5
9CF4
100
AcDbSymbolTableRecord
100
AcDbLayerTableRecord
  2
TRAPEZ-VELKY
 70
     0
 62
     7
  6
CONTINUOUS
  0
ENDTAB
  0
TABLE
  2
STYLE
  5
3
100
AcDbSymbolTable
 70
     2
  0
STYLE
  5
F
100
AcDbSymbolTableRecord
100
AcDbTextStyleTableRecord
  2
STANDARD
 70
     0
 40
0.0
 41
0.9
 50
0.0
 71
     0
 42
50.0
  3
simplex.shx
  4

  0
STYLE
  5
8F0
100
AcDbSymbolTableRecord
100
AcDbTextStyleTableRecord
  2
STYLE1
 70
     0
 40
0.0
 41
0.9
 50
0.0
 71
     0
 42
50.0
  3
simplex.shx
  4

  0
ENDTAB
  0
TABLE
  2
VIEW
  5
6
100
AcDbSymbolTable
 70
     0
  0
ENDTAB
  0
TABLE
  2
UCS
  5
7
100
AcDbSymbolTable
 70
     0
  0
ENDTAB
  0
TABLE
  2
APPID
  5
9
100
AcDbSymbolTable
 70
     1
  0
APPID
  5
10
100
AcDbSymbolTableRecord
100
AcDbRegAppTableRecord
  2
ACAD
 70
     0
  0
ENDTAB
  0
TABLE
  2
DIMSTYLE
  5
A
100
AcDbSymbolTable
 70
     2
  0
DIMSTYLE
105
41
102
{ACAD_REACTORS
330
1FEF2
330
1FF00
330
1FF0E
330
1FF1C
330
1FF2A
330
1FF37
330
1FF46
330
1FF52
330
1FF60
330
1FF6D
330
1FF7C
330
1FF8B
330
1FF9A
330
1FFA9
330
1FFB6
330
1FFC3
330
1FFD2
330
1FFEE
330
2015B
330
20177
102
}
100
AcDbSymbolTableRecord
100
AcDbDimStyleTableRecord
  2
UPLNE
 70
     0
  3

  4

  5

  6

  7

 40
5.0
 41
5.0
 42
1.0
 43
0.0
 44
2.0
 45
1.0
 46
1.0
 47
0.0
 48
0.0
140
6.44
141
1.0
142
0.0
143
25.4
144
1.0
145
0.0
146
1.0
147
1.0
 71
     0
 72
     0
 73
     0
 74
     0
 75
     0
 76
     0
 77
     3
 78
     0
170
     0
171
     2
172
     1
173
     0
174
     1
175
     0
176
   256
177
   256
178
     5
270
     2
271
     0
272
     0
273
     2
274
     2
340
F
275
     0
280
     0
281
     0
282
     0
283
     1
284
     0
285
     0
286
     0
287
     5
288
     0
  0
DIMSTYLE
105
1FD32
102
{ACAD_XDICTIONARY
360
1FD33
102
}
100
AcDbSymbolTableRecord
100
AcDbDimStyleTableRecord
  2
STANDARD
 70
     0
  3

  4

  5

  6
OBLIQUE
  7
OBLIQUE
 40
0.0
 41
3.0
 42
1.0
 43
0.0
 44
2.0
 45
1.0
 46
1.0
 47
0.0
 48
0.0
140
4.0
141
1.0
142
0.0
143
25.4
144
1.0
145
0.0
146
1.0
147
1.0
 71
     0
 72
     0
 73
     0
 74
     0
 75
     0
 76
     0
 77
     3
 78
     0
170
     0
171
     2
172
     1
173
     1
174
     1
175
     0
176
   256
177
   256
178
   256
270
     2
271
     0
272
     0
273
     2
274
     2
340
F
275
     0
280
     0
281
     0
282
     0
283
     1
284
     0
285
     0
286
     0
287
     5
288
     0
  0
ENDTAB
  0
TABLE
  2
BLOCK_RECORD
  5
1
100
AcDbSymbolTable
 70
    21
  0
BLOCK_RECORD
  5
17
100
AcDbSymbolTableRecord
100
AcDbBlockTableRecord
  2
*MODEL_SPACE
  0
BLOCK_RECORD
  5
14
100
AcDbSymbolTableRecord
100
AcDbBlockTableRecord
  2
*PAPER_SPACE
  0
BLOCK_RECORD
  5
1FD2C
100
AcDbSymbolTableRecord
100
AcDbBlockTableRecord
  2
_OBLIQUE
  0
BLOCK_RECORD
  5
1FEE4
100
AcDbSymbolTableRecord
100
AcDbBlockTableRecord
  2
*D1
  0
BLOCK_RECORD
  5
1FEF3
100
AcDbSymbolTableRecord
100
AcDbBlockTableRecord
  2
*D2
  0
BLOCK_RECORD
  5
1FF01
100
AcDbSymbolTableRecord
100
AcDbBlockTableRecord
  2
*D3
  0
BLOCK_RECORD
  5
1FF0F
100
AcDbSymbolTableRecord
100
AcDbBlockTableRecord
  2
*D4
  0
BLOCK_RECORD
  5
1FF1D
100
AcDbSymbolTableRecord
100
AcDbBlockTableRecord
  2
*D5
  0
BLOCK_RECORD
  5
1FF2B
100
AcDbSymbolTableRecord
100
AcDbBlockTableRecord
  2
*D6
  0
BLOCK_RECORD
  5
1FF38
100
AcDbSymbolTableRecord
100
AcDbBlockTableRecord
  2
*D7
  0
BLOCK_RECORD
  5
1FF47
100
AcDbSymbolTableRecord
100
AcDbBlockTableRecord
  2
*D8
  0
BLOCK_RECORD
  5
1FF53
100
AcDbSymbolTableRecord
100
AcDbBlockTableRecord
  2
*D9
  0
BLOCK_RECORD
  5
1FF61
100
AcDbSymbolTableRecord
100
AcDbBlockTableRecord
  2
*D10
  0
BLOCK_RECORD
  5
1FF6E
100
AcDbSymbolTableRecord
100
AcDbBlockTableRecord
  2
*D11
  0
BLOCK_RECORD
  5
1FF7D
100
AcDbSymbolTableRecord
100
AcDbBlockTableRecord
  2
*D12
  0
BLOCK_RECORD
  5
1FF8C
100
AcDbSymbolTableRecord
100
AcDbBlockTableRecord
  2
*D13
  0
BLOCK_RECORD
  5
1FF9B
100
AcDbSymbolTableRecord
100
AcDbBlockTableRecord
  2
*D14
  0
BLOCK_RECORD
  5
1FFAA
100
AcDbSymbolTableRecord
100
AcDbBlockTableRecord
  2
*D15
  0
BLOCK_RECORD
  5
1FFB7
100
AcDbSymbolTableRecord
100
AcDbBlockTableRecord
  2
*D16
  0
BLOCK_RECORD
  5
1FFC4
100
AcDbSymbolTableRecord
100
AcDbBlockTableRecord
  2
*D17
  0
BLOCK_RECORD
  5
1FFE1
100
AcDbSymbolTableRecord
100
AcDbBlockTableRecord
  2
*D18
  0
BLOCK_RECORD
  5
2014D
100
AcDbSymbolTableRecord
100
AcDbBlockTableRecord
  2
*D19
  0
BLOCK_RECORD
  5
2016A
100
AcDbSymbolTableRecord
100
AcDbBlockTableRecord
  2
*D20
  0
ENDTAB
  0
ENDSEC
  0
SECTION
  2
BLOCKS
  0
BLOCK
  5
35
100
AcDbEntity
  8
0
100
AcDbBlockBegin
  2
*MODEL_SPACE
 70
     0
 10
0.0
 20
0.0
 30
0.0
  3
*MODEL_SPACE
  1

  0
ENDBLK
  5
36
100
AcDbEntity
  8
0
100
AcDbBlockEnd
  0
BLOCK
  5
33
100
AcDbEntity
 67
     1
  8
0
100
AcDbBlockBegin
  2
*PAPER_SPACE
 70
     0
 10
0.0
 20
0.0
 30
0.0
  3
*PAPER_SPACE
  1

  0
ENDBLK
  5
34
100
AcDbEntity
 67
     1
  8
0
100
AcDbBlockEnd
  0
BLOCK
  5
1FD2E
100
AcDbEntity
  8
0
100
AcDbBlockBegin
  2
_OBLIQUE
 70
     0
 10
0.0
 20
0.0
 30
0.0
  3
_OBLIQUE
  1

  0
LINE
  5
1FD2D
100
AcDbEntity
  8
0
  6
BYBLOCK
 62
     0
100
AcDbLine
 10
-0.5
 20
-0.5
 30
0.0
 11
0.5
 21
0.5
 31
0.0
  0
ENDBLK
  5
1FD2F
100
AcDbEntity
  8
0
100
AcDbBlockEnd
  0
BLOCK
  5
201EA
100
AcDbEntity
  8
0
100
AcDbBlockBegin
  2
*D1
 70
     1
 10
0.0
 20
0.0
 30
0.0
  3
*D1
  1

  0
LINE
  5
201EB
100
AcDbEntity
  8
0
  6
BYBLOCK
100
AcDbLine
 10
3259.472687
 20
-5618.542274
 30
0.0
 11
3492.103389
 21
-5618.542274
 31
0.0
  0
LINE
  5
201EC
100
AcDbEntity
  8
0
  6
BYBLOCK
100
AcDbLine
 10
3267.480361
 20
-5598.942274
 30
0.0
 11
3492.103389
 21
-5598.942274
 31
0.0
  0
LINE
  5
201ED
100
AcDbEntity
  8
0
  6
BYBLOCK
100
AcDbLine
 10
3486.103389
 20
-5633.542274
 30
0.0
 11
3486.103389
 21
-5648.542274
 31
0.0
  0
LINE
  5
201EE
100
AcDbEntity
  8
0
  6
BYBLOCK
100
AcDbLine
 10
3486.103389
 20
-5583.942274
 30
0.0
 11
3486.103389
 21
-5568.942274
 31
0.0
  0
MTEXT
  5
201EF
100
AcDbEntity
  8
0
  6
BYBLOCK
 62
     5
100
AcDbMText
 10
3470.443389
 20
-5651.469842
 30
0.0
 40
19.32
 41
0.0
 71
     5
 72
     1
  1
\A1;19,6
 11
0.0
 21
1.0
 31
0.0
  0
LINE
  5
201F0
100
AcDbEntity
  8
0
  6
BYBLOCK
100
AcDbLine
 10
3486.103389
 20
-5618.542274
 30
0.0
 11
3486.103389
 21
-5598.942274
 31
0.0
  0
LINE
  5
201F1
100
AcDbEntity
  8
0
  6
BYBLOCK
100
AcDbLine
 10
3486.103389
 20
-5618.542274
 30
0.0
 11
3486.103389
 21
-5598.942274
 31
0.0
  0
SOLID
  5
201F2
100
AcDbEntity
  8
0
  6
BYBLOCK
100
AcDbTrace
 10
3483.603389
 20
-5633.542274
 30
0.0
 11
3488.603389
 21
-5633.542274
 31
0.0
 12
3486.103389
 22
-5618.542274
 32
0.0
 13
3486.103389
 23
-5618.542274
 33
0.0
  0
SOLID
  5
201F3
100
AcDbEntity
  8
0
  6
BYBLOCK
100
AcDbTrace
 10
3483.603389
 20
-5583.942274
 30
0.0
 11
3488.603389
 21
-5583.942274
 31
0.0
 12
3486.103389
 22
-5598.942274
 32
0.0
 13
3486.103389
 23
-5598.942274
 33
0.0
  0
POINT
  5
201F4
100
AcDbEntity
  8
DEFPOINTS
  6
BYBLOCK
 62
     0
100
AcDbPoint
 10
3256.472687
 20
-5618.542274
 30
0.0
  0
POINT
  5
201F5
100
AcDbEntity
  8
DEFPOINTS
  6
BYBLOCK
 62
     0
100
AcDbPoint
 10
3264.480361
 20
-5598.942274
 30
0.0
  0
POINT
  5
201F6
100
AcDbEntity
  8
DEFPOINTS
  6
BYBLOCK
 62
     0
100
AcDbPoint
 10
3486.103389
 20
-5598.942274
 30
0.0
  0
ENDBLK
  5
201F7
100
AcDbEntity
  8
0
100
AcDbBlockEnd
  0
BLOCK
  5
20205
100
AcDbEntity
  8
0
100
AcDbBlockBegin
  2
*D2
 70
     1
 10
0.0
 20
0.0
 30
0.0
  3
*D2
  1

  0
LINE
  5
20206
100
AcDbEntity
  8
0
  6
BYBLOCK
100
AcDbLine
 10
3275.962209
 20
-5591.402274
 30
0.0
 11
3492.103389
 21
-5591.402274
 31
0.0
  0
LINE
  5
20207
100
AcDbEntity
  8
0
  6
BYBLOCK
100
AcDbLine
 10
3486.103389
 20
-5613.942274
 30
0.0
 11
3486.103389
 21
-5628.942274
 31
0.0
  0
LINE
  5
20208
100
AcDbEntity
  8
0
  6
BYBLOCK
100
AcDbLine
 10
3486.103389
 20
-5576.402274
 30
0.0
 11
3486.103389
 21
-5561.402274
 31
0.0
  0
MTEXT
  5
20209
100
AcDbEntity
  8
0
  6
BYBLOCK
 62
     5
100
AcDbMText
 10
3507.05971
 20
-5595.172274
 30
0.0
 40
19.32
 41
0.0
 71
     5
 72
     1
  1
\A1;7,5
 11
0.0
 21
1.0
 31
0.0
  0
LINE
  5
2020A
100
AcDbEntity
  8
0
  6
BYBLOCK
100
AcDbLine
 10
3486.103389
 20
-5598.942274
 30
0.0
 11
3486.103389
 21
-5591.402274
 31
0.0
  0
LINE
  5
2020B
100
AcDbEntity
  8
0
  6
BYBLOCK
100
AcDbLine
 10
3486.103389
 20
-5598.942274
 30
0.0
 11
3486.103389
 21
-5591.402274
 31
0.0
  0
SOLID
  5
2020C
100
AcDbEntity
  8
0
  6
BYBLOCK
100
AcDbTrace
 10
3483.603389
 20
-5613.942274
 30
0.0
 11
3488.603389
 21
-5613.942274
 31
0.0
 12
3486.103389
 22
-5598.942274
 32
0.0
 13
3486.103389
 23
-5598.942274
 33
0.0
  0
SOLID
  5
2020D
100
AcDbEntity
  8
0
  6
BYBLOCK
100
AcDbTrace
 10
3483.603389
 20
-5576.402274
 30
0.0
 11
3488.603389
 21
-5576.402274
 31
0.0
 12
3486.103389
 22
-5591.402274
 32
0.0
 13
3486.103389
 23
-5591.402274
 33
0.0
  0
POINT
  5
2020E
100
AcDbEntity
  8
DEFPOINTS
  6
BYBLOCK
 62
     0
100
AcDbPoint
 10
3264.480361
 20
-5598.942274
 30
0.0
  0
POINT
  5
2020F
100
AcDbEntity
  8
DEFPOINTS
  6
BYBLOCK
 62
     0
100
AcDbPoint
 10
3272.962209
 20
-5591.402274
 30
0.0
  0
POINT
  5
20210
100
AcDbEntity
  8
DEFPOINTS
  6
BYBLOCK
 62
     0
100
AcDbPoint
 10
3486.103389
 20
-5591.402274
 30
0.0
  0
ENDBLK
  5
20211
100
AcDbEntity
  8
0
100
AcDbBlockEnd
  0
BLOCK
  5
201DE
100
AcDbEntity
  8
0
100
AcDbBlockBegin
  2
*D3
 70
     1
 10
0.0
 20
0.0
 30
0.0
  3
*D3
  1

  0
LINE
  5
201DF
100
AcDbEntity
  8
0
  6
BYBLOCK
100
AcDbLine
 10
3297.403165
 20
-5538.922274
 30
0.0
 11
3492.103389
 21
-5538.922274
 31
0.0
  0
LINE
  5
201E0
100
AcDbEntity
  8
0
  6
BYBLOCK
100
AcDbLine
 10
3486.103389
 20
-5606.402274
 30
0.0
 11
3486.103389
 21
-5621.402274
 31
0.0
  0
LINE
  5
201E1
100
AcDbEntity
  8
0
  6
BYBLOCK
100
AcDbLine
 10
3486.103389
 20
-5523.922274
 30
0.0
 11
3486.103389
 21
-5508.922274
 31
0.0
  0
LINE
  5
201E2
100
AcDbEntity
  8
0
  6
BYBLOCK
100
AcDbLine
 10
3486.103389
 20
-5591.402274
 30
0.0
 11
3486.103389
 21
-5538.922274
 31
0.0
  0
SOLID
  5
201E3
100
AcDbEntity
  8
0
  6
BYBLOCK
100
AcDbTrace
 10
3483.603389
 20
-5606.402274
 30
0.0
 11
3488.603389
 21
-5606.402274
 31
0.0
 12
3486.103389
 22
-5591.402274
 32
0.0
 13
3486.103389
 23
-5591.402274
 33
0.0
  0
SOLID
  5
201E4
100
AcDbEntity
  8
0
  6
BYBLOCK
100
AcDbTrace
 10
3483.603389
 20
-5523.922274
 30
0.0
 11
3488.603389
 21
-5523.922274
 31
0.0
 12
3486.103389
 22
-5538.922274
 32
0.0
 13
3486.103389
 23
-5538.922274
 33
0.0
  0
MTEXT
  5
201E5
100
AcDbEntity
  8
0
  6
BYBLOCK
 62
     5
100
AcDbMText
 10
3468.603389
 20
-5565.162274
 30
0.0
 40
19.32
 41
0.0
 71
     5
 72
     1
  1
\A1;52,5
 11
0.0
 21
1.0
 31
0.0
  0
POINT
  5
201E6
100
AcDbEntity
  8
DEFPOINTS
  6
BYBLOCK
 62
     0
100
AcDbPoint
 10
3272.962209
 20
-5591.402274
 30
0.0
  0
POINT
  5
201E7
100
AcDbEntity
  8
DEFPOINTS
  6
BYBLOCK
 62
     0
100
AcDbPoint
 10
3294.403165
 20
-5538.922274
 30
0.0
  0
POINT
  5
201E8
100
AcDbEntity
  8
DEFPOINTS
  6
BYBLOCK
 62
     0
100
AcDbPoint
 10
3486.103389
 20
-5538.922274
 30
0.0
  0
ENDBLK
  5
201E9
100
AcDbEntity
  8
0
100
AcDbBlockEnd
  0
BLOCK
  5
201F8
100
AcDbEntity
  8
0
100
AcDbBlockBegin
  2
*D4
 70
     1
 10
0.0
 20
0.0
 30
0.0
  3
*D4
  1

  0
LINE
  5
201F9
100
AcDbEntity
  8
0
  6
BYBLOCK
100
AcDbLine
 10
3305.885013
 20
-5531.382274
 30
0.0
 11
3492.103389
 21
-5531.382274
 31
0.0
  0
LINE
  5
201FA
100
AcDbEntity
  8
0
  6
BYBLOCK
100
AcDbLine
 10
3486.103389
 20
-5553.922274
 30
0.0
 11
3486.103389
 21
-5568.922274
 31
0.0
  0
LINE
  5
201FB
100
AcDbEntity
  8
0
  6
BYBLOCK
100
AcDbLine
 10
3486.103389
 20
-5516.382274
 30
0.0
 11
3486.103389
 21
-5501.382274
 31
0.0
  0
MTEXT
  5
201FC
100
AcDbEntity
  8
0
  6
BYBLOCK
 62
     5
100
AcDbMText
 10
3507.496076
 20
-5535.152274
 30
0.0
 40
19.32
 41
0.0
 71
     5
 72
     1
  1
\A1;7,5
 11
0.0
 21
1.0
 31
0.0
  0
LINE
  5
201FD
100
AcDbEntity
  8
0
  6
BYBLOCK
100
AcDbLine
 10
3486.103389
 20
-5538.922274
 30
0.0
 11
3486.103389
 21
-5531.382274
 31
0.0
  0
LINE
  5
201FE
100
AcDbEntity
  8
0
  6
BYBLOCK
100
AcDbLine
 10
3486.103389
 20
-5538.922274
 30
0.0
 11
3486.103389
 21
-5531.382274
 31
0.0
  0
SOLID
  5
201FF
100
AcDbEntity
  8
0
  6
BYBLOCK
100
AcDbTrace
 10
3483.603389
 20
-5553.922274
 30
0.0
 11
3488.603389
 21
-5553.922274
 31
0.0
 12
3486.103389
 22
-5538.922274
 32
0.0
 13
3486.103389
 23
-5538.922274
 33
0.0
  0
SOLID
  5
20200
100
AcDbEntity
  8
0
  6
BYBLOCK
100
AcDbTrace
 10
3483.603389
 20
-5516.382274
 30
0.0
 11
3488.603389
 21
-5516.382274
 31
0.0
 12
3486.103389
 22
-5531.382274
 32
0.0
 13
3486.103389
 23
-5531.382274
 33
0.0
  0
POINT
  5
20201
100
AcDbEntity
  8
DEFPOINTS
  6
BYBLOCK
 62
     0
100
AcDbPoint
 10
3294.403165
 20
-5538.922274
 30
0.0
  0
POINT
  5
20202
100
AcDbEntity
  8
DEFPOINTS
  6
BYBLOCK
 62
     0
100
AcDbPoint
 10
3302.885013
 20
-5531.382274
 30
0.0
  0
POINT
  5
20203
100
AcDbEntity
  8
DEFPOINTS
  6
BYBLOCK
 62
     0
100
AcDbPoint
 10
3486.103389
 20
-5531.382274
 30
0.0
  0
ENDBLK
  5
20204
100
AcDbEntity
  8
0
100
AcDbBlockEnd
  0
BLOCK
  5
201D1
100
AcDbEntity
  8
0
100
AcDbBlockBegin
  2
*D5
 70
     1
 10
0.0
 20
0.0
 30
0.0
  3
*D5
  1

  0
LINE
  5
201D2
100
AcDbEntity
  8
0
  6
BYBLOCK
100
AcDbLine
 10
3384.472687
 20
-5511.782274
 30
0.0
 11
3492.103389
 21
-5511.782274
 31
0.0
  0
LINE
  5
201D3
100
AcDbEntity
  8
0
  6
BYBLOCK
100
AcDbLine
 10
3486.103389
 20
-5546.382274
 30
0.0
 11
3486.103389
 21
-5561.382274
 31
0.0
  0
LINE
  5
201D4
100
AcDbEntity
  8
0
  6
BYBLOCK
100
AcDbLine
 10
3486.103389
 20
-5496.782274
 30
0.0
 11
3486.103389
 21
-5481.782274
 31
0.0
  0
MTEXT
  5
201D5
100
AcDbEntity
  8
0
  6
BYBLOCK
 62
     5
100
AcDbMText
 10
3470.443389
 20
-5485.42089
 30
0.0
 40
19.32
 41
0.0
 71
     5
 72
     1
  1
\A1;19,6
 11
0.0
 21
1.0
 31
0.0
  0
LINE
  5
201D6
100
AcDbEntity
  8
0
  6
BYBLOCK
100
AcDbLine
 10
3486.103389
 20
-5531.382274
 30
0.0
 11
3486.103389
 21
-5511.782274
 31
0.0
  0
LINE
  5
201D7
100
AcDbEntity
  8
0
  6
BYBLOCK
100
AcDbLine
 10
3486.103389
 20
-5531.382274
 30
0.0
 11
3486.103389
 21
-5511.782274
 31
0.0
  0
SOLID
  5
201D8
100
AcDbEntity
  8
0
  6
BYBLOCK
100
AcDbTrace
 10
3483.603389
 20
-5546.382274
 30
0.0
 11
3488.603389
 21
-5546.382274
 31
0.0
 12
3486.103389
 22
-5531.382274
 32
0.0
 13
3486.103389
 23
-5531.382274
 33
0.0
  0
SOLID
  5
201D9
100
AcDbEntity
  8
0
  6
BYBLOCK
100
AcDbTrace
 10
3483.603389
 20
-5496.782274
 30
0.0
 11
3488.603389
 21
-5496.782274
 31
0.0
 12
3486.103389
 22
-5511.782274
 32
0.0
 13
3486.103389
 23
-5511.782274
 33
0.0
  0
POINT
  5
201DA
100
AcDbEntity
  8
DEFPOINTS
  6
BYBLOCK
 62
     0
100
AcDbPoint
 10
3302.885013
 20
-5531.382274
 30
0.0
  0
POINT
  5
201DB
100
AcDbEntity
  8
DEFPOINTS
  6
BYBLOCK
 62
     0
100
AcDbPoint
 10
3381.472687
 20
-5511.782274
 30
0.0
  0
POINT
  5
201DC
100
AcDbEntity
  8
DEFPOINTS
  6
BYBLOCK
 62
     0
100
AcDbPoint
 10
3486.103389
 20
-5511.782274
 30
0.0
  0
ENDBLK
  5
201DD
100
AcDbEntity
  8
0
100
AcDbBlockEnd
  0
BLOCK
  5
20212
100
AcDbEntity
  8
0
100
AcDbBlockBegin
  2
*D6
 70
     1
 10
0.0
 20
0.0
 30
0.0
  3
*D6
  1

  0
LINE
  5
20213
100
AcDbEntity
  8
0
  6
BYBLOCK
100
AcDbLine
 10
3384.472687
 20
-5511.782274
 30
0.0
 11
3575.227403
 21
-5511.782274
 31
0.0
  0
LINE
  5
20214
100
AcDbEntity
  8
0
  6
BYBLOCK
100
AcDbLine
 10
3259.472687
 20
-5618.542274
 30
0.0
 11
3575.227403
 21
-5618.542274
 31
0.0
  0
LINE
  5
20215
100
AcDbEntity
  8
0
  6
BYBLOCK
100
AcDbLine
 10
3569.227403
 20
-5526.782274
 30
0.0
 11
3569.227403
 21
-5603.542274
 31
0.0
  0
SOLID
  5
20216
100
AcDbEntity
  8
0
  6
BYBLOCK
100
AcDbTrace
 10
3566.727403
 20
-5526.782274
 30
0.0
 11
3571.727403
 21
-5526.782274
 31
0.0
 12
3569.227403
 22
-5511.782274
 32
0.0
 13
3569.227403
 23
-5511.782274
 33
0.0
  0
SOLID
  5
20217
100
AcDbEntity
  8
0
  6
BYBLOCK
100
AcDbTrace
 10
3566.727403
 20
-5603.542274
 30
0.0
 11
3571.727403
 21
-5603.542274
 31
0.0
 12
3569.227403
 22
-5618.542274
 32
0.0
 13
3569.227403
 23
-5618.542274
 33
0.0
  0
MTEXT
  5
20218
100
AcDbEntity
  8
0
  6
BYBLOCK
 62
     5
100
AcDbMText
 10
3551.727403
 20
-5565.162274
 30
0.0
 40
19.32
 41
0.0
 71
     5
 72
     1
  1
\A1;106,8
 11
0.0
 21
1.0
 31
0.0
  0
POINT
  5
20219
100
AcDbEntity
  8
DEFPOINTS
  6
BYBLOCK
 62
     0
100
AcDbPoint
 10
3381.472687
 20
-5511.782274
 30
0.0
  0
POINT
  5
2021A
100
AcDbEntity
  8
DEFPOINTS
  6
BYBLOCK
 62
     0
100
AcDbPoint
 10
3256.472687
 20
-5618.542274
 30
0.0
  0
POINT
  5
2021B
100
AcDbEntity
  8
DEFPOINTS
  6
BYBLOCK
 62
     0
100
AcDbPoint
 10
3569.227403
 20
-5618.542274
 30
0.0
  0
ENDBLK
  5
2021C
100
AcDbEntity
  8
0
100
AcDbBlockEnd
  0
BLOCK
  5
2017D
100
AcDbEntity
  8
0
100
AcDbBlockBegin
  2
*D7
 70
     1
 10
0.0
 20
0.0
 30
0.0
  3
*D7
  1

  0
LINE
  5
2017E
100
AcDbEntity
  8
0
  6
BYBLOCK
100
AcDbLine
 10
2631.472687
 20
-5514.782274
 30
0.0
 11
2631.472687
 21
-5684.542274
 31
0.0
  0
LINE
  5
2017F
100
AcDbEntity
  8
0
  6
BYBLOCK
100
AcDbLine
 10
2685.892687
 20
-5621.542274
 30
0.0
 11
2685.892687
 21
-5684.542274
 31
0.0
  0
LINE
  5
20180
100
AcDbEntity
  8
0
  6
BYBLOCK
100
AcDbLine
 10
2616.472687
 20
-5678.542274
 30
0.0
 11
2601.472687
 21
-5678.542274
 31
0.0
  0
LINE
  5
20181
100
AcDbEntity
  8
0
  6
BYBLOCK
100
AcDbLine
 10
2700.892687
 20
-5678.542274
 30
0.0
 11
2715.892687
 21
-5678.542274
 31
0.0
  0
LINE
  5
20182
100
AcDbEntity
  8
0
  6
BYBLOCK
100
AcDbLine
 10
2631.472687
 20
-5678.542274
 30
0.0
 11
2685.892687
 21
-5678.542274
 31
0.0
  0
SOLID
  5
20183
100
AcDbEntity
  8
0
  6
BYBLOCK
100
AcDbTrace
 10
2616.472687
 20
-5676.042274
 30
0.0
 11
2616.472687
 21
-5681.042274
 31
0.0
 12
2631.472687
 22
-5678.542274
 32
0.0
 13
2631.472687
 23
-5678.542274
 33
0.0
  0
SOLID
  5
20184
100
AcDbEntity
  8
0
  6
BYBLOCK
100
AcDbTrace
 10
2700.892687
 20
-5676.042274
 30
0.0
 11
2700.892687
 21
-5681.042274
 31
0.0
 12
2685.892687
 22
-5678.542274
 32
0.0
 13
2685.892687
 23
-5678.542274
 33
0.0
  0
MTEXT
  5
20185
100
AcDbEntity
  8
0
  6
BYBLOCK
 62
     5
100
AcDbMText
 10
2658.682687
 20
-5661.042274
 30
0.0
 40
19.32
 41
0.0
 71
     5
 72
     1
  1
\A1;54,4
  0
POINT
  5
20186
100
AcDbEntity
  8
DEFPOINTS
  6
BYBLOCK
 62
     0
100
AcDbPoint
 10
2631.472687
 20
-5511.782274
 30
0.0
  0
POINT
  5
20187
100
AcDbEntity
  8
DEFPOINTS
  6
BYBLOCK
 62
     0
100
AcDbPoint
 10
2685.892687
 20
-5618.542274
 30
0.0
  0
POINT
  5
20188
100
AcDbEntity
  8
DEFPOINTS
  6
BYBLOCK
 62
     0
100
AcDbPoint
 10
2685.892687
 20
-5678.542274
 30
0.0
  0
ENDBLK
  5
20189
100
AcDbEntity
  8
0
100
AcDbBlockEnd
  0
BLOCK
  5
2018A
100
AcDbEntity
  8
0
100
AcDbBlockBegin
  2
*D8
 70
     1
 10
0.0
 20
0.0
 30
0.0
  3
*D8
  1

  0
LINE
  5
2018B
100
AcDbEntity
  8
0
  6
BYBLOCK
100
AcDbLine
 10
2756.472687
 20
-5621.542274
 30
0.0
 11
2756.472687
 21
-5684.542274
 31
0.0
  0
LINE
  5
2018C
100
AcDbEntity
  8
0
  6
BYBLOCK
100
AcDbLine
 10
2700.892687
 20
-5678.542274
 30
0.0
 11
2741.472687
 21
-5678.542274
 31
0.0
  0
SOLID
  5
2018D
100
AcDbEntity
  8
0
  6
BYBLOCK
100
AcDbTrace
 10
2700.892687
 20
-5676.042274
 30
0.0
 11
2700.892687
 21
-5681.042274
 31
0.0
 12
2685.892687
 22
-5678.542274
 32
0.0
 13
2685.892687
 23
-5678.542274
 33
0.0
  0
SOLID
  5
2018E
100
AcDbEntity
  8
0
  6
BYBLOCK
100
AcDbTrace
 10
2741.472687
 20
-5676.042274
 30
0.0
 11
2741.472687
 21
-5681.042274
 31
0.0
 12
2756.472687
 22
-5678.542274
 32
0.0
 13
2756.472687
 23
-5678.542274
 33
0.0
  0
MTEXT
  5
2018F
100
AcDbEntity
  8
0
  6
BYBLOCK
 62
     5
100
AcDbMText
 10
2721.182687
 20
-5661.042274
 30
0.0
 40
19.32
 41
0.0
 71
     5
 72
     1
  1
\A1;70,6
  0
POINT
  5
20190
100
AcDbEntity
  8
DEFPOINTS
  6
BYBLOCK
 62
     0
100
AcDbPoint
 10
2685.892687
 20
-5618.542274
 30
0.0
  0
POINT
  5
20191
100
AcDbEntity
  8
DEFPOINTS
  6
BYBLOCK
 62
     0
100
AcDbPoint
 10
2756.472687
 20
-5618.542274
 30
0.0
  0
POINT
  5
20192
100
AcDbEntity
  8
DEFPOINTS
  6
BYBLOCK
 62
     0
100
AcDbPoint
 10
2756.472687
 20
-5678.542274
 30
0.0
  0
ENDBLK
  5
20193
100
AcDbEntity
  8
0
100
AcDbBlockEnd
  0
BLOCK
  5
20194
100
AcDbEntity
  8
0
100
AcDbBlockBegin
  2
*D9
 70
     1
 10
0.0
 20
0.0
 30
0.0
  3
*D9
  1

  0
LINE
  5
20195
100
AcDbEntity
  8
0
  6
BYBLOCK
100
AcDbLine
 10
2810.892687
 20
-5514.782274
 30
0.0
 11
2810.892687
 21
-5684.542274
 31
0.0
  0
LINE
  5
20196
100
AcDbEntity
  8
0
  6
BYBLOCK
100
AcDbLine
 10
2741.472687
 20
-5678.542274
 30
0.0
 11
2726.472687
 21
-5678.542274
 31
0.0
  0
LINE
  5
20197
100
AcDbEntity
  8
0
  6
BYBLOCK
100
AcDbLine
 10
2825.892687
 20
-5678.542274
 30
0.0
 11
2840.892687
 21
-5678.542274
 31
0.0
  0
LINE
  5
20198
100
AcDbEntity
  8
0
  6
BYBLOCK
100
AcDbLine
 10
2756.472687
 20
-5678.542274
 30
0.0
 11
2810.892687
 21
-5678.542274
 31
0.0
  0
SOLID
  5
20199
100
AcDbEntity
  8
0
  6
BYBLOCK
100
AcDbTrace
 10
2741.472687
 20
-5676.042274
 30
0.0
 11
2741.472687
 21
-5681.042274
 31
0.0
 12
2756.472687
 22
-5678.542274
 32
0.0
 13
2756.472687
 23
-5678.542274
 33
0.0
  0
SOLID
  5
2019A
100
AcDbEntity
  8
0
  6
BYBLOCK
100
AcDbTrace
 10
2825.892687
 20
-5676.042274
 30
0.0
 11
2825.892687
 21
-5681.042274
 31
0.0
 12
2810.892687
 22
-5678.542274
 32
0.0
 13
2810.892687
 23
-5678.542274
 33
0.0
  0
MTEXT
  5
2019B
100
AcDbEntity
  8
0
  6
BYBLOCK
 62
     5
100
AcDbMText
 10
2783.682687
 20
-5661.042274
 30
0.0
 40
19.32
 41
0.0
 71
     5
 72
     1
  1
\A1;54,4
  0
POINT
  5
2019C
100
AcDbEntity
  8
DEFPOINTS
  6
BYBLOCK
 62
     0
100
AcDbPoint
 10
2756.472687
 20
-5618.542274
 30
0.0
  0
POINT
  5
2019D
100
AcDbEntity
  8
DEFPOINTS
  6
BYBLOCK
 62
     0
100
AcDbPoint
 10
2810.892687
 20
-5511.782274
 30
0.0
  0
POINT
  5
2019E
100
AcDbEntity
  8
DEFPOINTS
  6
BYBLOCK
 62
     0
100
AcDbPoint
 10
2810.892687
 20
-5678.542274
 30
0.0
  0
ENDBLK
  5
2019F
100
AcDbEntity
  8
0
100
AcDbBlockEnd
  0
BLOCK
  5
201AD
100
AcDbEntity
  8
0
100
AcDbBlockBegin
  2
*D10
 70
     1
 10
0.0
 20
0.0
 30
0.0
  3
*D10
  1

  0
LINE
  5
201AE
100
AcDbEntity
  8
0
  6
BYBLOCK
100
AcDbLine
 10
2810.892687
 20
-5508.782274
 30
0.0
 11
2810.892687
 21
-5455.782274
 31
0.0
  0
LINE
  5
201AF
100
AcDbEntity
  8
0
  6
BYBLOCK
100
AcDbLine
 10
2881.472687
 20
-5508.782274
 30
0.0
 11
2881.472687
 21
-5455.782274
 31
0.0
  0
LINE
  5
201B0
100
AcDbEntity
  8
0
  6
BYBLOCK
100
AcDbLine
 10
2825.892687
 20
-5461.782274
 30
0.0
 11
2866.472687
 21
-5461.782274
 31
0.0
  0
SOLID
  5
201B1
100
AcDbEntity
  8
0
  6
BYBLOCK
100
AcDbTrace
 10
2825.892687
 20
-5459.282274
 30
0.0
 11
2825.892687
 21
-5464.282274
 31
0.0
 12
2810.892687
 22
-5461.782274
 32
0.0
 13
2810.892687
 23
-5461.782274
 33
0.0
  0
SOLID
  5
201B2
100
AcDbEntity
  8
0
  6
BYBLOCK
100
AcDbTrace
 10
2866.472687
 20
-5459.282274
 30
0.0
 11
2866.472687
 21
-5464.282274
 31
0.0
 12
2881.472687
 22
-5461.782274
 32
0.0
 13
2881.472687
 23
-5461.782274
 33
0.0
  0
MTEXT
  5
201B3
100
AcDbEntity
  8
0
  6
BYBLOCK
 62
     5
100
AcDbMText
 10
2846.182687
 20
-5444.282274
 30
0.0
 40
19.32
 41
0.0
 71
     5
 72
     1
  1
\A1;70,6
  0
POINT
  5
201B4
100
AcDbEntity
  8
DEFPOINTS
  6
BYBLOCK
 62
     0
100
AcDbPoint
 10
2810.892687
 20
-5511.782274
 30
0.0
  0
POINT
  5
201B5
100
AcDbEntity
  8
DEFPOINTS
  6
BYBLOCK
 62
     0
100
AcDbPoint
 10
2881.472687
 20
-5511.782274
 30
0.0
  0
POINT
  5
201B6
100
AcDbEntity
  8
DEFPOINTS
  6
BYBLOCK
 62
     0
100
AcDbPoint
 10
2881.472687
 20
-5461.782274
 30
0.0
  0
ENDBLK
  5
201B7
100
AcDbEntity
  8
0
100
AcDbBlockEnd
  0
BLOCK
  5
2022A
100
AcDbEntity
  8
0
100
AcDbBlockBegin
  2
*D11
 70
     1
 10
0.0
 20
0.0
 30
0.0
  3
*D11
  1

  0
LINE
  5
2022B
100
AcDbEntity
  8
0
  6
BYBLOCK
100
AcDbLine
 10
2849.182687
 20
-5517.586218
 30
0.0
 11
2948.905639
 21
-5517.586218
 31
0.0
  0
LINE
  5
2022C
100
AcDbEntity
  8
0
  6
BYBLOCK
100
AcDbLine
 10
2884.472687
 20
-5511.782274
 30
0.0
 11
2948.905639
 21
-5511.782274
 31
0.0
  0
LINE
  5
2022D
100
AcDbEntity
  8
0
  6
BYBLOCK
100
AcDbLine
 10
2942.905639
 20
-5532.586218
 30
0.0
 11
2942.905639
 21
-5547.586218
 31
0.0
  0
LINE
  5
2022E
100
AcDbEntity
  8
0
  6
BYBLOCK
100
AcDbLine
 10
2942.905639
 20
-5496.782274
 30
0.0
 11
2942.905639
 21
-5481.782274
 31
0.0
  0
MTEXT
  5
2022F
100
AcDbEntity
  8
0
  6
BYBLOCK
 62
     5
100
AcDbMText
 10
2925.405639
 20
-5488.202896
 30
0.0
 40
19.32
 41
0.0
 71
     5
 72
     1
  1
\A1;5,8
 11
0.0
 21
1.0
 31
0.0
  0
LINE
  5
20230
100
AcDbEntity
  8
0
  6
BYBLOCK
100
AcDbLine
 10
2942.905639
 20
-5517.586218
 30
0.0
 11
2942.905639
 21
-5511.782274
 31
0.0
  0
LINE
  5
20231
100
AcDbEntity
  8
0
  6
BYBLOCK
100
AcDbLine
 10
2942.905639
 20
-5517.586218
 30
0.0
 11
2942.905639
 21
-5511.782274
 31
0.0
  0
SOLID
  5
20232
100
AcDbEntity
  8
0
  6
BYBLOCK
100
AcDbTrace
 10
2940.405639
 20
-5532.586218
 30
0.0
 11
2945.405639
 21
-5532.586218
 31
0.0
 12
2942.905639
 22
-5517.586218
 32
0.0
 13
2942.905639
 23
-5517.586218
 33
0.0
  0
SOLID
  5
20233
100
AcDbEntity
  8
0
  6
BYBLOCK
100
AcDbTrace
 10
2940.405639
 20
-5496.782274
 30
0.0
 11
2945.405639
 21
-5496.782274
 31
0.0
 12
2942.905639
 22
-5511.782274
 32
0.0
 13
2942.905639
 23
-5511.782274
 33
0.0
  0
POINT
  5
20234
100
AcDbEntity
  8
DEFPOINTS
  6
BYBLOCK
 62
     0
100
AcDbPoint
 10
2846.182687
 20
-5517.586218
 30
0.0
  0
POINT
  5
20235
100
AcDbEntity
  8
DEFPOINTS
  6
BYBLOCK
 62
     0
100
AcDbPoint
 10
2881.472687
 20
-5511.782274
 30
0.0
  0
POINT
  5
20236
100
AcDbEntity
  8
DEFPOINTS
  6
BYBLOCK
 62
     0
100
AcDbPoint
 10
2942.905639
 20
-5511.782274
 30
0.0
  0
ENDBLK
  5
20237
100
AcDbEntity
  8
0
100
AcDbBlockEnd
  0
BLOCK
  5
20012
100
AcDbEntity
  8
0
100
AcDbBlockBegin
  2
*D12
 70
     1
 10
0.0
 20
0.0
 30
0.0
  3
*D12
  1

  0
LINE
  5
20013
100
AcDbEntity
  8
0
  6
BYBLOCK
100
AcDbLine
 10
2835.192687
 20
-5514.782274
 30
0.0
 11
2835.192687
 21
-5581.832513
 31
0.0
  0
LINE
  5
20014
100
AcDbEntity
  8
0
  6
BYBLOCK
100
AcDbLine
 10
2857.172687
 20
-5514.782274
 30
0.0
 11
2857.172687
 21
-5581.832513
 31
0.0
  0
LINE
  5
20015
100
AcDbEntity
  8
0
  6
BYBLOCK
100
AcDbLine
 10
2820.192687
 20
-5575.832513
 30
0.0
 11
2805.192687
 21
-5575.832513
 31
0.0
  0
LINE
  5
20016
100
AcDbEntity
  8
0
  6
BYBLOCK
100
AcDbLine
 10
2872.172687
 20
-5575.832513
 30
0.0
 11
2887.172687
 21
-5575.832513
 31
0.0
  0
LINE
  5
20017
100
AcDbEntity
  8
0
  6
BYBLOCK
100
AcDbLine
 10
2835.192687
 20
-5575.832513
 30
0.0
 11
2857.172687
 21
-5575.832513
 31
0.0
  0
SOLID
  5
20018
100
AcDbEntity
  8
0
  6
BYBLOCK
100
AcDbTrace
 10
2820.192687
 20
-5573.332513
 30
0.0
 11
2820.192687
 21
-5578.332513
 31
0.0
 12
2835.192687
 22
-5575.832513
 32
0.0
 13
2835.192687
 23
-5575.832513
 33
0.0
  0
SOLID
  5
20019
100
AcDbEntity
  8
0
  6
BYBLOCK
100
AcDbTrace
 10
2872.172687
 20
-5573.332513
 30
0.0
 11
2872.172687
 21
-5578.332513
 31
0.0
 12
2857.172687
 22
-5575.832513
 32
0.0
 13
2857.172687
 23
-5575.832513
 33
0.0
  0
MTEXT
  5
2001A
100
AcDbEntity
  8
0
  6
BYBLOCK
 62
     5
100
AcDbMText
 10
2846.182687
 20
-5560.172513
 30
0.0
 40
19.32
 41
0.0
 71
     5
 72
     1
  1
\A1;22
  0
POINT
  5
2001B
100
AcDbEntity
  8
DEFPOINTS
  6
BYBLOCK
 62
     0
100
AcDbPoint
 10
2835.192687
 20
-5511.782274
 30
0.0
  0
POINT
  5
2001C
100
AcDbEntity
  8
DEFPOINTS
  6
BYBLOCK
 62
     0
100
AcDbPoint
 10
2857.172687
 20
-5511.782274
 30
0.0
  0
POINT
  5
2001D
100
AcDbEntity
  8
DEFPOINTS
  6
BYBLOCK
 62
     0
100
AcDbPoint
 10
2857.172687
 20
-5575.832513
 30
0.0
  0
ENDBLK
  5
2001E
100
AcDbEntity
  8
0
100
AcDbBlockEnd
  0
BLOCK
  5
20246
100
AcDbEntity
  8
0
100
AcDbBlockBegin
  2
*D13
 70
     1
 10
0.0
 20
0.0
 30
0.0
  3
*D13
  1

  0
LINE
  5
20247
100
AcDbEntity
  8
0
  6
BYBLOCK
100
AcDbLine
 10
2724.182687
 20
-5612.738331
 30
0.0
 11
2852.046304
 21
-5612.738331
 31
0.0
  0
LINE
  5
20248
100
AcDbEntity
  8
0
  6
BYBLOCK
100
AcDbLine
 10
2759.472687
 20
-5618.542274
 30
0.0
 11
2852.046304
 21
-5618.542274
 31
0.0
  0
LINE
  5
20249
100
AcDbEntity
  8
0
  6
BYBLOCK
100
AcDbLine
 10
2846.046304
 20
-5597.738331
 30
0.0
 11
2846.046304
 21
-5582.738331
 31
0.0
  0
LINE
  5
2024A
100
AcDbEntity
  8
0
  6
BYBLOCK
100
AcDbLine
 10
2846.046304
 20
-5633.542274
 30
0.0
 11
2846.046304
 21
-5648.542274
 31
0.0
  0
MTEXT
  5
2024B
100
AcDbEntity
  8
0
  6
BYBLOCK
 62
     5
100
AcDbMText
 10
2828.546304
 20
-5641.303887
 30
0.0
 40
19.32
 41
0.0
 71
     5
 72
     1
  1
\A1;5,8
 11
0.0
 21
1.0
 31
0.0
  0
LINE
  5
2024C
100
AcDbEntity
  8
0
  6
BYBLOCK
100
AcDbLine
 10
2846.046304
 20
-5612.738331
 30
0.0
 11
2846.046304
 21
-5618.542274
 31
0.0
  0
LINE
  5
2024D
100
AcDbEntity
  8
0
  6
BYBLOCK
100
AcDbLine
 10
2846.046304
 20
-5612.738331
 30
0.0
 11
2846.046304
 21
-5618.542274
 31
0.0
  0
SOLID
  5
2024E
100
AcDbEntity
  8
0
  6
BYBLOCK
100
AcDbTrace
 10
2843.546304
 20
-5597.738331
 30
0.0
 11
2848.546304
 21
-5597.738331
 31
0.0
 12
2846.046304
 22
-5612.738331
 32
0.0
 13
2846.046304
 23
-5612.738331
 33
0.0
  0
SOLID
  5
2024F
100
AcDbEntity
  8
0
  6
BYBLOCK
100
AcDbTrace
 10
2843.546304
 20
-5633.542274
 30
0.0
 11
2848.546304
 21
-5633.542274
 31
0.0
 12
2846.046304
 22
-5618.542274
 32
0.0
 13
2846.046304
 23
-5618.542274
 33
0.0
  0
POINT
  5
20250
100
AcDbEntity
  8
DEFPOINTS
  6
BYBLOCK
 62
     0
100
AcDbPoint
 10
2721.182687
 20
-5612.738331
 30
0.0
  0
POINT
  5
20251
100
AcDbEntity
  8
DEFPOINTS
  6
BYBLOCK
 62
     0
100
AcDbPoint
 10
2756.472687
 20
-5618.542274
 30
0.0
  0
POINT
  5
20252
100
AcDbEntity
  8
DEFPOINTS
  6
BYBLOCK
 62
     0
100
AcDbPoint
 10
2846.046304
 20
-5618.542274
 30
0.0
  0
ENDBLK
  5
20253
100
AcDbEntity
  8
0
100
AcDbBlockEnd
  0
BLOCK
  5
20005
100
AcDbEntity
  8
0
100
AcDbBlockBegin
  2
*D14
 70
     1
 10
0.0
 20
0.0
 30
0.0
  3
*D14
  1

  0
LINE
  5
20006
100
AcDbEntity
  8
0
  6
BYBLOCK
100
AcDbLine
 10
2710.192687
 20
-5615.542274
 30
0.0
 11
2710.192687
 21
-5569.832513
 31
0.0
  0
LINE
  5
20007
100
AcDbEntity
  8
0
  6
BYBLOCK
100
AcDbLine
 10
2732.172687
 20
-5615.542274
 30
0.0
 11
2732.172687
 21
-5569.832513
 31
0.0
  0
LINE
  5
20008
100
AcDbEntity
  8
0
  6
BYBLOCK
100
AcDbLine
 10
2695.192687
 20
-5575.832513
 30
0.0
 11
2680.192687
 21
-5575.832513
 31
0.0
  0
LINE
  5
20009
100
AcDbEntity
  8
0
  6
BYBLOCK
100
AcDbLine
 10
2747.172687
 20
-5575.832513
 30
0.0
 11
2762.172687
 21
-5575.832513
 31
0.0
  0
LINE
  5
2000A
100
AcDbEntity
  8
0
  6
BYBLOCK
100
AcDbLine
 10
2710.192687
 20
-5575.832513
 30
0.0
 11
2732.172687
 21
-5575.832513
 31
0.0
  0
SOLID
  5
2000B
100
AcDbEntity
  8
0
  6
BYBLOCK
100
AcDbTrace
 10
2695.192687
 20
-5573.332513
 30
0.0
 11
2695.192687
 21
-5578.332513
 31
0.0
 12
2710.192687
 22
-5575.832513
 32
0.0
 13
2710.192687
 23
-5575.832513
 33
0.0
  0
SOLID
  5
2000C
100
AcDbEntity
  8
0
  6
BYBLOCK
100
AcDbTrace
 10
2747.172687
 20
-5573.332513
 30
0.0
 11
2747.172687
 21
-5578.332513
 31
0.0
 12
2732.172687
 22
-5575.832513
 32
0.0
 13
2732.172687
 23
-5575.832513
 33
0.0
  0
MTEXT
  5
2000D
100
AcDbEntity
  8
0
  6
BYBLOCK
 62
     5
100
AcDbMText
 10
2721.182687
 20
-5560.172513
 30
0.0
 40
19.32
 41
0.0
 71
     5
 72
     1
  1
\A1;22
  0
POINT
  5
2000E
100
AcDbEntity
  8
DEFPOINTS
  6
BYBLOCK
 62
     0
100
AcDbPoint
 10
2710.192687
 20
-5618.542274
 30
0.0
  0
POINT
  5
2000F
100
AcDbEntity
  8
DEFPOINTS
  6
BYBLOCK
 62
     0
100
AcDbPoint
 10
2732.172687
 20
-5618.542274
 30
0.0
  0
POINT
  5
20010
100
AcDbEntity
  8
DEFPOINTS
  6
BYBLOCK
 62
     0
100
AcDbPoint
 10
2732.172687
 20
-5575.832513
 30
0.0
  0
ENDBLK
  5
20011
100
AcDbEntity
  8
0
100
AcDbBlockEnd
  0
BLOCK
  5
1FFEF
100
AcDbEntity
  8
0
100
AcDbBlockBegin
  2
*D15
 70
     1
 10
0.0
 20
0.0
 30
0.0
  3
*D15
  1

  0
LINE
  5
1FFF0
100
AcDbEntity
  8
0
  6
BYBLOCK
100
AcDbLine
 10
2971.182687
 20
-5615.738331
 30
0.0
 11
2971.182687
 21
-5684.542274
 31
0.0
  0
LINE
  5
1FFF1
100
AcDbEntity
  8
0
  6
BYBLOCK
100
AcDbLine
 10
3221.182687
 20
-5615.738331
 30
0.0
 11
3221.182687
 21
-5684.542274
 31
0.0
  0
LINE
  5
1FFF2
100
AcDbEntity
  8
0
  6
BYBLOCK
100
AcDbLine
 10
2986.182687
 20
-5678.542274
 30
0.0
 11
3206.182687
 21
-5678.542274
 31
0.0
  0
SOLID
  5
1FFF3
100
AcDbEntity
  8
0
  6
BYBLOCK
100
AcDbTrace
 10
2986.182687
 20
-5676.042274
 30
0.0
 11
2986.182687
 21
-5681.042274
 31
0.0
 12
2971.182687
 22
-5678.542274
 32
0.0
 13
2971.182687
 23
-5678.542274
 33
0.0
  0
SOLID
  5
1FFF4
100
AcDbEntity
  8
0
  6
BYBLOCK
100
AcDbTrace
 10
3206.182687
 20
-5676.042274
 30
0.0
 11
3206.182687
 21
-5681.042274
 31
0.0
 12
3221.182687
 22
-5678.542274
 32
0.0
 13
3221.182687
 23
-5678.542274
 33
0.0
  0
MTEXT
  5
1FFF5
100
AcDbEntity
  8
0
  6
BYBLOCK
 62
     5
100
AcDbMText
 10
3096.182687
 20
-5662.882274
 30
0.0
 40
19.32
 41
0.0
 71
     5
 72
     1
  1
\A1;250
  0
POINT
  5
1FFF6
100
AcDbEntity
  8
DEFPOINTS
  6
BYBLOCK
 62
     0
100
AcDbPoint
 10
2971.182687
 20
-5612.738331
 30
0.0
  0
POINT
  5
1FFF7
100
AcDbEntity
  8
DEFPOINTS
  6
BYBLOCK
 62
     0
100
AcDbPoint
 10
3221.182687
 20
-5612.738331
 30
0.0
  0
POINT
  5
1FFF8
100
AcDbEntity
  8
DEFPOINTS
  6
BYBLOCK
 62
     0
100
AcDbPoint
 10
3221.182687
 20
-5678.542274
 30
0.0
  0
ENDBLK
  5
1FFF9
100
AcDbEntity
  8
0
100
AcDbBlockEnd
  0
BLOCK
  5
1FFFA
100
AcDbEntity
  8
0
100
AcDbBlockBegin
  2
*D16
 70
     1
 10
0.0
 20
0.0
 30
0.0
  3
*D16
  1

  0
LINE
  5
1FFFB
100
AcDbEntity
  8
0
  6
BYBLOCK
100
AcDbLine
 10
3346.182687
 20
-5520.586218
 30
0.0
 11
3346.182687
 21
-5744.542274
 31
0.0
  0
LINE
  5
1FFFC
100
AcDbEntity
  8
0
  6
BYBLOCK
100
AcDbLine
 10
2596.182687
 20
-5520.586218
 30
0.0
 11
2596.182687
 21
-5744.542274
 31
0.0
  0
LINE
  5
1FFFD
100
AcDbEntity
  8
0
  6
BYBLOCK
100
AcDbLine
 10
3331.182687
 20
-5738.542274
 30
0.0
 11
2611.182687
 21
-5738.542274
 31
0.0
  0
SOLID
  5
1FFFE
100
AcDbEntity
  8
0
  6
BYBLOCK
100
AcDbTrace
 10
3331.182687
 20
-5736.042274
 30
0.0
 11
3331.182687
 21
-5741.042274
 31
0.0
 12
3346.182687
 22
-5738.542274
 32
0.0
 13
3346.182687
 23
-5738.542274
 33
0.0
  0
SOLID
  5
1FFFF
100
AcDbEntity
  8
0
  6
BYBLOCK
100
AcDbTrace
 10
2611.182687
 20
-5736.042274
 30
0.0
 11
2611.182687
 21
-5741.042274
 31
0.0
 12
2596.182687
 22
-5738.542274
 32
0.0
 13
2596.182687
 23
-5738.542274
 33
0.0
  0
MTEXT
  5
20000
100
AcDbEntity
  8
0
  6
BYBLOCK
 62
     5
100
AcDbMText
 10
2971.182687
 20
-5722.882274
 30
0.0
 40
19.32
 41
0.0
 71
     5
 72
     1
  1
\A1;750
  0
POINT
  5
20001
100
AcDbEntity
  8
DEFPOINTS
  6
BYBLOCK
 62
     0
100
AcDbPoint
 10
3346.182687
 20
-5517.586218
 30
0.0
  0
POINT
  5
20002
100
AcDbEntity
  8
DEFPOINTS
  6
BYBLOCK
 62
     0
100
AcDbPoint
 10
2596.182687
 20
-5517.586218
 30
0.0
  0
POINT
  5
20003
100
AcDbEntity
  8
DEFPOINTS
  6
BYBLOCK
 62
     0
100
AcDbPoint
 10
2596.182687
 20
-5738.542274
 30
0.0
  0
ENDBLK
  5
20004
100
AcDbEntity
  8
0
100
AcDbBlockEnd
  0
BLOCK
  5
2002A
100
AcDbEntity
  8
0
100
AcDbBlockBegin
  2
*D17
 70
     1
 10
0.0
 20
0.0
 30
0.0
  3
*D17
  1

  0
LINE
  5
2002B
100
AcDbEntity
  8
0
  6
BYBLOCK
100
AcDbLine
 10
3312.02731
 20
-5509.005112
 30
0.0
 11
3328.548006
 21
-5468.568197
 31
0.0
  0
LINE
  5
2002C
100
AcDbEntity
  8
0
  6
BYBLOCK
100
AcDbLine
 10
3307.39858
 20
-5507.114022
 30
0.0
 11
3323.919276
 21
-5466.677108
 31
0.0
  0
LINE
  5
2002D
100
AcDbEntity
  8
0
  6
BYBLOCK
100
AcDbLine
 10
3340.164572
 20
-5479.795637
 30
0.0
 11
3354.050383
 21
-5485.468753
 31
0.0
  0
LINE
  5
2002E
100
AcDbEntity
  8
0
  6
BYBLOCK
100
AcDbLine
 10
3307.764219
 20
-5466.558317
 30
0.0
 11
3293.878407
 21
-5460.885202
 31
0.0
  0
LINE
  5
2002F
100
AcDbEntity
  8
0
  6
BYBLOCK
100
AcDbLine
 10
3326.27876
 20
-5474.122522
 30
0.0
 11
3321.65003
 21
-5472.231432
 31
0.0
  0
SOLID
  5
20030
100
AcDbEntity
  8
0
  6
BYBLOCK
100
AcDbTrace
 10
3341.110091
 20
-5477.481335
 30
0.0
 11
3339.219053
 21
-5482.109939
 31
0.0
 12
3326.27876
 22
-5474.122522
 32
0.0
 13
3326.27876
 23
-5474.122522
 33
0.0
  0
SOLID
  5
20031
100
AcDbEntity
  8
0
  6
BYBLOCK
100
AcDbTrace
 10
3308.709738
 20
-5464.244015
 30
0.0
 11
3306.818699
 21
-5468.872619
 31
0.0
 12
3321.65003
 22
-5472.231432
 32
0.0
 13
3321.65003
 23
-5472.231432
 33
0.0
  0
MTEXT
  5
20032
100
AcDbEntity
  8
0
  6
BYBLOCK
 62
     5
100
AcDbMText
 10
3329.887127
 20
-5458.68019
 30
0.0
 40
19.32
 41
0.0
 71
     5
 72
     1
  1
\A1;2x5
 11
0.925721
 21
-0.378208
 31
0.0
  0
POINT
  5
20033
100
AcDbEntity
  8
DEFPOINTS
  6
BYBLOCK
 62
     0
100
AcDbPoint
 10
3310.892687
 20
-5511.782274
 30
0.0
  0
POINT
  5
20034
100
AcDbEntity
  8
DEFPOINTS
  6
BYBLOCK
 62
     0
100
AcDbPoint
 10
3306.263957
 20
-5509.891184
 30
0.0
  0
POINT
  5
20035
100
AcDbEntity
  8
DEFPOINTS
  6
BYBLOCK
 62
     0
100
AcDbPoint
 10
3321.65003
 20
-5472.231432
 30
0.0
  0
ENDBLK
  5
20036
100
AcDbEntity
  8
0
100
AcDbBlockEnd
  0
BLOCK
  5
2001F
100
AcDbEntity
  8
0
100
AcDbBlockBegin
  2
*D18
 70
     1
 10
0.0
 20
0.0
 30
0.0
  3
*D18
  1

  0
LINE
  5
20020
100
AcDbEntity
  8
0
  6
BYBLOCK
100
AcDbLine
 10
3265.614985
 20
-5596.165112
 30
0.0
 11
3319.290546
 21
-5464.786018
 31
0.0
  0
LINE
  5
20021
100
AcDbEntity
  8
0
  6
BYBLOCK
100
AcDbLine
 10
3335.535842
 20
-5477.904547
 30
0.0
 11
3349.421653
 21
-5483.577663
 31
0.0
  0
LINE
  5
20022
100
AcDbEntity
  8
0
  6
BYBLOCK
100
AcDbLine
 10
3303.135489
 20
-5464.667227
 30
0.0
 11
3289.249677
 21
-5458.994112
 31
0.0
  0
LINE
  5
20023
100
AcDbEntity
  8
0
  6
BYBLOCK
100
AcDbLine
 10
3321.65003
 20
-5472.231432
 30
0.0
 11
3317.0213
 21
-5470.340342
 31
0.0
  0
SOLID
  5
20024
100
AcDbEntity
  8
0
  6
BYBLOCK
100
AcDbTrace
 10
3336.481361
 20
-5475.590245
 30
0.0
 11
3334.590323
 21
-5480.218849
 31
0.0
 12
3321.65003
 22
-5472.231432
 32
0.0
 13
3321.65003
 23
-5472.231432
 33
0.0
  0
SOLID
  5
20025
100
AcDbEntity
  8
0
  6
BYBLOCK
100
AcDbTrace
 10
3304.081008
 20
-5462.352925
 30
0.0
 11
3302.189969
 21
-5466.981529
 31
0.0
 12
3317.0213
 22
-5470.340342
 32
0.0
 13
3317.0213
 23
-5470.340342
 33
0.0
  0
POINT
  5
20026
100
AcDbEntity
  8
DEFPOINTS
  6
BYBLOCK
 62
     0
100
AcDbPoint
 10
3306.263957
 20
-5509.891184
 30
0.0
  0
POINT
  5
20027
100
AcDbEntity
  8
DEFPOINTS
  6
BYBLOCK
 62
     0
100
AcDbPoint
 10
3264.480361
 20
-5598.942274
 30
0.0
  0
POINT
  5
20028
100
AcDbEntity
  8
DEFPOINTS
  6
BYBLOCK
 62
     0
100
AcDbPoint
 10
3317.0213
 20
-5470.340342
 30
0.0
  0
ENDBLK
  5
20029
100
AcDbEntity
  8
0
100
AcDbBlockEnd
  0
BLOCK
  5
201C4
100
AcDbEntity
  8
0
100
AcDbBlockBegin
  2
*D19
 70
     1
 10
0.0
 20
0.0
 30
0.0
  3
*D19
  1

  0
LINE
  5
201C5
100
AcDbEntity
  8
0
  6
BYBLOCK
100
AcDbLine
 10
3009.472687
 20
-5618.542274
 30
0.0
 11
3063.674973
 21
-5618.542274
 31
0.0
  0
LINE
  5
201C6
100
AcDbEntity
  8
0
  6
BYBLOCK
100
AcDbLine
 10
3015.175943
 20
-5597.239734
 30
0.0
 11
3028.107031
 21
-5565.58893
 31
0.0
  0
ARC
  5
201C7
100
AcDbEntity
  8
0
  6
BYBLOCK
100
AcDbCircle
 10
3006.472687
 20
-5618.542274
 30
0.0
 40
51.202286
100
AcDbArc
 50
16.845734
 51
50.93156
  0
SOLID
  5
201C8
100
AcDbEntity
  8
0
  6
BYBLOCK
100
AcDbTrace
 10
3057.95084
 20
-5603.33787
 30
0.0
 11
3053.00477
 21
-5604.07026
 31
0.0
 12
3057.674973
 22
-5618.542274
 32
0.0
 13
3057.674973
 23
-5618.542274
 33
0.0
  0
SOLID
  5
201C9
100
AcDbEntity
  8
0
  6
BYBLOCK
100
AcDbTrace
 10
3037.468523
 20
-5580.939985
 30
0.0
 11
3040.017153
 21
-5576.638301
 31
0.0
 12
3025.837785
 22
-5571.143255
 32
0.0
 13
3025.837785
 23
-5571.143255
 33
0.0
  0
MTEXT
  5
201CA
100
AcDbEntity
  8
0
  6
BYBLOCK
 62
     5
100
AcDbMText
 10
3074.002645
 20
-5594.560584
 30
0.0
 40
19.32
 41
0.0
 71
     5
 72
     1
  1
\A1;67,78°
 11
0.334651
 21
-0.942342
 31
0.0
  0
POINT
  5
201CB
100
AcDbEntity
  8
DEFPOINTS
  6
BYBLOCK
 62
     0
100
AcDbPoint
 10
3042.561167
 20
-5582.220164
 30
0.0
  0
POINT
  5
201CC
100
AcDbEntity
  8
DEFPOINTS
  6
BYBLOCK
 62
     0
100
AcDbPoint
 10
2983.567134
 20
-5618.542274
 30
0.0
  0
POINT
  5
201CD
100
AcDbEntity
  8
DEFPOINTS
  6
BYBLOCK
 62
     0
100
AcDbPoint
 10
3007.742868
 20
-5615.433313
 30
0.0
  0
POINT
  5
201CE
100
AcDbEntity
  8
DEFPOINTS
  6
BYBLOCK
 62
     0
100
AcDbPoint
 10
3014.04132
 20
-5600.016896
 30
0.0
  0
POINT
  5
201CF
100
AcDbEntity
  8
DEFPOINTS
  6
BYBLOCK
 62
     0
100
AcDbPoint
 10
3003.114265
 20
-5618.542274
 30
0.0
  0
ENDBLK
  5
201D0
100
AcDbEntity
  8
0
100
AcDbBlockEnd
  0
BLOCK
  5
201B8
100
AcDbEntity
  8
0
100
AcDbBlockBegin
  2
*D20
 70
     1
 10
0.0
 20
0.0
 30
0.0
  3
*D20
  1

  0
LINE
  5
201B9
100
AcDbEntity
  8
0
  6
BYBLOCK
100
AcDbLine
 10
3274.336761
 20
-5590.180356
 30
0.0
 11
3308.631358
 21
-5559.693923
 31
0.0
  0
ARC
  5
201BA
100
AcDbEntity
  8
0
  6
BYBLOCK
100
AcDbCircle
 10
3265.347961
 20
-5598.171015
 30
0.0
 40
51.913202
100
AcDbArc
 50
16.613401
 51
25.022328
  0
SOLID
  5
201BB
100
AcDbEntity
  8
0
  6
BYBLOCK
100
AcDbTrace
 10
3317.567857
 20
-5582.967202
 30
0.0
 11
3312.620313
 21
-5583.689561
 31
0.0
 12
3317.261164
 22
-5598.171015
 32
0.0
 13
3317.261164
 23
-5598.171015
 33
0.0
  0
SOLID
  5
201BC
100
AcDbEntity
  8
0
  6
BYBLOCK
100
AcDbTrace
 10
3310.299925
 20
-5577.58683
 30
0.0
 11
3314.47757
 21
-5574.839599
 31
0.0
 12
3304.147055
 22
-5563.680278
 32
0.0
 13
3304.147055
 23
-5563.680278
 33
0.0
  0
MTEXT
  5
201BD
100
AcDbEntity
  8
0
  6
BYBLOCK
 62
     5
100
AcDbMText
 10
3327.425372
 20
-5574.567868
 30
0.0
 40
19.32
 41
0.0
 71
     5
 72
     1
  1
\A1;41,64°
 11
0.355398
 21
-0.934715
 31
0.0
  0
POINT
  5
201BE
100
AcDbEntity
  8
DEFPOINTS
  6
BYBLOCK
 62
     0
100
AcDbPoint
 10
3315.745622
 20
-5585.718852
 30
0.0
  0
POINT
  5
201BF
100
AcDbEntity
  8
DEFPOINTS
  6
BYBLOCK
 62
     0
100
AcDbPoint
 10
3265.347961
 20
-5598.171015
 30
0.0
  0
POINT
  5
201C0
100
AcDbEntity
  8
DEFPOINTS
  6
BYBLOCK
 62
     0
100
AcDbPoint
 10
3265.347961
 20
-5598.171015
 30
0.0
  0
POINT
  5
201C1
100
AcDbEntity
  8
DEFPOINTS
  6
BYBLOCK
 62
     0
100
AcDbPoint
 10
3320.607667
 20
-5598.171015
 30
0.0
  0
POINT
  5
201C2
100
AcDbEntity
  8
DEFPOINTS
  6
BYBLOCK
 62
     0
100
AcDbPoint
 10
3272.094609
 20
-5592.173533
 30
0.0
  0
ENDBLK
  5
201C3
100
AcDbEntity
  8
0
100
AcDbBlockEnd
  0
ENDSEC
  0
SECTION
  2
ENTITIES
  0
MTEXT
  5
47D
100
AcDbEntity
  8
KOTY-UPLNE
 62
     5
100
AcDbMText
 10
589.737581
 20
77.162135
 30
0.0
 40
20.0
 41
0.0
 71
     6
 72
     1
  1
\A1;
  0
MTEXT
  5
481
100
AcDbEntity
  8
KOTY-UPLNE
 62
     5
100
AcDbMText
 10
-187.420788
 20
169.867801
 30
0.0
 40
20.0
 41
0.0
 71
     4
 72
     1
  1
\A1;
  0
MTEXT
  5
4D6
100
AcDbEntity
  8
KOTY-UPLNE
 62
     5
100
AcDbMText
 10
-154.184875
 20
435.233492
 30
0.0
 40
20.0
 41
0.0
 71
     6
 72
     1
  1
\A1;
  0
MTEXT
  5
4DA
100
AcDbEntity
  8
KOTY-UPLNE
 62
     5
100
AcDbMText
 10
-180.457597
 20
911.047816
 30
0.0
 40
20.0
 41
0.0
 71
     4
 72
     1
  1
\A1;
  0
MTEXT
  5
5E9
100
AcDbEntity
  8
KOTY-UPLNE
 62
     5
100
AcDbMText
 10
-160.739406
 20
-291.117398
 30
0.0
 40
20.0
 41
0.0
 71
     6
 72
     1
  1
\A1;
  0
MTEXT
  5
670
100
AcDbEntity
  8
KOTY-UPLNE
 62
     5
100
AcDbMText
 10
-121.714293
 20
-653.327907
 30
0.0
 40
20.0
 41
0.0
 71
     6
 72
     1
  1
\A1;
  0
MTEXT
  5
2024
100
AcDbEntity
  8
KOTY-UPLNE
 62
     5
100
AcDbMText
 10
1959.410083
 20
4592.376925
 30
0.0
 40
20.0
 41
0.0
 71
     6
 72
     1
  1
\A1;
  0
MTEXT
  5
2025
100
AcDbEntity
  8
KOTY-UPLNE
 62
     5
100
AcDbMText
 10
1182.251713
 20
4685.082591
 30
0.0
 40
20.0
 41
0.0
 71
     4
 72
     1
  1
\A1;
  0
MTEXT
  5
2026
100
AcDbEntity
  8
KOTY-UPLNE
 62
     5
100
AcDbMText
 10
1215.487627
 20
4950.448283
 30
0.0
 40
20.0
 41
0.0
 71
     6
 72
     1
  1
\A1;
  0
MTEXT
  5
2027
100
AcDbEntity
  8
KOTY-UPLNE
 62
     5
100
AcDbMText
 10
1189.214905
 20
5426.262606
 30
0.0
 40
20.0
 41
0.0
 71
     4
 72
     1
  1
\A1;
  0
MTEXT
  5
2028
100
AcDbEntity
  8
KOTY-UPLNE
 62
     5
100
AcDbMText
 10
1208.933096
 20
4224.097392
 30
0.0
 40
20.0
 41
0.0
 71
     6
 72
     1
  1
\A1;
  0
MTEXT
  5
2029
100
AcDbEntity
  8
KOTY-UPLNE
 62
     5
100
AcDbMText
 10
1247.958208
 20
3861.886883
 30
0.0
 40
20.0
 41
0.0
 71
     6
 72
     1
  1
\A1;
  0
MTEXT
  5
20DD
100
AcDbEntity
  8
KOTY-UPLNE
100
AcDbMText
 10
1734.270325
 20
1594.546611
 30
0.0
 40
20.0
 41
0.0
 71
     6
 72
     1
  1
\A1;
  0
MTEXT
  5
2D26
100
AcDbEntity
  8
KOTY-UPLNE
100
AcDbMText
 10
1776.786748
 20
-2164.176574
 30
0.0
 40
20.0
 41
0.0
 71
     4
 72
     1
  1
\A1;
  0
MTEXT
  5
2D28
100
AcDbEntity
  8
KOTY-UPLNE
100
AcDbMText
 10
1699.837834
 20
-2314.499241
 30
0.0
 40
20.0
 41
0.0
 71
     6
 72
     1
  1
\A1;
  0
MTEXT
  5
2D29
100
AcDbEntity
  8
KOTY-UPLNE
100
AcDbMText
 10
1696.489183
 20
-3258.171457
 30
0.0
 40
20.0
 41
0.0
 71
     4
 72
     1
  1
\A1;
  0
MTEXT
  5
2D2B
100
AcDbEntity
  8
KOTY-UPLNE
100
AcDbMText
 10
1645.505508
 20
-3258.171457
 30
0.0
 40
20.0
 41
0.0
 71
     6
 72
     1
  1
\A1;
  0
MTEXT
  5
2D2D
100
AcDbEntity
  8
KOTY-UPLNE
100
AcDbMText
 10
1741.50656
 20
-3132.763287
 30
0.0
 40
20.0
 41
0.0
 71
     4
 72
     1
  1
\A1;
  0
TEXT
  5
1FE08
100
AcDbEntity
  8
KOTY-UPLNE
 62
     5
100
AcDbText
 10
2936.51882
 20
-5453.558668
 30
0.0
 40
16.5
  1
všechna zaoblení R=5
 41
0.9
100
AcDbText
  0
MTEXT
  5
1FE0D
100
AcDbEntity
  8
POPIS
100
AcDbMText
 10
3105.058131
 20
-5404.781377
 30
0.0
 40
40.0
 41
0.9
 71
     5
 72
     1
  1
TR 107/250
  7
STYLE1
1001
ACAD
1000
MTEXTBEGIN
1070
    73
1070
     1
1070
    44
1040
1.0
1070
    74
1070
     0
1000
MTEXTEND
  0
LWPOLYLINE
  5
1FE0E
100
AcDbEntity
  8
RAMEC
100
AcDbPolyline
 90
        4
 70
     1
 43
0.0
 10
2443.32739
 20
-5362.657346
 10
2443.32739
 20
-5787.658579
 10
3792.999892
 20
-5787.658579
 10
3792.999892
 20
-5362.657346
  0
MTEXT
  5
1FE79
100
AcDbEntity
  8
POZICE
100
AcDbMText
 10
3090.359144
 20
-5545.308863
 30
0.0
 40
30.0
 41
0.0
 71
     5
 72
     1
  1
B
1001
ACAD
1000
MTEXTBEGIN
1070
    73
1070
     1
1070
    44
1040
1.0
1070
    74
1070
     0
1000
MTEXTEND
  0
MTEXT
  5
1FE7A
100
AcDbEntity
  8
POZICE
100
AcDbMText
 10
3090.374325
 20
-5478.869339
 30
0.0
 40
30.0
 41
0.0
 71
     5
 72
     1
  1
A
1001
ACAD
1000
MTEXTBEGIN
1070
    73
1070
     1
1070
    44
1040
1.0
1070
    74
1070
     0
1000
MTEXTEND
  0
DIMENSION
  5
1FEF2
100
AcDbEntity
  8
KOTY-UPLNE
100
AcDbDimension
  2
*D1
 10
3486.103389
 20
-5598.942274
 30
0.0
 11
3470.443389
 21
-5651.469842
 31
0.0
 70
   160
  1
19,6
  3
UPLNE
100
AcDbAlignedDimension
 13
3256.472687
 23
-5618.542274
 33
0.0
 14
3264.480361
 24
-5598.942274
 34
0.0
 50
90.0
100
AcDbRotatedDimension
1001
ACAD
1000
DSTYLE
1002
{
1070
    40
1040
3.0
1070
    45
1040
0.1
1070
   147
1040
2.0
1070
   271
1070
     1
1002
}
  0
DIMENSION
  5
1FF00
100
AcDbEntity
  8
KOTY-UPLNE
100
AcDbDimension
  2
*D2
 10
3486.103389
 20
-5591.402274
 30
0.0
 11
3507.05971
 21
-5595.172274
 31
0.0
 70
   160
  1
7,5
  3
UPLNE
100
AcDbAlignedDimension
 13
3264.480361
 23
-5598.942274
 33
0.0
 14
3272.962209
 24
-5591.402274
 34
0.0
 50
90.0
100
AcDbRotatedDimension
1001
ACAD
1000
DSTYLE
1002
{
1070
    75
1070
     1
1070
    40
1040
3.0
1070
    45
1040
0.1
1070
   147
1040
2.0
1070
   271
1070
     1
1002
}
  0
DIMENSION
  5
1FF0E
100
AcDbEntity
  8
KOTY-UPLNE
100
AcDbDimension
  2
*D3
 10
3486.103389
 20
-5538.922274
 30
0.0
 11
3468.603389
 21
-5565.162274
 31
0.0
 70
    32
  1
52,5
  3
UPLNE
100
AcDbAlignedDimension
 13
3272.962209
 23
-5591.402274
 33
0.0
 14
3294.403165
 24
-5538.922274
 34
0.0
 50
90.0
100
AcDbRotatedDimension
1001
ACAD
1000
DSTYLE
1002
{
1070
    75
1070
     1
1070
    40
1040
3.0
1070
    45
1040
0.1
1070
   147
1040
2.0
1070
   271
1070
     1
1002
}
  0
DIMENSION
  5
1FF1C
100
AcDbEntity
  8
KOTY-UPLNE
100
AcDbDimension
  2
*D4
 10
3486.103389
 20
-5531.382274
 30
0.0
 11
3507.496076
 21
-5535.152274
 31
0.0
 70
   160
  1
7,5
  3
UPLNE
100
AcDbAlignedDimension
 13
3294.403165
 23
-5538.922274
 33
0.0
 14
3302.885013
 24
-5531.382274
 34
0.0
 50
90.0
100
AcDbRotatedDimension
1001
ACAD
1000
DSTYLE
1002
{
1070
    75
1070
     1
1070
    40
1040
3.0
1070
    45
1040
0.1
1070
   147
1040
2.0
1070
   271
1070
     1
1002
}
  0
DIMENSION
  5
1FF2A
100
AcDbEntity
  8
KOTY-UPLNE
100
AcDbDimension
  2
*D5
 10
3486.103389
 20
-5511.782274
 30
0.0
 11
3470.443389
 21
-5485.42089
 31
0.0
 70
   160
  1
19,6
  3
UPLNE
100
AcDbAlignedDimension
 13
3302.885013
 23
-5531.382274
 33
0.0
 14
3381.472687
 24
-5511.782274
 34
0.0
 50
90.0
100
AcDbRotatedDimension
1001
ACAD
1000
DSTYLE
1002
{
1070
    75
1070
     1
1070
    40
1040
3.0
1070
    45
1040
0.1
1070
   147
1040
2.0
1070
   271
1070
     1
1002
}
  0
DIMENSION
  5
1FF37
100
AcDbEntity
  8
KOTY-UPLNE
100
AcDbDimension
  2
*D6
 10
3569.227403
 20
-5618.542274
 30
0.0
 11
3551.727403
 21
-5565.162274
 31
0.0
 70
    32
  1
106,8
  3
UPLNE
100
AcDbAlignedDimension
 13
3381.472687
 23
-5511.782274
 33
0.0
 14
3256.472687
 24
-5618.542274
 34
0.0
 50
90.0
100
AcDbRotatedDimension
1001
ACAD
1000
DSTYLE
1002
{
1070
    40
1040
3.0
1070
    45
1040
0.1
1070
   147
1040
2.0
1070
   271
1070
     1
1002
}
  0
DIMENSION
  5
1FF46
100
AcDbEntity
  8
KOTY-UPLNE
100
AcDbDimension
  2
*D7
 10
2685.892687
 20
-5678.542274
 30
0.0
 11
2658.682687
 21
-5661.042274
 31
0.0
 70
    32
  1
54,4
  3
UPLNE
100
AcDbAlignedDimension
 13
2631.472687
 23
-5511.782274
 33
0.0
 14
2685.892687
 24
-5618.542274
 34
0.0
100
AcDbRotatedDimension
1001
ACAD
1000
DSTYLE
1002
{
1070
    40
1040
3.0
1070
    45
1040
0.1
1070
   147
1040
2.0
1070
   271
1070
     1
1002
}
  0
DIMENSION
  5
1FF52
100
AcDbEntity
  8
KOTY-UPLNE
100
AcDbDimension
  2
*D8
 10
2756.472687
 20
-5678.542274
 30
0.0
 11
2721.182687
 21
-5661.042274
 31
0.0
 70
    32
  1
70,6
  3
UPLNE
100
AcDbAlignedDimension
 13
2685.892687
 23
-5618.542274
 33
0.0
 14
2756.472687
 24
-5618.542274
 34
0.0
100
AcDbRotatedDimension
1001
ACAD
1000
DSTYLE
1002
{
1070
    75
1070
     1
1070
    40
1040
3.0
1070
    45
1040
0.1
1070
   147
1040
2.0
1070
   271
1070
     1
1002
}
  0
DIMENSION
  5
1FF60
100
AcDbEntity
  8
KOTY-UPLNE
100
AcDbDimension
  2
*D9
 10
2810.892687
 20
-5678.542274
 30
0.0
 11
2783.682687
 21
-5661.042274
 31
0.0
 70
    32
  1
54,4
  3
UPLNE
100
AcDbAlignedDimension
 13
2756.472687
 23
-5618.542274
 33
0.0
 14
2810.892687
 24
-5511.782274
 34
0.0
100
AcDbRotatedDimension
1001
ACAD
1000
DSTYLE
1002
{
1070
    75
1070
     1
1070
    40
1040
3.0
1070
    45
1040
0.1
1070
   147
1040
2.0
1070
   271
1070
     1
1002
}
  0
DIMENSION
  5
1FF6D
100
AcDbEntity
  8
KOTY-UPLNE
100
AcDbDimension
  2
*D10
 10
2881.472687
 20
-5461.782274
 30
0.0
 11
2846.182687
 21
-5444.282274
 31
0.0
 70
    32
  1
70,6
  3
UPLNE
100
AcDbAlignedDimension
 13
2810.892687
 23
-5511.782274
 33
0.0
 14
2881.472687
 24
-5511.782274
 34
0.0
100
AcDbRotatedDimension
1001
ACAD
1000
DSTYLE
1002
{
1070
    40
1040
3.0
1070
    45
1040
0.1
1070
   147
1040
2.0
1070
   271
1070
     1
1002
}
  0
DIMENSION
  5
1FF7C
100
AcDbEntity
  8
KOTY-UPLNE
100
AcDbDimension
  2
*D11
 10
2942.905639
 20
-5511.782274
 30
0.0
 11
2925.405639
 21
-5488.202896
 31
0.0
 70
   160
  1
5,8
  3
UPLNE
100
AcDbAlignedDimension
 13
2846.182687
 23
-5517.586218
 33
0.0
 14
2881.472687
 24
-5511.782274
 34
0.0
 50
90.0
100
AcDbRotatedDimension
1001
ACAD
1000
DSTYLE
1002
{
1070
    40
1040
3.0
1070
    45
1040
0.1
1070
   147
1040
2.0
1070
   271
1070
     1
1002
}
  0
DIMENSION
  5
1FF8B
100
AcDbEntity
  8
KOTY-UPLNE
100
AcDbDimension
  2
*D12
 10
2857.172687
 20
-5575.832513
 30
0.0
 11
2846.182687
 21
-5560.172513
 31
0.0
 70
    32
  3
UPLNE
100
AcDbAlignedDimension
 13
2835.192687
 23
-5511.782274
 33
0.0
 14
2857.172687
 24
-5511.782274
 34
0.0
100
AcDbRotatedDimension
1001
ACAD
1000
DSTYLE
1002
{
1070
    40
1040
3.0
1070
    45
1040
0.1
1070
   147
1040
2.0
1002
}
  0
DIMENSION
  5
1FF9A
100
AcDbEntity
  8
KOTY-UPLNE
100
AcDbDimension
  2
*D13
 10
2846.046304
 20
-5618.542274
 30
0.0
 11
2828.546304
 21
-5641.303887
 31
0.0
 70
   160
  1
5,8
  3
UPLNE
100
AcDbAlignedDimension
 13
2721.182687
 23
-5612.738331
 33
0.0
 14
2756.472687
 24
-5618.542274
 34
0.0
 50
90.0
100
AcDbRotatedDimension
1001
ACAD
1000
DSTYLE
1002
{
1070
    40
1040
3.0
1070
    45
1040
0.1
1070
   147
1040
2.0
1070
   271
1070
     1
1002
}
  0
DIMENSION
  5
1FFA9
100
AcDbEntity
  8
KOTY-UPLNE
100
AcDbDimension
  2
*D14
 10
2732.172687
 20
-5575.832513
 30
0.0
 11
2721.182687
 21
-5560.172513
 31
0.0
 70
    32
  3
UPLNE
100
AcDbAlignedDimension
 13
2710.192687
 23
-5618.542274
 33
0.0
 14
2732.172687
 24
-5618.542274
 34
0.0
100
AcDbRotatedDimension
1001
ACAD
1000
DSTYLE
1002
{
1070
    40
1040
3.0
1070
    45
1040
0.1
1070
   147
1040
2.0
1002
}
  0
DIMENSION
  5
1FFB6
100
AcDbEntity
  8
KOTY-UPLNE
100
AcDbDimension
  2
*D15
 10
3221.182687
 20
-5678.542274
 30
0.0
 11
3096.182687
 21
-5662.882274
 31
0.0
 70
    32
  3
UPLNE
100
AcDbAlignedDimension
 13
2971.182687
 23
-5612.738331
 33
0.0
 14
3221.182687
 24
-5612.738331
 34
0.0
100
AcDbRotatedDimension
1001
ACAD
1000
DSTYLE
1002
{
1070
    40
1040
3.0
1070
    45
1040
0.1
1070
   147
1040
2.0
1002
}
  0
DIMENSION
  5
1FFC3
100
AcDbEntity
  8
KOTY-UPLNE
100
AcDbDimension
  2
*D16
 10
2596.182687
 20
-5738.542274
 30
0.0
 11
2971.182687
 21
-5722.882274
 31
0.0
 70
    32
  3
UPLNE
100
AcDbAlignedDimension
 13
3346.182687
 23
-5517.586218
 33
0.0
 14
2596.182687
 24
-5517.586218
 34
0.0
100
AcDbRotatedDimension
1001
ACAD
1000
DSTYLE
1002
{
1070
    40
1040
3.0
1070
    45
1040
0.1
1070
   147
1040
2.0
1002
}
  0
DIMENSION
  5
1FFD2
100
AcDbEntity
  8
KOTY-UPLNE
100
AcDbDimension
  2
*D17
 10
3321.65003
 20
-5472.231432
 30
0.0
 11
3329.887127
 21
-5458.68019
 31
0.0
 70
    33
  1
2x5
  3
UPLNE
100
AcDbAlignedDimension
 13
3310.892687
 23
-5511.782274
 33
0.0
 14
3306.263957
 24
-5509.891184
 34
0.0
1001
ACAD
1000
DSTYLE
1002
{
1070
    40
1040
3.0
1070
    45
1040
0.1
1070
   147
1040
2.0
1070
   271
1070
     1
1002
}
  0
DIMENSION
  5
1FFEE
100
AcDbEntity
  8
KOTY-UPLNE
100
AcDbDimension
  2
*D18
 10
3317.0213
 20
-5470.340342
 30
0.0
 11
3319.335665
 21
-5471.285887
 31
0.0
 70
    32
  1
 
  3
UPLNE
100
AcDbAlignedDimension
 13
3306.263957
 23
-5509.891184
 33
0.0
 14
3264.480361
 24
-5598.942274
 34
0.0
 50
337.777294
100
AcDbRotatedDimension
1001
ACAD
1000
DSTYLE
1002
{
1070
    75
1070
     1
1070
    40
1040
3.0
1070
    45
1040
0.1
1070
   147
1040
2.0
1070
   271
1070
     1
1002
}
  0
LWPOLYLINE
  5
200BA
100
AcDbEntity
  8
TRAPEZ-VELKY
100
AcDbPolyline
 90
      120
 70
     0
 43
5.0
 10
2562.353617
 20
-5522.892338
 10
2565.622506
 20
-5514.891236
 42
-0.304668
 10
2570.25111
 20
-5511.782274
 10
2583.798241
 20
-5511.782274
 42
-0.136834
 10
2586.38587
 20
-5512.503936
 10
2593.595058
 20
-5516.864206
 42
0.278889
 10
2598.770317
 20
-5516.864206
 10
2605.979505
 20
-5512.503936
 42
-0.136834
 10
2608.567134
 20
-5511.782274
 10
2628.114265
 20
-5511.782274
 42
-0.304668
 10
2632.742869
 20
-5514.891236
 10
2639.04132
 20
-5530.307652
 42
0.114561
 10
2640.347962
 20
-5532.153533
 10
2647.094609
 20
-5538.151015
 42
-0.114561
 10
2648.401251
 20
-5539.996896
 10
2668.964124
 20
-5590.327652
 42
0.114561
 10
2670.270766
 20
-5592.173533
 10
2677.017413
 20
-5598.171015
 42
-0.114561
 10
2678.324055
 20
-5600.016896
 10
2684.622506
 20
-5615.433313
 42
0.304668
 10
2689.25111
 20
-5618.542274
 10
2708.798241
 20
-5618.542274
 42
0.136834
 10
2711.38587
 20
-5617.820612
 10
2718.595058
 20
-5613.460342
 42
-0.278889
 10
2723.770317
 20
-5613.460342
 10
2730.979505
 20
-5617.820612
 42
0.136834
 10
2733.567134
 20
-5618.542274
 10
2753.114265
 20
-5618.542274
 42
0.304668
 10
2757.742868
 20
-5615.433313
 10
2764.04132
 20
-5600.016896
 42
-0.114561
 10
2765.347962
 20
-5598.171015
 10
2772.094609
 20
-5592.173533
 42
0.114561
 10
2773.401251
 20
-5590.327652
 10
2793.964124
 20
-5539.996896
 42
-0.114561
 10
2795.270765
 20
-5538.151015
 10
2802.017413
 20
-5532.153533
 42
0.114561
 10
2803.324055
 20
-5530.307652
 10
2809.622506
 20
-5514.891236
 42
-0.304668
 10
2814.25111
 20
-5511.782274
 10
2833.798241
 20
-5511.782274
 42
-0.136834
 10
2836.38587
 20
-5512.503936
 10
2843.595058
 20
-5516.864206
 42
0.278889
 10
2848.770317
 20
-5516.864206
 10
2855.979504
 20
-5512.503936
 42
-0.136834
 10
2858.567134
 20
-5511.782274
 10
2878.114265
 20
-5511.782274
 42
-0.304668
 10
2882.742868
 20
-5514.891236
 10
2889.04132
 20
-5530.307652
 42
0.114561
 10
2890.347962
 20
-5532.153533
 10
2897.094609
 20
-5538.151015
 42
-0.114561
 10
2898.401251
 20
-5539.996896
 10
2918.964124
 20
-5590.327652
 42
0.114561
 10
2920.270765
 20
-5592.173533
 10
2927.017413
 20
-5598.171015
 42
-0.114561
 10
2928.324055
 20
-5600.016896
 10
2934.622506
 20
-5615.433313
 42
0.304668
 10
2939.25111
 20
-5618.542274
 10
2958.798241
 20
-5618.542274
 42
0.136834
 10
2961.38587
 20
-5617.820612
 10
2968.595058
 20
-5613.460342
 42
-0.278889
 10
2973.770317
 20
-5613.460342
 10
2980.979504
 20
-5617.820612
 42
0.136834
 10
2983.567134
 20
-5618.542274
 10
3003.114265
 20
-5618.542274
 42
0.304668
 10
3007.742868
 20
-5615.433313
 10
3014.04132
 20
-5600.016896
 42
-0.114561
 10
3015.347961
 20
-5598.171015
 10
3022.094609
 20
-5592.173533
 42
0.114561
 10
3023.401251
 20
-5590.327652
 10
3043.964124
 20
-5539.996896
 42
-0.114561
 10
3045.270765
 20
-5538.151015
 10
3052.017413
 20
-5532.153533
 42
0.114561
 10
3053.324055
 20
-5530.307652
 10
3059.622506
 20
-5514.891236
 42
-0.304668
 10
3064.25111
 20
-5511.782274
 10
3083.79824
 20
-5511.782274
 42
-0.136834
 10
3086.38587
 20
-5512.503936
 10
3093.595058
 20
-5516.864206
 42
0.278889
 10
3098.770317
 20
-5516.864206
 10
3105.979504
 20
-5512.503936
 42
-0.136834
 10
3108.567134
 20
-5511.782274
 10
3128.114265
 20
-5511.782274
 42
-0.304668
 10
3132.742868
 20
-5514.891236
 10
3139.04132
 20
-5530.307652
 42
0.114561
 10
3140.347961
 20
-5532.153533
 10
3147.094609
 20
-5538.151015
 42
-0.114561
 10
3148.401251
 20
-5539.996896
 10
3168.964124
 20
-5590.327652
 42
0.114561
 10
3170.270765
 20
-5592.173533
 10
3177.017413
 20
-5598.171015
 42
-0.114561
 10
3178.324055
 20
-5600.016896
 10
3184.622506
 20
-5615.433313
 42
0.304668
 10
3189.25111
 20
-5618.542274
 10
3208.79824
 20
-5618.542274
 42
0.136834
 10
3211.38587
 20
-5617.820612
 10
3218.595058
 20
-5613.460342
 42
-0.278889
 10
3223.770317
 20
-5613.460342
 10
3230.979504
 20
-5617.820612
 42
0.136834
 10
3233.567134
 20
-5618.542274
 10
3253.114264
 20
-5618.542274
 42
0.304668
 10
3257.742868
 20
-5615.433313
 10
3264.041319
 20
-5600.016896
 42
-0.114561
 10
3265.347961
 20
-5598.171015
 10
3272.094609
 20
-5592.173533
 42
0.114561
 10
3273.401251
 20
-5590.327652
 10
3293.964123
 20
-5539.996896
 42
-0.114561
 10
3295.270765
 20
-5538.151015
 10
3302.017413
 20
-5532.153533
 42
0.114561
 10
3303.324055
 20
-5530.307652
 10
3309.622506
 20
-5514.891236
 42
-0.304668
 10
3314.25111
 20
-5511.782274
 10
3333.79824
 20
-5511.782274
 42
-0.136834
 10
3336.38587
 20
-5512.503936
 10
3343.595058
 20
-5516.864206
 42
0.278889
 10
3348.770317
 20
-5516.864206
 10
3355.979504
 20
-5512.503936
 42
-0.136834
 10
3358.567134
 20
-5511.782274
 10
3378.114264
 20
-5511.782274
 42
-0.304668
 10
3382.742868
 20
-5514.891236
 10
3386.011757
 20
-5522.892338
  0
DIMENSION
  5
2015B
100
AcDbEntity
  8
KOTY-UPLNE
100
AcDbDimension
  2
*D19
 10
3003.114265
 20
-5618.542274
 30
0.0
 11
3074.002645
 21
-5594.560584
 31
0.0
 70
   162
  1
67,78%%d
  3
UPLNE
100
AcDb2LineAngularDimension
 13
3007.742868
 23
-5615.433313
 33
0.0
 14
3014.04132
 24
-5600.016896
 34
0.0
 15
2983.567134
 25
-5618.542274
 35
0.0
 16
3042.561167
 26
-5582.220164
 36
0.0
1001
ACAD
1000
DSTYLE
1002
{
1070
   272
1070
     2
1070
    40
1040
3.0
1070
    45
1040
0.01
1070
   271
1070
     2
1002
}
  0
DIMENSION
  5
20177
100
AcDbEntity
  8
KOTY-UPLNE
100
AcDbDimension
  2
*D20
 10
3272.094609
 20
-5592.173533
 30
0.0
 11
3327.425372
 21
-5574.567868
 31
0.0
 70
    34
  1
41,64%%d
  3
UPLNE
100
AcDb2LineAngularDimension
 13
3265.347961
 23
-5598.171015
 33
0.0
 14
3320.607667
 24
-5598.171015
 34
0.0
 15
3265.347961
 25
-5598.171015
 35
0.0
 16
3315.745622
 26
-5585.718852
 36
0.0
1001
ACAD
1000
DSTYLE
1002
{
1070
   272
1070
     2
1070
    40
1040
3.0
1070
    45
1040
0.01
1070
   271
1070
     2
1002
}
  0
VIEWPORT
  5
6278
100
AcDbEntity
 67
     1
  8
0
100
AcDbViewport
 10
9.751627
 20
4.5
 30
0.0
 40
19.503254
 41
9.0
 68
    -1
 69
     1
1001
ACAD
1000
MVIEW
1002
{
1070
    16
1010
0.0
1020
0.0
1030
0.0
1010
0.0
1020
0.0
1030
1.0
1040
0.0
1040
9.0
1040
9.751627
1040
4.5
1040
50.0
1040
0.0
1040
0.0
1070
     0
1070
   100
1070
     1
1070
     1
1070
     0
1070
     0
1070
     0
1070
     0
1040
0.0
1040
0.0
1040
0.0
1040
1.0
1040
1.0
1040
100.0
1040
100.0
1070
     0
1002
{
1002
}
1002
}
  0
ENDSEC
  0
SECTION
  2
OBJECTS
  0
DICTIONARY
  5
C
100
AcDbDictionary
  3
ACAD_GROUP
350
D
  3
ACAD_MLINESTYLE
350
1A
  3
ACDBVARIABLEDICTIONARY
350
12CD1
  0
DICTIONARY
  5
1FD33
100
AcDbDictionary
280
     1
  3
ACAD_XREC_ROUNDTRIP
360
1FD34
  0
DICTIONARY
  5
D
102
{ACAD_REACTORS
330
C
102
}
100
AcDbDictionary
  0
DICTIONARY
  5
1A
102
{ACAD_REACTORS
330
C
102
}
100
AcDbDictionary
  3
STANDARD
350
1B
  0
DICTIONARY
  5
12CD1
102
{ACAD_REACTORS
330
C
102
}
100
AcDbDictionary
  3
SORTENTS
350
12CD2
  0
XRECORD
  5
1FD34
102
{ACAD_REACTORS
330
1FD33
102
}
100
AcDbXrecord
102
ACADR14ROUNDTRIP
1000
DSTYLE
1002
{
1070
   279
 70
     2
1070
   341
340
1FD2C
1070
   343
340
1FD2C
1070
   344
340
1FD2C
1002
}
  0
MLINESTYLE
  5
1B
102
{ACAD_REACTORS
330
1A
102
}
100
AcDbMlineStyle
  2
STANDARD
 70
     0
  3

 62
   256
 51
90.0
 52
90.0
 71
     2
 49
0.5
 62
   256
  6
BYLAYER
 49
-0.5
 62
   256
  6
BYLAYER
  0
DICTIONARYVAR
  5
12CD2
102
{ACAD_REACTORS
330
12CD1
102
}
100
DictionaryVariables
280
     0
  1
96
  0
ENDSEC
  0
EOF
